osu file format v14

[General]
AudioFilename: Kizuna no Yukue feat. Shiomiya Shiori.mp3
AudioLeadIn: 0
PreviewTime: 57439
Countdown: 0
SampleSet: Soft
StackLeniency: 0.7
Mode: 0
LetterboxInBreaks: 1
WidescreenStoryboard: 0

[Editor]
DistanceSpacing: 0.6
BeatDivisor: 4
GridSize: 4
TimelineZoom: 2.2

[Metadata]
Title:Kizuna no Yukue feat. Shiomiya Shiori
TitleUnicode:キズナノユクエ feat. 汐宮 栞
Artist:Shiomiya Shiori starring Hanazawa Kana
ArtistUnicode:汐宮 栞 starring 花澤香菜
Creator:Bearizm
Version:Megami
Source:神のみぞ知るセカイ 女神篇
Tags:Kami Nomi zo Shiru Sekai Megami-hen The World God Only Knows: Godesses ED Ending Momochikun Nardoxyribonucleic
BeatmapID:766668
BeatmapSetID:347422

[Difficulty]
HPDrainRate:6
CircleSize:4
OverallDifficulty:7
ApproachRate:8.3
SliderMultiplier:1.6
SliderTickRate:1

[Events]
//Background and Video events
0,0,"Shiori.jpg",0,0
//Break Periods
2,83584,95653
//Storyboard Layer 0 (Background)
//Storyboard Layer 1 (Fail)
//Storyboard Layer 2 (Pass)
//Storyboard Layer 3 (Foreground)
//Storyboard Sound Samples

[TimingPoints]
695,405.405405405405,4,2,1,100,1,0
9816,-100,4,2,1,60,0,0
10210,405.405405405405,4,2,1,70,1,8
10412,405.405405405405,4,2,1,100,1,0
16898,-133.333333333333,4,2,1,50,0,0
29871,-100,4,2,1,60,0,0
42844,-133.333333333333,4,2,1,50,0,0
52574,-100,4,2,1,60,0,0
55817,-100,4,2,1,70,0,0
57439,-100,4,2,1,80,0,1
82979,-200,4,2,1,80,0,1
83384,-100,4,2,1,80,0,0
96357,-100,4,2,1,60,0,0
109330,-133.333333333333,4,2,1,50,0,0
119060,-100,4,2,1,60,0,0
122303,-100,4,2,1,70,0,0
123925,-100,4,2,1,80,0,1
149871,-100,4,2,1,80,0,0
165682,-200,4,2,2,80,0,0
165783,-200,4,2,1,80,0,0
165986,-200,4,2,1,5,0,0
166087,-200,4,2,1,80,0,0
179060,-133.333333333333,4,2,1,50,0,0
188790,-133.333333333333,4,2,1,60,0,0
189803,-100,4,2,1,70,0,0
192033,-100,4,2,1,90,0,1
204905,-100,4,2,1,90,0,0
205006,-100,4,2,1,100,0,1
217979,-100,4,2,2,90,0,0

[Colours]
Combo1 : 0,234,117
Combo2 : 128,255,255
Combo3 : 255,128,128
Combo4 : 0,157,157
Combo5 : 192,192,192

[HitObjects]
53,306,9816,5,0,0:0:0:0:
72,300,9917,1,0,0:0:0:0:
91,295,10019,1,0,0:0:0:0:
111,293,10120,1,0,0:0:0:0:
132,292,10210,6,0,P|152:228|136:180,1,120,4|0,1:0|0:0,0:0:0:0:
135,179,10614,1,8,0:0:0:0:
192,64,10817,2,0,L|270:79,1,80,8|8,0:1|0:0,0:0:0:0:
332,152,11222,2,0,P|372:148|408:132,1,80,8|8,0:1|0:0,0:0:0:0:
504,148,11628,6,0,P|516:184|512:228,1,80,8|8,0:1|0:0,0:0:0:0:
448,296,12033,2,0,L|368:288,1,80,8|8,0:1|0:0,0:0:0:0:
312,364,12439,2,0,L|392:372,1,80,8|8,0:1|0:0,0:0:0:0:
423,198,12844,1,8,0:1:0:0:
360,128,13047,2,0,P|352:88|360:48,1,80,8|8,0:0|0:1,0:0:0:0:
423,198,13452,6,0,P|360:176|312:200,1,120,4|0,1:0|0:0,0:0:0:0:
314,197,13857,1,8,0:0:0:0:
240,332,14060,2,0,L|160:316,1,80,8|8,0:1|0:0,0:0:0:0:
76,272,14466,2,0,P|64:232|68:192,1,80,8|8,0:1|0:0,0:0:0:0:
136,124,14871,1,8,0:1:0:0:
276,200,15074,1,8,0:0:0:0:
276,200,15175,1,0,0:0:0:0:
276,200,15276,6,0,P|280:240|268:280,2,80,4|8|8,0:0|0:0|0:1,0:0:0:0:
212,336,15884,2,0,P|292:304|348:344,1,160,12|8,0:0|0:0,0:0:0:0:
492,264,16493,1,0,1:0:0:0:
492,264,16898,6,0,L|484:144,1,120.000004577637,2|0,0:0|0:0,0:0:0:0:
404,88,17506,2,0,P|344:104|296:76,1,120.000004577637,2|0,0:0|0:0,0:0:0:0:
296,76,18317,2,0,B|288:136|288:136|304:196|304:196|296:256,1,180.000006866455,2|0,0:0|0:0,0:0:0:0:
236,328,19128,2,0,P|172:340|128:312,1,120.000004577637,2|0,0:0|0:0,0:0:0:0:
96,220,19736,1,0,0:0:0:0:
16,276,19939,6,0,P|12:308|16:336,1,60.0000022888184,2|0,0:0|0:0,0:0:0:0:
96,220,20344,2,0,B|88:192|88:192|84:132|84:132|76:100,1,120.000004577637
76,102,21155,1,2,0:0:0:0:
144,32,21357,1,0,0:0:0:0:
244,100,21560,2,0,L|232:220,1,120.000004577637,2|0,0:0|0:0,0:0:0:0:
232,220,22371,2,0,P|172:204|120:224,1,120.000004577637,2|0,0:0|0:0,0:0:0:0:
104,320,22979,2,0,L|164:336,1,60.0000022888184
280,276,23384,6,0,L|272:156,1,120.000004577637,2|0,0:0|0:0,0:0:0:0:
204,80,23993,1,0,0:0:0:0:
124,228,24398,1,2,0:0:0:0:
312,320,24803,2,0,L|304:200,1,120.000004577637,2|0,0:0|0:0,0:0:0:0:
248,120,25411,1,0,0:0:0:0:
124,228,25614,2,0,P|68:248|8:224,2,120.000004577637,0|2|0,0:0|0:0|0:0,0:0:0:0:
176,140,26628,6,0,B|168:200|168:200|188:260,1,120.000004577637,2|0,0:0|0:0,0:0:0:0:
272,300,27236,2,0,P|328:280|384:300,1,120.000004577637,2|0,0:0|0:0,0:0:0:0:
328,380,27844,1,0,0:0:0:0:
252,220,28047,2,0,L|264:100,2,120.000004577637,2|0|0,0:0|0:0|0:0,0:0:0:0:
344,188,29060,2,0,L|350:129,1,60.0000022888184,0|8,1:0|0:0,0:0:0:0:
172,116,29466,2,0,L|166:175,1,60.0000022888184,0|0,1:0|0:0,0:0:0:0:
212,324,29871,6,0,P|288:300|352:340,1,160,12|0,0:0|1:0,0:0:0:0:
464,364,30479,2,0,L|472:204,1,160,2|8,0:0|0:0,0:0:0:0:
408,112,31087,1,0,1:0:0:0:
324,184,31290,6,0,B|260:200|260:200|216:176|220:120,1,160,8|8,0:0|0:0,0:0:0:0:
144,40,31898,1,0,1:0:0:0:
36,136,32101,2,0,L|44:216,1,80,2|0,0:0|0:0,0:0:0:0:
43,215,32405,1,0,1:0:0:0:
43,215,32506,1,8,0:0:0:0:
124,292,32709,1,0,1:0:0:0:
176,192,32911,1,0,0:0:0:0:
232,328,33114,6,0,B|312:320|312:320|308:320,1,80,8|0,0:0|0:0,0:0:0:0:
416,356,33520,1,0,1:0:0:0:
484,268,33722,1,8,0:0:0:0:
484,268,33824,2,0,L|468:148,1,120,0|8,1:0|0:0,0:0:0:0:
380,80,34330,1,0,1:0:0:0:
296,156,34533,6,0,B|252:164|252:164|224:144|176:136|140:156,1,160,10|8,0:0|0:0,0:0:0:0:
188,256,35141,1,0,1:0:0:0:
88,304,35344,1,8,0:0:0:0:
88,304,35445,2,0,L|80:224,1,80,0|0,1:0|1:0,0:0:0:0:
80,224,35749,1,8,0:0:0:0:
188,256,35952,1,0,1:0:0:0:
188,256,36155,1,0,0:0:0:0:
304,344,36357,6,0,L|312:184,1,160,8|0,0:0|1:0,0:0:0:0:
388,100,36966,1,2,0:0:0:0:
388,100,37067,1,0,1:0:0:0:
388,100,37168,1,0,0:0:0:0:
296,164,37371,1,8,0:0:0:0:
248,64,37574,1,0,1:0:0:0:
388,100,37776,6,0,B|384:140|384:140|400:220|400:220|396:260,1,160,8|8,0:0|0:0,0:0:0:0:
320,344,38384,1,0,1:0:0:0:
248,256,38587,2,0,P|172:232|108:272,1,160,2|8,0:0|0:0,0:0:0:0:
102,248,39094,1,8,0:0:0:0:
96,224,39195,2,0,L|84:144,1,80,0|0,1:0|0:0,0:0:0:0:
56,328,39601,6,0,P|128:288|188:324,1,160,8|0,0:0|1:0,0:0:0:0:
320,344,40209,1,8,0:0:0:0:
320,344,40310,2,0,L|332:264,1,80,0|0,1:0|1:0,0:0:0:0:
331,264,40614,1,8,0:0:0:0:
428,320,40817,1,0,1:0:0:0:
220,368,41020,6,0,L|240:208,1,160,12|8,0:0|0:0,0:0:0:0:
344,172,41628,2,0,L|336:52,1,120,0|0,1:0|1:0,0:0:0:0:
336,52,42033,1,8,0:0:0:0:
436,104,42236,1,8,0:0:0:0:
239,209,42439,1,0,1:0:0:0:
239,209,42540,1,0,1:0:0:0:
239,209,42641,1,8,0:0:0:0:
316,292,42844,6,0,P|416:310|433:198,1,240.000009155274,4|0,0:0|0:0,0:0:0:0:
324,152,43857,2,0,L|332:212,1,60.0000022888184,2|0,0:0|0:0,0:0:0:0:
440,120,44263,2,0,L|444:60,1,60.0000022888184,2|0,0:0|0:0,0:0:0:0:
324,60,44668,2,0,B|292:56|292:56|236:68|236:68|204:64,1,120.000004577637,2|2,0:0|0:0,0:0:0:0:
96,20,45276,2,0,L|112:140,1,120.000004577637
111,138,46087,5,2,0:0:0:0:
28,244,46290,2,0,P|104:216|156:288,1,180.000006866455,2|0,0:0|0:0,0:0:0:0:
292,340,47101,2,0,P|300:308|304:280,1,60.0000022888184,2|0,0:0|0:0,0:0:0:0:
220,168,47506,2,0,P|224:200|232:228,1,60.0000022888184,2|0,0:0|0:0,0:0:0:0:
352,220,47911,2,0,L|412:212,1,60.0000022888184,2|0,0:0|0:0,0:0:0:0:
296,113,48317,2,0,L|316:292,1,180.000006866455,2|0,0:0|0:0,0:0:0:0:
316,292,49330,6,0,B|256:284|256:284|196:300|196:300|140:292,1,180.000006866455,8|8,0:0|0:0,0:0:0:0:
116,300,50040,1,8,0:0:0:0:
93,308,50141,2,0,B|99:219|99:219|91:187,1,120.000004577637,0|0,1:0|1:0,0:0:0:0:
37,124,50749,2,0,P|93:144|149:124,1,120.000004577637,8|8,0:0|0:0,0:0:0:0:
208,65,51357,1,0,0:0:0:0:
324,94,51560,1,8,0:0:0:0:
324,94,51661,1,8,0:0:0:0:
324,94,51763,2,0,L|316:154,1,60.0000022888184,0|8,1:0|0:0,0:0:0:0:
244,198,52168,2,0,L|252:258,1,60.0000022888184,0|8,1:0|0:0,0:0:0:0:
320,326,52574,6,0,P|248:302|184:346,1,160,12|0,0:0|1:0,0:0:0:0:
140,226,53182,1,8,0:0:0:0:
64,330,53384,1,0,1:0:0:0:
136,206,53587,1,8,0:0:0:0:
183,346,53790,1,0,1:0:0:0:
132,186,53993,1,8,0:0:0:0:
280,192,54195,6,0,L|360:184,1,80,0|8,1:0|0:0,0:0:0:0:
448,320,54601,2,0,L|368:312,1,80,0|8,1:0|0:0,0:0:0:0:
207,316,55006,1,0,1:0:0:0:
180,224,55209,1,8,0:0:0:0:
332,292,55411,1,0,1:0:0:0:
360,384,55614,1,8,0:0:0:0:
412,212,55817,6,0,L|404:172,2,40,0|0|8,1:0|1:0|0:0,0:0:0:0:
288,316,56222,2,0,L|284:356,2,40,0|0|8,1:0|1:0|0:0,0:0:0:0:
136,260,56628,5,8,0:0:0:0:
143,232,56729,1,0,0:0:0:0:
145,204,56830,1,0,1:0:0:0:
143,176,56932,1,0,1:0:0:0:
134,148,57033,1,0,1:0:0:0:
122,122,57134,1,0,0:0:0:0:
114,95,57236,1,0,0:0:0:0:
112,66,57337,1,0,0:0:0:0:
120,40,57439,6,0,L|200:48,1,80,12|8,0:0|0:0,0:0:0:0:
304,12,57844,1,0,1:0:0:0:
456,64,58047,1,8,0:0:0:0:
456,64,58148,2,0,L|448:144,1,80,0|0,1:0|1:0,0:0:0:0:
448,143,58452,1,8,0:0:0:0:
500,224,58655,1,0,1:0:0:0:
388,356,58857,6,0,B|268:340|268:340|228:348,1,160,12|8,0:0|0:0,0:0:0:0:
164,276,59466,2,0,P|144:236|144:200,1,80,0|8,1:0|0:0,0:0:0:0:
200,124,59871,1,0,0:0:0:0:
200,124,59972,1,0,1:0:0:0:
200,124,60074,1,8,0:0:0:0:
132,20,60276,2,0,L|52:28,1,80,0|0,1:0|0:0,0:0:0:0:
208,144,60682,6,0,L|288:152,1,80,12|8,0:0|0:0,0:0:0:0:
212,44,61087,1,0,1:0:0:0:
72,160,61290,1,8,0:0:0:0:
72,160,61391,2,0,L|80:240,1,80,0|0,1:0|1:0,0:0:0:0:
79,239,61695,1,8,0:0:0:0:
128,328,61898,1,0,1:0:0:0:
328,240,62101,6,0,B|208:228|208:228|168:240,1,160,12|8,0:0|0:0,0:0:0:0:
264,324,62709,1,0,1:0:0:0:
332,156,62911,1,8,0:0:0:0:
200,136,63114,2,0,L|196:96,2,40,0|0|8,0:0|1:0|0:0,0:0:0:0:
336,272,63520,1,0,1:0:0:0:
208,256,63722,1,8,0:0:0:0:
208,256,63824,1,0,1:0:0:0:
208,256,63925,5,12,0:0:0:0:
356,136,64128,2,0,L|348:56,1,80,8|0,0:0|1:0,0:0:0:0:
200,176,64533,1,8,0:0:0:0:
200,176,64634,2,0,L|208:256,1,80,0|0,1:0|1:0,0:0:0:0:
207,255,64939,1,8,0:0:0:0:
280,340,65141,1,0,1:0:0:0:
452,252,65344,6,0,B|448:212|448:212|464:132|464:132|456:88,1,160,12|8,0:0|0:0,0:0:0:0:
344,40,65952,1,0,1:0:0:0:
348,152,66155,1,8,0:0:0:0:
452,80,66357,1,0,0:0:0:0:
452,80,66459,1,0,1:0:0:0:
452,80,66560,1,8,0:0:0:0:
332,164,66763,2,0,L|252:148,1,80,0|0,1:0|0:0,0:0:0:0:
253,148,67067,1,0,1:0:0:0:
253,148,67168,5,12,0:0:0:0:
72,144,67371,1,8,0:0:0:0:
184,48,67574,1,0,1:0:0:0:
152,208,67776,1,8,0:0:0:0:
152,208,67878,2,0,L|140:288,1,80,0|0,1:0|1:0,0:0:0:0:
140,287,68182,1,8,0:0:0:0:
224,360,68384,1,0,1:0:0:0:
232,172,68587,6,0,P|208:140|96:140,1,160,12|8,0:0|0:0,0:0:0:0:
40,320,69195,1,0,1:0:0:0:
152,208,69398,1,8,0:0:0:0:
0,216,69601,1,0,1:0:0:0:
144,312,69803,1,8,0:0:0:0:
263,197,70006,1,0,1:0:0:0:
267,165,70107,1,0,0:0:0:0:
264,134,70209,1,0,0:0:0:0:
255,104,70310,1,0,0:0:0:0:
240,76,70411,6,0,P|271:49|379:73,1,160,12|0,0:0|1:0,0:0:0:0:
492,140,71020,1,8,0:0:0:0:
492,140,71121,2,0,L|484:60,1,80,0|0,1:0|1:0,0:0:0:0:
484,60,71425,1,8,0:0:0:0:
360,160,71628,1,0,1:0:0:0:
496,248,71830,6,0,B|492:288|492:288|456:264|420:260|376:284,1,160,12|8,0:0|0:0,0:0:0:0:
284,348,72439,1,0,1:0:0:0:
432,360,72641,1,8,0:0:0:0:
320,220,72844,2,0,L|328:180,2,40,0|0|8,0:0|1:0|0:0,0:0:0:0:
308,364,73249,1,0,1:0:0:0:
428,272,73452,1,0,0:0:0:0:
428,272,73553,1,0,1:0:0:0:
428,272,73655,5,12,0:0:0:0:
284,348,73857,2,0,L|204:336,1,80,8|0,0:0|1:0,0:0:0:0:
84,228,74263,1,8,0:0:0:0:
84,228,74364,2,0,L|164:216,1,80,0|0,1:0|1:0,0:0:0:0:
163,216,74668,1,8,0:0:0:0:
260,272,74871,1,0,1:0:0:0:
360,148,75074,6,0,P|364:104|292:16,1,160,12|8,0:0|0:0,0:0:0:0:
140,64,75682,1,0,1:0:0:0:
260,116,75884,1,8,0:0:0:0:
104,172,76087,2,0,L|64:164,2,40,0|0|8,0:0|1:0|0:0,0:0:0:0:
256,100,76493,1,0,1:0:0:0:
192,208,76695,1,8,0:0:0:0:
192,208,76797,1,0,1:0:0:0:
192,208,76898,5,12,0:0:0:0:
204,24,77101,2,0,P|244:12|284:12,1,80,8|0,0:0|1:0,0:0:0:0:
428,80,77506,2,0,B|432:120|432:120|424:160|424:160|428:200,1,120,8|0,0:0|1:0,0:0:0:0:
427,198,77911,1,8,0:0:0:0:
504,280,78114,1,0,1:0:0:0:
344,352,78317,6,0,P|272:316|208:352,1,160,12|8,0:0|0:0,0:0:0:0:
64,284,78925,1,0,1:0:0:0:
216,232,79128,1,8,0:0:0:0:
120,360,79330,1,0,0:0:0:0:
120,360,79432,1,0,1:0:0:0:
120,360,79533,1,8,0:0:0:0:
136,180,79736,2,0,L|124:100,1,80,0|0,1:0|0:0,0:0:0:0:
124,100,80040,1,0,1:0:0:0:
124,100,80141,5,12,0:0:0:0:
277,181,80344,2,0,P|280:220|272:260,1,80,8|0,0:0|1:0,0:0:0:0:
400,352,80749,1,8,0:0:0:0:
400,352,80851,2,0,L|480:344,1,80,0|0,1:0|1:0,0:0:0:0:
479,344,81155,1,8,0:0:0:0:
384,216,81357,1,0,1:0:0:0:
284,340,81560,6,0,P|200:356|156:304,1,160,12|8,0:0|0:0,0:0:0:0:
156,305,82067,1,0,1:0:0:0:
156,305,82168,1,0,1:0:0:0:
196,152,82371,1,8,0:0:0:0:
193,128,82472,1,0,1:0:0:0:
190,104,82574,2,0,L|196:64,2,40,0|8|8,1:0|0:0|0:0,0:0:0:0:
36,232,82979,6,0,L|116:224,1,80,0|2,1:0|0:0,0:0:0:0:
304,260,96357,6,0,L|144:252,1,160,12|0,0:0|1:0,0:0:0:0:
36,272,96966,1,8,0:0:0:0:
36,272,97067,2,0,P|20:232|40:156,1,120,0|8,1:0|0:0,0:0:0:0:
132,100,97574,1,0,1:0:0:0:
184,200,97776,6,0,L|172:280,1,80,10|0,0:0|0:0,0:0:0:0:
252,356,98182,1,8,0:0:0:0:
356,316,98384,2,0,P|352:280|336:240,1,80,0|0,1:0|0:0,0:0:0:0:
396,92,98790,1,0,0:0:0:0:
396,92,98891,1,0,1:0:0:0:
396,92,98993,1,8,0:0:0:0:
312,168,99195,1,0,1:0:0:0:
440,232,99398,1,0,0:0:0:0:
264,300,99601,6,0,L|184:288,1,80,8|0,0:0|0:0,0:0:0:0:
84,340,100006,1,0,1:0:0:0:
32,208,100209,1,8,0:0:0:0:
32,208,100310,2,0,L|44:88,1,120,0|8,1:0|0:0,0:0:0:0:
128,12,100817,1,0,1:0:0:0:
188,160,101020,6,0,P|264:128|328:164,1,160,10|8,0:0|0:0,0:0:0:0:
376,264,101628,1,0,1:0:0:0:
480,164,101830,1,8,0:0:0:0:
480,164,101932,2,0,L|468:84,1,80,0|0,1:0|1:0,0:0:0:0:
468,84,102236,1,8,0:0:0:0:
368,32,102439,1,0,1:0:0:0:
268,156,102641,1,0,0:0:0:0:
268,156,102743,1,0,1:0:0:0:
268,156,102844,6,0,L|108:132,1,160,8|0,0:0|1:0,0:0:0:0:
44,40,103452,1,2,0:0:0:0:
44,40,103553,1,0,1:0:0:0:
44,40,103655,1,0,0:0:0:0:
92,140,103857,1,8,0:0:0:0:
12,219,104060,1,0,1:0:0:0:
112,268,104263,6,0,B|152:264|188:248|188:248|224:264|240:308,1,160,8|8,0:0|0:0,0:0:0:0:
342,352,104871,1,0,1:0:0:0:
468,256,105074,1,8,0:0:0:0:
468,256,105175,2,0,L|456:176,1,80,0|0,1:0|1:0,0:0:0:0:
460,152,105479,1,8,0:0:0:0:
463,127,105580,1,8,0:0:0:0:
467,103,105682,1,0,1:0:0:0:
392,20,105884,1,8,0:0:0:0:
312,160,106087,6,0,B|272:152|272:152|192:168|192:168|156:160,1,160,8|0,0:0|1:0,0:0:0:0:
84,96,106695,2,0,P|119:163|83:231,1,160,2|8,0:0|0:0,0:0:0:0:
4,288,107303,1,0,1:0:0:0:
192,360,107506,6,0,B|232:356|268:328|268:328|312:332|336:360,1,160,12|8,0:0|0:0,0:0:0:0:
188,248,108114,1,8,0:0:0:0:
280,160,108317,1,8,0:0:0:0:
280,160,108418,1,8,0:0:0:0:
280,160,108520,1,8,0:0:0:0:
264,300,108722,1,8,0:0:0:0:
168,160,108925,2,0,L|180:80,1,80,0|0,1:0|1:0,0:0:0:0:
185,49,109229,1,0,1:0:0:0:
192,20,109330,6,0,B|251:11|251:11|307:31|307:31|367:23,1,180.000006866455,12|8,0:0|0:0,0:0:0:0:
397,31,110040,1,8,0:0:0:0:
426,38,110141,2,0,L|412:160,1,120.000004577637,0|0,1:0|0:0,0:0:0:0:
400,264,110749,6,0,L|340:256,1,60.0000022888184,8|0,0:0|0:0,0:0:0:0:
312,224,111053,2,0,L|220:236,1,90.0000034332277,8|0,0:0|0:0,0:0:0:0:
124,196,111560,1,10,0:0:0:0:
120,172,111661,1,8,0:0:0:0:
116,148,111763,2,0,L|104:268,1,120.000004577637,0|0,1:0|0:0,0:0:0:0:
248,316,112371,1,0,1:0:0:0:
252,340,112472,1,0,1:0:0:0:
256,364,112574,6,0,B|316:352|316:352|376:360|376:360|436:352,1,180.000006866455,8|8,0:0|0:0,0:0:0:0:
463,355,113283,1,8,0:0:0:0:
492,357,113384,2,0,L|484:236,1,120.000004577637,0|0,1:0|0:0,0:0:0:0:
484,136,113993,6,0,L|424:144,1,60.0000022888184,8|0,0:0|0:0,0:0:0:0:
336,108,114398,1,8,0:0:0:0:
296,20,114601,1,0,0:0:0:0:
284,176,114803,1,8,0:0:0:0:
284,176,114905,1,8,0:0:0:0:
284,176,115006,2,0,L|280:236,1,60.0000022888184,2|0,1:2|0:0,0:0:0:0:
268,332,115411,1,2,0:0:0:0:
104,352,115614,1,0,1:0:0:0:
104,352,115716,1,0,1:0:0:0:
104,352,115817,6,0,B|112:292|112:292|96:232|96:232|104:172,1,180.000006866455,10|8,0:0|0:0,0:0:0:0:
109,151,116526,1,8,0:0:0:0:
114,127,116628,2,0,P|175:144|223:120,1,120.000004577637,0|0,1:0|0:0,0:0:0:0:
172,1,117236,6,0,L|165:61,1,60.0000022888184,8|0,0:0|0:0,0:0:0:0:
223,119,117641,2,0,L|231:179,1,60.0000022888184,8|0,0:0|0:0,0:0:0:0:
183,260,118047,1,8,0:0:0:0:
183,260,118148,1,8,0:0:0:0:
183,260,118249,1,0,1:0:0:0:
255,196,118452,1,8,0:0:0:0:
320,344,118655,1,8,0:0:0:0:
347,331,118756,1,0,1:0:0:0:
376,328,118857,1,8,0:0:0:0:
406,333,118959,1,0,1:0:0:0:
432,348,119060,6,0,L|436:188,1,160,12|0,0:0|1:0,0:0:0:0:
332,112,119668,1,8,0:0:0:0:
312,236,119871,1,0,1:0:0:0:
252,80,120074,1,8,0:0:0:0:
384,212,120276,1,0,1:0:0:0:
212,160,120479,1,8,0:0:0:0:
391,132,120682,6,0,L|383:212,1,80,0|8,1:0|0:0,0:0:0:0:
264,320,121087,2,0,L|272:240,1,80,0|8,1:0|0:0,0:0:0:0:
252,80,121493,5,0,1:0:0:0:
412,136,121695,1,8,0:0:0:0:
292,180,121898,1,0,1:0:0:0:
332,36,122101,1,8,0:0:0:0:
384,236,122303,6,0,L|376:276,1,40,8|0,0:0|1:0,0:0:0:0:
472,308,122506,1,0,1:0:0:0:
472,308,122607,1,0,1:0:0:0:
472,308,122709,2,0,L|480:268,1,40,0|0,1:0|1:0,0:0:0:0:
472,172,122911,2,0,L|444:144,1,40,8|8,0:0|0:0,0:0:0:0:
348,136,123114,5,0,1:0:0:0:
323,149,123216,1,8,0:0:0:0:
296,156,123317,1,8,0:0:0:0:
267,157,123418,1,8,0:0:0:0:
239,151,123520,1,0,1:0:0:0:
213,140,123621,1,0,0:0:0:0:
186,130,123722,1,0,0:0:0:0:
158,128,123824,1,0,0:0:0:0:
130,134,123925,6,0,P|136:172|136:216,1,80,12|8,0:0|0:0,0:0:0:0:
80,328,124330,1,0,1:0:0:0:
240,248,124533,1,8,0:0:0:0:
240,248,124634,2,0,L|320:240,1,80,0|0,1:0|1:0,0:0:0:0:
319,240,124939,1,8,0:0:0:0:
416,296,125141,1,0,1:0:0:0:
488,112,125344,6,0,P|412:136|364:80,1,160,12|8,0:0|0:0,0:0:0:0:
264,32,125952,1,0,1:0:0:0:
144,136,126155,1,8,0:0:0:0:
160,24,126357,1,0,0:0:0:0:
160,24,126459,1,0,1:0:0:0:
160,24,126560,1,8,0:0:0:0:
260,144,126763,2,0,L|178:152,1,80,0|0,1:0|0:0,0:0:0:0:
100,296,127168,6,0,L|182:288,1,80,12|8,0:0|0:0,0:0:0:0:
268,356,127574,1,0,1:0:0:0:
424,292,127776,1,8,0:0:0:0:
424,292,127878,2,0,L|416:212,1,80,0|0,1:0|1:0,0:0:0:0:
416,212,128182,1,8,0:0:0:0:
492,108,128384,1,0,1:0:0:0:
328,176,128587,6,0,L|343:335,1,160,12|8,0:0|0:0,0:0:0:0:
416,212,129195,1,0,1:0:0:0:
260,268,129398,1,8,0:0:0:0:
424,292,129601,2,0,L|464:296,2,40,0|0|8,0:0|1:0|0:0,0:0:0:0:
328,176,130006,1,0,1:0:0:0:
343,335,130209,1,8,0:0:0:0:
343,335,130310,1,0,1:0:0:0:
343,335,130411,6,0,L|424:324,1,80,12|8,0:0|0:0,0:0:0:0:
480,228,130817,1,0,1:0:0:0:
328,176,131020,1,8,0:0:0:0:
328,176,131121,2,0,L|248:168,1,80,0|0,1:0|1:0,0:0:0:0:
248,168,131425,1,8,0:0:0:0:
176,84,131628,1,0,1:0:0:0:
72,224,131830,6,0,P|108:204|212:248,1,160,12|8,0:0|0:0,0:0:0:0:
132,292,132439,1,0,1:0:0:0:
24,152,132641,1,8,0:0:0:0:
8,292,132844,1,0,0:0:0:0:
8,292,132945,1,0,1:0:0:0:
8,292,133047,1,8,0:0:0:0:
140,172,133249,2,0,L|128:92,1,80,0|0,1:0|0:0,0:0:0:0:
128,92,133553,1,0,1:0:0:0:
128,92,133655,5,12,0:0:0:0:
24,52,133857,1,8,0:0:0:0:
220,96,134060,1,0,1:0:0:0:
56,208,134263,1,8,0:0:0:0:
56,208,134364,2,0,L|68:288,1,80,0|0,1:0|1:0,0:0:0:0:
67,287,134668,1,8,0:0:0:0:
152,360,134871,1,0,1:0:0:0:
344,252,135074,6,0,B|226:240|226:240|186:252,1,160,12|8,0:0|0:0,0:0:0:0:
248,140,135682,1,0,1:0:0:0:
236,324,135884,1,8,0:0:0:0:
164,176,136087,1,0,1:0:0:0:
296,268,136290,1,8,0:0:0:0:
104,248,136493,1,0,1:0:0:0:
104,248,136594,1,0,1:0:0:0:
104,248,136695,1,8,0:0:0:0:
248,140,136898,5,12,0:0:0:0:
196,256,137101,1,8,0:0:0:0:
172,80,137303,1,0,1:0:0:0:
276,236,137506,1,8,0:0:0:0:
276,236,137607,2,0,L|356:244,1,80,0|0,1:0|1:0,0:0:0:0:
355,243,137911,1,8,0:0:0:0:
424,156,138114,1,0,1:0:0:0:
388,328,138317,6,0,L|228:313,1,160,12|8,0:0|0:0,0:0:0:0:
120,344,138925,1,0,1:0:0:0:
176,196,139128,1,8,0:0:0:0:
228,313,139330,1,0,0:0:0:0:
228,313,139432,1,0,1:0:0:0:
228,313,139533,1,8,0:0:0:0:
68,216,139736,2,0,L|76:136,1,80,0|0,1:0|0:0,0:0:0:0:
75,136,140040,1,0,1:0:0:0:
75,136,140141,5,12,0:0:0:0:
180,16,140344,1,8,0:0:0:0:
72,44,140547,1,0,1:0:0:0:
212,144,140749,1,8,0:0:0:0:
212,144,140851,2,0,L|292:136,1,80,0|0,1:0|1:0,0:0:0:0:
291,136,141155,1,8,0:0:0:0:
368,56,141357,1,0,1:0:0:0:
504,168,141560,6,0,L|496:328,1,160,12|8,0:0|0:0,0:0:0:0:
388,360,142168,1,0,1:0:0:0:
276,224,142371,1,8,0:0:0:0:
364,140,142574,1,0,0:0:0:0:
364,140,142675,1,0,1:0:0:0:
364,140,142776,1,8,0:0:0:0:
384,340,142979,2,0,L|304:328,1,80,0|0,1:0|0:0,0:0:0:0:
304,328,143283,1,0,1:0:0:0:
304,328,143384,5,12,0:0:0:0:
164,252,143587,2,0,L|84:264,1,80,8|0,0:0|1:0,0:0:0:0:
232,196,143993,2,0,P|252:132|244:80,1,120,8|0,0:0|1:0,0:0:0:0:
244,80,144398,1,8,0:0:0:0:
116,92,144601,1,0,1:0:0:0:
164,252,144803,6,0,P|240:220|304:256,1,160,12|8,0:0|0:0,0:0:0:0:
352,356,145411,1,0,1:0:0:0:
368,196,145614,1,8,0:0:0:0:
232,312,145817,1,0,0:0:0:0:
232,312,145918,1,0,1:0:0:0:
232,312,146020,1,8,0:0:0:0:
360,340,146222,1,0,1:0:0:0:
224,332,146425,1,0,0:0:0:0:
224,332,146526,1,0,1:0:0:0:
224,332,146628,6,0,L|144:344,2,80,12|8|0,0:0|0:0|1:0,0:0:0:0:
368,196,147236,1,8,0:0:0:0:
368,196,147337,2,0,L|376:116,1,80,0|0,1:0|1:0,0:0:0:0:
375,116,147641,1,8,0:0:0:0:
448,260,147844,1,0,1:0:0:0:
448,260,147945,1,0,1:0:0:0:
448,260,148047,6,0,P|368:232|316:276,1,160,12|8,0:0|0:0,0:0:0:0:
316,275,148553,1,0,1:0:0:0:
316,275,148655,1,0,1:0:0:0:
124,332,148857,5,8,0:0:0:0:
124,332,148959,1,8,0:0:0:0:
124,332,149060,2,0,L|116:372,1,40,0|0,1:0|1:0,0:0:0:0:
220,269,149263,2,0,L|212:229,1,40,8|8,0:0|0:0,0:0:0:0:
111,192,149466,5,0,1:0:0:0:
106,168,149567,1,0,1:0:0:0:
106,143,149668,1,0,1:0:0:0:
114,120,149770,1,0,1:0:0:0:
129,102,149871,6,0,P|208:112|232:48,1,160,4|0,1:2|1:0,0:0:0:0:
336,4,150479,1,8,0:0:0:0:
452,56,150682,2,0,L|444:136,1,80,0|8,1:0|0:0,0:0:0:0:
332,196,151087,2,0,L|340:276,1,80,0|8,1:0|0:0,0:0:0:0:
449,364,151493,6,0,B|397:356|397:356|345:372|345:372|293:364,1,160,0|0,1:0|1:0,0:0:0:0:
204,268,152101,1,8,0:0:0:0:
56,364,152303,1,0,1:0:0:0:
56,364,152405,1,0,1:0:0:0:
56,364,152506,1,8,0:0:0:0:
208,248,152709,2,0,P|212:208|204:168,1,80,0|0,1:0|0:0,0:0:0:0:
160,308,153114,6,0,P|232:268|292:308,1,160,4|0,1:2|1:0,0:0:0:0:
404,368,153722,1,8,0:0:0:0:
504,288,153925,2,0,P|496:248|476:212,1,80,0|8,1:0|0:0,0:0:0:0:
356,172,154330,1,0,1:0:0:0:
256,288,154533,1,8,0:0:0:0:
404,368,154736,6,0,L|392:288,1,80,0|8,1:0|0:0,0:0:0:0:
244,208,155141,2,0,L|256:288,1,80,0|8,1:0|0:0,0:0:0:0:
356,172,155547,1,0,1:0:0:0:
356,172,155648,1,0,1:0:0:0:
356,172,155749,1,8,0:0:0:0:
308,72,155952,2,0,P|320:32|344:4,1,80,0|8,1:0|0:0,0:0:0:0:
424,212,156357,6,0,L|264:208,1,160,4|0,1:2|1:0,0:0:0:0:
168,268,156966,1,8,0:0:0:0:
40,172,157168,2,0,P|40:132|52:92,1,80,0|8,1:0|0:0,0:0:0:0:
168,268,157574,2,0,P|179:306|179:346,1,80,0|8,1:0|0:0,0:0:0:0:
100,228,157979,6,0,P|180:256|236:216,1,160,0|0,1:0|1:0,0:0:0:0:
308,72,158587,1,8,0:0:0:0:
164,172,158790,1,0,1:0:0:0:
164,172,158891,1,0,1:0:0:0:
164,172,158993,2,0,L|160:132,1,40,8|8,0:0|0:0,0:0:0:0:
344,216,159195,1,0,1:0:0:0:
340,243,159297,1,0,1:0:0:0:
336,270,159398,1,8,0:0:0:0:
332,298,159499,1,8,0:0:0:0:
329,325,159601,6,0,L|248:328,1,80,4|0,1:2|0:0,0:0:0:0:
128,280,160006,1,0,1:0:0:0:
236,215,160209,1,8,0:0:0:0:
240,344,160411,1,0,1:0:0:0:
248,192,160614,1,8,0:0:0:0:
104,284,160817,1,0,1:0:0:0:
264,168,161020,1,8,0:0:0:0:
236,368,161222,5,0,1:0:0:0:
236,368,161324,1,0,1:0:0:0:
236,368,161425,1,8,0:0:0:0:
76,292,161628,2,0,L|80:212|80:212,1,80,0|8,1:0|0:0,0:0:0:0:
236,112,162033,2,0,L|248:192,1,80,0|8,1:0|0:0,0:0:0:0:
304,284,162439,5,0,1:0:0:0:
325,274,162540,1,0,1:0:0:0:
348,270,162641,1,8,0:0:0:0:
371,271,162743,1,8,0:0:0:0:
394,277,162844,1,0,1:0:0:0:
414,289,162945,1,0,1:0:0:0:
430,306,163047,1,8,0:0:0:0:
508,232,163249,1,8,0:0:0:0:
356,364,163452,1,8,0:0:0:0:
244,200,163655,5,8,0:0:0:0:
248,176,163756,1,0,1:0:0:0:
252,152,163857,1,0,1:0:0:0:
388,28,164060,1,0,1:0:0:0:
392,52,164161,1,8,0:0:0:0:
396,75,164263,1,8,0:0:0:0:
468,264,164466,5,8,0:0:0:0:
441,246,164567,1,0,0:0:0:0:
411,235,164668,1,0,1:0:0:0:
379,233,164770,1,0,1:0:0:0:
348,240,164871,1,0,1:0:0:0:
319,254,164972,1,0,1:0:0:0:
295,276,165074,1,8,0:0:0:0:
278,302,165175,1,8,0:0:0:0:
265,332,165276,6,0,L|272:372,1,40,0|0,1:0|1:0,0:0:0:0:
160,216,165479,1,8,0:0:0:0:
160,216,165580,1,8,0:0:0:0:
160,216,165682,6,0,L|168:156,1,60,4|0,1:2|0:0,0:0:0:0:
172,124,166087,5,2,0:0:0:0:
240,76,167506,5,2,0:0:0:0:
136,108,169330,5,2,0:0:0:0:
212,168,170749,5,2,0:0:0:0:
228,264,172574,5,2,0:0:0:0:
244,180,173993,5,2,0:0:0:0:
332,120,175817,5,2,0:0:0:0:
252,100,177236,5,2,0:0:0:0:
252,100,179060,5,8,0:0:0:0:
412,152,179466,2,0,L|400:272,1,120.000004577637,8|0,0:1|0:0,0:0:0:0:
364,348,180074,1,8,0:0:0:0:
282,367,180276,1,8,0:1:0:0:
248,264,180479,6,0,L|260:144,1,120.000004577637,8|8,0:0|0:0,0:0:0:0:
152,200,181087,2,0,L|164:320,1,120.000004577637,8|0,0:1|0:0,0:0:0:0:
163,319,181594,1,0,0:0:0:0:
163,319,181695,1,8,0:0:0:0:
248,264,181898,2,0,P|280:272|304:284,1,60.0000022888184,8|0,0:1|0:0,0:0:0:0:
456,348,182303,5,8,0:0:0:0:
408,280,182506,2,0,L|416:220,1,60.0000022888184,0|8,0:0|0:1,0:0:0:0:
476,160,182911,2,0,P|416:176|368:148,1,120.000004577637,0|8,0:0|0:0,0:0:0:0:
340,68,183520,1,8,0:1:0:0:
204,132,183722,6,0,L|212:252,1,120.000004577637,8|8,0:0|0:0,0:0:0:0:
280,304,184330,1,8,0:1:0:0:
204,268,184533,1,0,0:0:0:0:
133,313,184736,2,0,L|101:309,2,30.0000011444092,0|0|8,0:0|0:0|0:0,0:0:0:0:
209,353,185141,1,8,0:1:0:0:
294,244,185344,1,0,0:0:0:0:
304,160,185547,5,8,0:0:0:0:
312,256,185749,2,0,L|372:252,1,60.0000022888184,0|8,0:0|0:1,0:0:0:0:
284,148,186155,2,0,L|164:136,1,120.000004577637,0|8,0:0|0:0,0:0:0:0:
100,80,186763,1,8,0:1:0:0:
16,204,186966,6,0,L|24:324,1,120.000004577637,8|8,0:0|0:0,0:0:0:0:
168,364,187574,2,0,L|160:244,1,120.000004577637,8|0,0:1|0:0,0:0:0:0:
160,244,188080,1,0,0:0:0:0:
160,244,188182,1,8,0:0:0:0:
200,168,188384,2,0,P|232:160|260:160,1,60.0000022888184,8|0,0:1|0:0,0:0:0:0:
336,188,188790,5,10,0:0:0:0:
388,256,188993,2,0,L|448:248,1,60.0000022888184,0|8,0:0|0:1,0:0:0:0:
480,132,189398,2,0,L|420:128,1,60.0000022888184
328,64,189803,5,2,1:2:0:0:
369,321,190006,1,2,1:2:0:0:
127,229,190209,1,6,1:2:0:0:
127,229,191425,5,8,0:0:0:0:
127,229,191526,1,8,0:0:0:0:
127,229,191628,2,0,L|139:149,1,80,0|0,1:0|0:0,0:0:0:0:
352,106,192033,6,0,L|364:186,1,80,12|8,0:0|0:0,0:0:0:0:
280,260,192439,1,0,1:0:0:0:
400,340,192641,1,8,0:0:0:0:
400,340,192743,1,0,1:0:0:0:
468,196,192945,1,0,1:0:0:0:
468,196,193047,1,8,0:0:0:0:
508,300,193249,1,0,1:0:0:0:
352,264,193452,6,0,B|232:256|232:256|192:268,1,160,12|8,0:0|0:0,0:0:0:0:
92,312,194060,1,0,1:0:0:0:
168,168,194263,1,8,0:0:0:0:
244,336,194466,1,0,0:0:0:0:
244,336,194567,1,0,1:0:0:0:
244,336,194668,1,8,0:0:0:0:
96,280,194871,2,0,L|16:292,1,80,0|0,1:0|0:0,0:0:0:0:
192,172,195276,6,0,L|272:184,1,80,12|8,0:0|0:0,0:0:0:0:
352,104,195682,1,0,1:0:0:0:
456,252,195884,1,8,0:0:0:0:
456,252,195986,1,0,1:0:0:0:
364,84,196189,1,0,1:0:0:0:
364,84,196290,1,8,0:0:0:0:
500,160,196493,1,0,1:0:0:0:
364,260,196695,6,0,L|204:248,1,160,12|8,0:0|0:0,0:0:0:0:
152,160,197303,1,0,1:0:0:0:
184,316,197506,1,8,0:0:0:0:
284,220,197709,1,0,0:0:0:0:
284,220,197810,1,0,1:0:0:0:
284,220,197911,1,8,0:0:0:0:
160,324,198114,2,0,L|77:317,1,80,0|0,1:0|0:0,0:0:0:0:
80,317,198418,1,0,1:0:0:0:
80,317,198520,5,12,0:0:0:0:
120,212,198722,1,8,0:0:0:0:
172,344,198925,1,0,1:0:0:0:
224,244,199128,1,8,0:0:0:0:
224,244,199229,1,0,1:0:0:0:
68,336,199432,1,0,1:0:0:0:
68,336,199533,1,8,0:0:0:0:
128,192,199736,1,0,1:0:0:0:
184,364,199939,6,0,L|344:352,1,160,12|8,0:0|0:0,0:0:0:0:
432,284,200547,1,0,1:0:0:0:
280,236,200749,1,8,0:0:0:0:
432,184,200952,1,0,0:0:0:0:
432,184,201053,1,0,1:0:0:0:
432,184,201155,1,8,0:0:0:0:
343,352,201357,2,0,L|264:340,1,80,0|0,1:0|0:0,0:0:0:0:
264,340,201661,1,0,1:0:0:0:
264,340,201763,5,12,0:0:0:0:
176,204,201966,2,0,L|181:165,2,40,8|8|0,0:0|0:0|1:0,0:0:0:0:
100,344,202371,1,8,0:0:0:0:
100,344,202472,1,0,1:0:0:0:
236,260,202675,1,0,1:0:0:0:
236,260,202776,2,0,L|264:264,3,26.6666666666667,0|0|0|0,3:0|3:0|3:0|3:0,0:0:0:0:
84,212,203182,6,0,L|76:132,1,80,12|0,0:0|0:0,0:0:0:0:
160,56,203587,1,0,1:0:0:0:
160,56,203689,1,0,1:0:0:0:
160,56,203790,1,0,1:0:0:0:
312,104,203993,6,0,L|316:64,1,40,8|8,0:0|0:0,0:0:0:0:
208,184,204195,1,0,1:0:0:0:
210,215,204297,1,0,1:0:0:0:
212,246,204398,1,8,0:0:0:0:
214,278,204499,1,8,0:0:0:0:
217,309,204601,5,0,1:0:0:0:
404,284,204803,1,0,1:0:0:0:
404,284,204905,1,0,1:0:0:0:
404,284,205006,5,4,1:2:0:0:
448,180,205209,1,8,0:0:0:0:
320,192,205411,5,0,1:0:0:0:
304,80,205614,1,8,0:0:0:0:
184,268,205817,5,0,1:0:0:0:
204,156,206020,1,8,0:0:0:0:
84,204,206222,5,0,1:0:0:0:
72,84,206425,2,0,B|192:72|192:72|232:84,1,160,12|8,0:0|0:0,0:0:0:0:
188,296,207033,6,0,L|268:288,1,80,0|8,1:0|0:0,0:0:0:0:
365,218,207439,1,0,1:0:0:0:
365,218,207540,1,0,1:0:0:0:
365,218,207641,1,8,0:0:0:0:
308,29,207844,1,0,1:0:0:0:
281,25,207945,1,0,0:0:0:0:
254,25,208047,1,8,0:0:0:0:
227,32,208148,1,0,0:0:0:0:
204,48,208249,5,4,1:2:0:0:
254,148,208452,1,8,0:0:0:0:
108,40,208655,5,0,1:0:0:0:
140,204,208857,1,8,0:0:0:0:
12,28,209060,5,0,1:0:0:0:
28,260,209263,2,0,L|20:304,2,40,8|8|0,0:0|0:0|1:0,0:0:0:0:
254,148,209668,6,8,B|136:128|136:128|96:136,1,160,12|8,0:0|0:0,0:0:0:0:
172,228,210276,5,0,1:0:0:0:
244,32,210479,1,8,0:0:0:0:
268,164,210682,1,0,1:0:0:0:
268,164,210783,1,0,1:0:0:0:
268,164,210884,1,8,0:0:0:0:
136,96,211087,1,0,1:0:0:0:
336,64,211290,1,8,0:0:0:0:
260,256,211493,6,0,L|180:248,2,80,4|8|0,1:2|0:0|1:0,0:0:0:0:
448,196,212101,1,8,0:0:0:0:
348,332,212303,1,0,1:0:0:0:
348,332,212405,1,0,1:0:0:0:
348,332,212506,1,8,0:0:0:0:
304,164,212709,1,0,1:0:0:0:
504,284,212911,5,12,0:0:0:0:
504,284,213013,1,8,0:0:0:0:
504,284,213114,2,0,L|424:288,1,80,0|8,1:0|0:0,0:0:0:0:
335,155,213520,5,0,1:0:0:0:
160,200,213722,1,8,0:0:0:0:
300,72,213925,5,0,1:0:0:0:
188,288,214128,1,8,0:0:0:0:
372,148,214330,5,0,1:0:0:0:
124,192,214533,1,8,0:0:0:0:
256,88,214736,5,4,1:2:0:0:
248,106,214837,1,0,1:0:0:0:
244,125,214939,1,0,1:0:0:0:
243,145,215040,1,0,1:0:0:0:
245,165,215141,1,0,1:0:0:0:
250,185,215243,1,0,1:0:0:0:
255,204,215344,1,8,0:0:0:0:
261,223,215445,1,8,0:0:0:0:
265,243,215547,1,0,1:0:0:0:
268,263,215648,1,0,1:0:0:0:
268,283,215749,1,8,0:0:0:0:
265,302,215851,1,8,0:0:0:0:
258,321,215952,1,0,1:0:0:0:
73,348,216155,6,0,L|85:188,1,160,12|8,0:0|0:0,0:0:0:0:
84,188,216661,1,0,1:0:0:0:
84,188,216763,1,0,1:0:0:0:
241,61,216966,5,8,0:0:0:0:
244,88,217067,1,8,0:0:0:0:
247,115,217168,1,0,1:0:0:0:
250,142,217270,1,0,1:0:0:0:
254,169,217371,1,8,0:0:0:0:
258,196,217472,1,8,0:0:0:0:
261,223,217574,1,0,1:0:0:0:
448,340,217776,5,0,1:0:0:0:
451,300,217878,1,0,1:0:0:0:
454,259,217979,1,12,0:0:0:0:
