osu file format v14

[General]
AudioFilename: Kizuna no Yukue feat. Shiomiya Shiori.mp3
AudioLeadIn: 0
PreviewTime: 57439
Countdown: 0
SampleSet: Soft
StackLeniency: 0.7
Mode: 0
LetterboxInBreaks: 1
WidescreenStoryboard: 0

[Editor]
DistanceSpacing: 1
BeatDivisor: 2
GridSize: 4
TimelineZoom: 1.7

[Metadata]
Title:Kizuna no Yukue feat. Shiomiya Shiori
TitleUnicode:キズナノユクエ feat. 汐宮 栞
Artist:Shiomiya Shiori starring Hanazawa Kana
ArtistUnicode:汐宮 栞 starring 花澤香菜
Creator:Bearizm
Version:Easy
Source:神のみぞ知るセカイ 女神篇
Tags:Kami Nomi zo Shiru Sekai Megami-hen The World God Only Knows: Godesses ED Ending Momochikun Nardoxyribonucleic
BeatmapID:770498
BeatmapSetID:347422

[Difficulty]
HPDrainRate:2
CircleSize:3
OverallDifficulty:2
ApproachRate:2
SliderMultiplier:0.9
SliderTickRate:1

[Events]
//Background and Video events
0,0,"Shiori.jpg",0,0
//Break Periods
2,17098,28311
2,43044,47770
2,83584,94797
2,166287,177500
//Storyboard Layer 0 (Background)
//Storyboard Layer 1 (Fail)
//Storyboard Layer 2 (Pass)
//Storyboard Layer 3 (Foreground)
//Storyboard Sound Samples

[TimingPoints]
695,405.405405405405,4,2,1,100,1,0
10210,405.405405405405,4,2,1,70,1,8
10412,405.405405405405,4,2,1,100,1,0
29871,-100,4,2,1,60,0,0
49330,-100,4,2,1,50,0,0
52574,-100,4,2,1,60,0,0
55817,-100,4,2,1,70,0,0
57439,-100,4,2,1,80,0,1
83384,-100,4,2,1,60,0,0
96357,-100,4,2,1,60,0,0
109330,-100,4,2,1,50,0,0
119060,-100,4,2,1,60,0,0
122303,-100,4,2,1,70,0,0
123925,-100,4,2,1,80,0,1
149871,-100,4,2,1,80,0,0
165682,-100,4,2,2,80,0,0
166087,-100,4,2,1,80,0,0
179060,-100,4,2,1,50,0,0
188790,-100,4,2,1,60,0,0
189803,-100,4,2,1,70,0,0
192033,-100,4,2,1,90,0,1
204905,-100,4,2,1,90,0,0
205006,-100,4,2,1,100,0,1
217979,-100,4,2,2,90,0,0

[Colours]
Combo1 : 0,234,117
Combo2 : 128,255,255
Combo3 : 255,128,128
Combo4 : 0,157,157
Combo5 : 192,192,192

[HitObjects]
104,152,10210,6,0,L|96:286,1,135,12|8,0:0|0:1,0:0:0:0:
172,334,11222,1,8,0:1:0:0:
292,276,11830,2,0,P|340:268|380:276,1,90,8|8,0:0|0:0,0:0:0:0:
472,276,12641,2,0,P|484:232|480:188,1,90,8|8,0:0|0:0,0:0:0:0:
512,104,13452,6,0,P|450:137|391:119,1,135,12|8,0:0|0:1,0:0:0:0:
320,64,14466,1,8,0:1:0:0:
240,108,14871,1,8,0:1:0:0:
226,196,15276,2,0,L|242:332,2,135,4|8|0,0:0|0:0|1:0,0:0:0:0:
156,140,16898,5,2,0:0:0:0:
156,140,29871,6,0,P|192:116|276:136,1,135,12|2,0:0|0:0,0:0:0:0:
328,212,30884,1,10,0:0:0:0:
272,284,31290,2,0,L|92:264,1,180,10|2,0:0|0:0,0:0:0:0:
36,192,32506,1,2,0:0:0:0:
38,102,32911,1,0,0:0:0:0:
120,64,33317,6,0,L|212:56,1,90,2|0,0:0|0:0,0:0:0:0:
296,84,34128,1,10,0:0:0:0:
228,144,34533,2,0,P|228:192|244:232,1,90,10|8,0:0|0:0,0:0:0:0:
304,296,35344,2,0,L|440:284,1,135,2|0,0:0|1:0,0:0:0:0:
508,228,36357,6,0,B|512:184|512:184|504:136|504:136|508:92,1,135,10|2,0:0|0:0,0:0:0:0:
444,32,37371,1,10,0:0:0:0:
412,116,37776,2,0,P|339:168|266:130,1,180,10|2,0:0|0:0,0:0:0:0:
192,20,39195,1,0,1:0:0:0:
116,68,39601,6,0,L|112:204,1,135,10|2,0:0|0:0,0:0:0:0:
164,276,40614,1,10,0:0:0:0:
228,212,41020,2,0,P|276:200|360:220,1,135,14|0,0:0|1:0,0:0:0:0:
448,208,42033,2,0,P|456:164|452:120,1,90,10|0,0:0|1:0,0:0:0:0:
408,40,42844,5,4,0:0:0:0:
408,40,49330,6,0,L|428:220,1,180,8|0,0:0|1:0,0:0:0:0:
340,320,50749,2,0,P|296:312|252:320,1,90,8|8,0:0|0:0,0:0:0:0:
168,352,51560,2,0,P|192:288|172:228,1,135,8|0,0:0|1:0,0:0:0:0:
108,164,52574,6,0,L|120:72,1,90,12|0,0:0|1:0,0:0:0:0:
208,56,53384,2,0,L|196:148,1,90,0|0,1:0|1:0,0:0:0:0:
264,208,54195,2,0,P|312:216|352:208,1,90,0|0,1:0|1:0,0:0:0:0:
436,172,55006,2,0,P|476:196|504:228,1,90,0|0,1:0|1:0,0:0:0:0:
496,320,55817,6,0,L|404:308,1,90,0|0,1:0|1:0,0:0:0:0:
328,268,56628,1,8,0:0:0:0:
248,312,57033,1,0,1:0:0:0:
180,256,57439,6,0,L|188:120,1,135,14|10,0:0|0:0,0:0:0:0:
240,48,58452,1,10,0:0:0:0:
280,128,58857,2,0,P|361:170|426:125,1,180,14|10,0:0|0:0,0:0:0:0:
496,240,60276,1,0,1:0:0:0:
440,308,60682,6,0,L|304:296,1,135,14|10,0:0|0:0,0:0:0:0:
228,344,61695,1,10,0:0:0:0:
148,304,62101,2,0,B|152:248|152:248|136:184|136:184|140:124,1,180,14|10,0:0|0:0,0:0:0:0:
260,64,63520,1,0,1:0:0:0:
316,132,63925,6,0,L|452:124,1,135,14|10,0:0|0:0,0:0:0:0:
508,192,64939,2,0,P|504:236|484:280,1,90,10|14,0:0|0:0,0:0:0:0:
352,272,65952,2,0,P|356:316|380:360,2,90,0|2|0,1:0|0:0|1:0,0:0:0:0:
404,200,67168,6,0,P|340:224|276:200,1,135,14|10,0:0|0:0,0:0:0:0:
220,136,68182,1,10,0:0:0:0:
160,204,68587,2,0,L|172:340,1,135,14|0,0:0|1:0,0:0:0:0:
84,324,69601,2,0,L|76:232,1,90,0|0,1:0|1:0,0:0:0:0:
16,168,70411,6,0,L|40:36,1,135,14|10,0:0|0:0,0:0:0:0:
124,72,71425,1,10,0:0:0:0:
212,88,71830,2,0,P|256:76|292:52,1,90,14|8,0:0|0:0,0:0:0:0:
380,28,72641,2,0,P|412:88|400:152,1,135,10|0,0:0|1:0,0:0:0:0:
312,152,73655,6,0,B|300:196|300:196|316:284,1,135,14|10,0:0|0:0,0:0:0:0:
396,328,74668,1,10,0:0:0:0:
443,251,75074,2,0,L|410:72,1,180,14|10,0:0|0:0,0:0:0:0:
284,24,76493,1,0,1:0:0:0:
220,88,76898,6,0,B|176:84|176:84|128:92|128:92|84:88,1,135,14|10,0:0|0:0,0:0:0:0:
12,140,77911,1,10,0:0:0:0:
84,192,78317,2,0,L|76:328,1,135,14|0,0:0|1:0,0:0:0:0:
160,364,79330,2,0,P|204:364|244:344,1,90,8|0,0:0|1:0,0:0:0:0:
288,264,80141,6,0,B|356:252|356:252|420:268,1,135,14|10,0:0|0:0,0:0:0:0:
480,336,81155,1,10,0:0:0:0:
512,252,81560,2,0,L|492:116,1,135,14|0,0:0|1:0,0:0:0:0:
424,60,82574,2,8,P|376:56|336:68,1,90,0|0,1:0|1:0,0:0:0:0:
312,156,83384,5,2,0:0:0:0:
312,156,96357,6,0,B|248:140|248:140|180:152,1,135,12|2,0:0|0:0,0:0:0:0:
120,220,97371,1,10,0:0:0:0:
164,300,97776,2,0,B|208:288|252:312|252:312|296:292|344:308,1,180,10|2,0:0|0:0,0:0:0:0:
428,320,98993,2,0,L|440:228,1,90,2|0,0:0|0:0,0:0:0:0:
496,160,99803,6,0,L|480:72,1,90,0|2,0:0|0:0,0:0:0:0:
400,32,100614,1,10,0:0:0:0:
328,88,101020,2,0,L|236:92,1,90,8|8,0:0|0:0,0:0:0:0:
160,140,101830,2,0,P|136:204|156:264,1,135,2|0,0:0|1:0,0:0:0:0:
244,292,102844,6,0,B|288:288|288:288|336:296|336:296|380:292,1,135,10|2,0:0|0:0,0:0:0:0:
452,240,103857,1,10,0:0:0:0:
388,176,104263,2,8,L|376:84,1,90,10|8,0:0|0:0,0:0:0:0:
296,48,105074,2,0,P|232:72|180:36,1,135,2|0,0:0|1:0,0:0:0:0:
96,64,106087,6,0,B|84:132|84:132|96:196,1,135,10|2,0:0|0:0,0:0:0:0:
52,276,107101,1,10,0:0:0:0:
120,332,107506,2,0,L|256:316,1,135,14|0,0:0|1:0,0:0:0:0:
331,271,108520,2,0,P|343:227|343:183,1,90,0|0,1:0|1:0,0:0:0:0:
404,116,109330,6,0,P|316:144|260:88,1,180,12|0,0:0|1:0,0:0:0:0:
144,20,110749,2,0,B|132:88|132:88|148:176|148:176|136:244,1,225,8|0,0:0|1:0,0:0:0:0:
288,336,112574,6,0,B|332:324|332:324|420:336|420:336|464:328,1,180,8|0,0:0|1:0,0:0:0:0:
480,192,113993,2,0,P|408:224|320:128,1,225,8|0,0:0|1:0,0:0:0:0:
160,48,115817,6,0,B|132:112|192:160|160:228,1,180,8|0,0:0|1:0,0:0:0:0:
76,328,117236,2,0,B|140:312|140:312|200:328|200:328|248:308|296:328,1,225,8|0,0:0|1:0,0:0:0:0:
384,344,118655,1,0,1:0:0:0:
444,280,119060,6,0,L|436:188,1,90,12|0,0:0|1:0,0:0:0:0:
360,140,119871,2,0,B|316:144|316:144|268:136,1,90,0|0,1:0|1:0,0:0:0:0:
184,160,120682,2,0,P|172:204|180:248,1,90,0|0,1:0|1:0,0:0:0:0:
236,316,121493,2,0,L|328:308,1,90,0|0,1:0|1:0,0:0:0:0:
368,228,122303,6,0,L|356:136,1,90,0|0,1:0|1:0,0:0:0:0:
405,63,123114,1,8,0:0:0:0:
492,92,123520,1,0,1:0:0:0:
508,180,123925,6,0,L|496:316,1,135,14|10,0:0|0:0,0:0:0:0:
416,352,124939,1,10,0:0:0:0:
360,284,125344,2,0,B|316:276|316:276|228:296|228:296|184:288,1,180,14|10,0:0|0:0,0:0:0:0:
64,352,126763,1,0,1:0:0:0:
16,276,127168,6,0,L|28:140,1,135,14|10,0:0|0:0,0:0:0:0:
88,72,128182,1,10,0:0:0:0:
144,144,128587,2,0,P|232:176|284:120,1,180,14|10,0:0|0:0,0:0:0:0:
388,32,130006,1,0,1:0:0:0:
460,84,130411,6,0,B|456:128|456:128|464:176|464:176|460:220,1,135,14|10,0:0|0:0,0:0:0:0:
392,276,131425,1,10,0:0:0:0:
324,220,131830,2,0,B|288:216|256:204|256:204|224:220|192:224,1,135,14|0,0:0|1:0,0:0:0:0:
104,216,132844,2,0,P|88:176|88:128,1,90,2|0,0:0|1:0,0:0:0:0:
20,68,133655,6,0,P|84:88|136:48,1,135,14|10,0:0|0:0,0:0:0:0:
220,24,134668,1,10,0:0:0:0:
284,88,135074,2,0,L|272:224,1,135,14|0,0:0|1:0,0:0:0:0:
320,300,136087,2,0,P|364:308|408:300,1,90,0|0,1:0|1:0,0:0:0:0:
476,240,136898,6,0,L|456:104,1,135,14|10,0:0|0:0,0:0:0:0:
376,68,137911,1,10,0:0:0:0:
320,140,138317,2,0,B|276:144|232:128|232:128|196:156|188:208,1,180,14|10,0:0|0:0,0:0:0:0:
224,336,139736,1,0,1:0:0:0:
312,360,140141,6,0,L|448:340,1,135,14|10,0:0|0:0,0:0:0:0:
492,264,141155,1,10,0:0:0:0:
420,208,141560,2,0,L|432:116,1,90,14|10,0:0|0:0,0:0:0:0:
500,64,142371,2,0,P|432:80|384:44,1,135,10|0,0:0|1:0,0:0:0:0:
312,100,143384,6,0,L|324:236,1,135,14|10,0:0|0:0,0:0:0:0:
288,316,144398,1,10,0:0:0:0:
212,268,144803,2,0,B|168:264|168:264|124:276|124:276|72:272|52:228,1,180,14|10,0:0|0:0,0:0:0:0:
28,96,146222,1,0,1:0:0:0:
104,52,146628,6,0,L|240:72,1,135,14|10,0:0|0:0,0:0:0:0:
316,32,147641,1,10,0:0:0:0:
392,80,148047,2,0,B|388:124|388:124|396:172|396:172|392:216,1,135,14|0,0:0|1:0,0:0:0:0:
340,288,149060,2,0,P|296:296|252:288,1,90,0|0,1:0|1:0,0:0:0:0:
176,240,149871,6,0,L|88:256,2,90,4|0|0,1:2|1:0|1:0,0:0:0:0:
196,152,151087,1,0,1:0:0:0:
276,192,151493,2,0,L|368:204,1,90,0|0,1:0|1:0,0:0:0:0:
452,184,152303,2,0,P|468:140|464:96,1,90,0|0,1:0|1:0,0:0:0:0:
392,44,153114,6,0,B|348:48|348:48|300:40,1,90,4|0,1:2|1:0,0:0:0:0:
228,88,153925,1,0,1:0:0:0:
292,152,154330,2,0,L|300:244,2,90,0|0|0,1:0|1:0|1:0,0:0:0:0:
216,104,155547,2,0,P|172:100|128:112,1,90,0|0,1:0|1:0,0:0:0:0:
40,136,156357,6,0,P|12:100|0:56,2,90,4|0|0,1:2|1:0|1:0,0:0:0:0:
104,200,157574,1,0,1:0:0:0:
192,208,157979,2,0,L|184:300,1,90,0|0,1:0|1:0,0:0:0:0:
272,276,158790,2,0,L|280:184,1,90,0|0,1:0|1:0,0:0:0:0:
324,108,159601,6,0,B|372:108|408:80|408:80|456:92|480:136,1,180,12|0,0:0|1:0,0:0:0:0:
476,224,160817,1,0,1:0:0:0:
428,300,161222,2,0,L|248:284,1,180,0|0,1:0|1:0,0:0:0:0:
164,312,162439,1,0,1:0:0:0:
96,252,162844,6,0,B|77:209|100:168|100:168|76:123|100:76,1,180,0|8,1:0|0:0,0:0:0:0:
177,122,164060,1,0,1:0:0:0:
255,78,164466,2,0,B|277:120|254:168|254:168|275:205|258:252,1,180,0|8,1:0|0:0,0:0:0:0:
177,213,165682,1,4,1:2:0:0:
177,122,166087,5,2,0:0:0:0:
177,122,179060,6,0,B|268:132|268:132|312:124,1,135,8|2,0:0|0:0,0:0:0:0:
396,92,180074,1,8,0:0:0:0:
384,180,180479,2,0,L|364:316,1,135,8|8,0:0|0:1,0:0:0:0:
276,304,181493,2,0,P|231:303|190:323,1,90,2|8,0:0|0:1,0:0:0:0:
104,344,182303,6,0,B|116:252|116:252|108:208,1,135,8|2,0:0|0:0,0:0:0:0:
76,128,183317,1,8,0:0:0:0:
152,80,183722,2,0,B|200:76|200:76|284:96|284:96|332:92,1,180,8|2,0:0|0:0,0:0:0:0:
452,32,185141,1,8,0:1:0:0:
500,108,185547,6,0,B|504:152|504:152|496:200|496:200|500:244,1,135,8|2,0:0|0:0,0:0:0:0:
440,308,186560,1,8,0:0:0:0:
364,260,186966,2,0,L|228:276,1,135,8|8,0:0|0:1,0:0:0:0:
144,248,187979,2,0,P|120:204|116:164,1,90,2|8,0:0|0:1,0:0:0:0:
56,96,188790,6,0,P|120:120|180:96,1,135,10|2,0:0|0:0,0:0:0:0:
248,40,189803,1,2,1:2:0:0:
324,92,190209,1,2,1:2:0:0:
324,92,191628,1,0,1:0:0:0:
400,140,192033,6,0,L|404:276,1,135,14|10,0:0|0:0,0:0:0:0:
336,336,193047,1,10,0:0:0:0:
256,296,193452,2,0,P|218:216|261:139,1,180,14|10,0:0|0:0,0:0:0:0:
336,96,194668,1,10,0:0:0:0:
208,36,195276,6,0,L|72:56,1,135,14|10,0:0|0:0,0:0:0:0:
12,120,196290,1,10,0:0:0:0:
100,144,196695,2,0,B|112:188|112:188|100:324,1,180,14|10,0:0|0:0,0:0:0:0:
228,360,198114,1,0,1:0:0:0:
272,284,198520,6,0,B|364:276|364:276|404:288,1,135,14|10,0:0|0:0,0:0:0:0:
480,336,199533,1,10,0:0:0:0:
508,252,199939,2,0,L|492:72,1,180,14|10,0:0|0:0,0:0:0:0:
368,16,201357,1,0,1:0:0:0:
312,84,201763,6,0,P|248:108|188:84,1,135,14|10,0:0|0:0,0:0:0:0:
124,24,202776,1,10,0:0:0:0:
52,76,203182,2,0,B|48:120|48:120|56:165|56:165|51:211,1,135,14|0,0:0|1:0,0:0:0:0:
120,268,204195,2,0,P|164:276|208:268,1,90,0|0,1:0|1:0,0:0:0:0:
276,208,205006,6,0,B|368:220|368:220|412:212,1,135,14|10,0:0|0:0,0:0:0:0:
460,140,206020,1,10,0:0:0:0:
388,84,206425,2,0,L|296:72,1,90,12|10,0:0|0:0,0:0:0:0:
224,120,207236,2,0,B|136:132|136:132|92:120,1,135,10|0,0:0|1:0,0:0:0:0:
16,168,208249,6,0,P|9:236|44:288,1,135,14|10,0:0|0:0,0:0:0:0:
94,213,209263,1,10,0:0:0:0:
140,292,209668,2,0,B|196:320|256:268|316:300,1,180,14|10,0:0|0:0,0:0:0:0:
448,332,211087,1,0,1:0:0:0:
492,252,211493,6,0,L|480:116,1,135,14|10,0:0|0:0,0:0:0:0:
428,44,212506,1,10,0:0:0:0:
364,108,212911,2,0,B|320:104|320:104|276:116|276:116|228:112,1,135,14|0,0:0|1:0,0:0:0:0:
148,148,213925,2,0,P|160:192|152:236,1,90,0|0,1:0|1:0,0:0:0:0:
92,300,214736,6,0,P|153:275|215:299,1,135,14|10,0:0|0:0,0:0:0:0:
284,356,215749,1,10,0:0:0:0:
332,280,216155,2,0,L|324:144,1,135,14|0,0:0|1:0,0:0:0:0:
408,113,217168,2,0,P|448:137|476:173,1,90,0|0,1:0|1:0,0:0:0:0:
454,259,217979,21,12,0:0:0:0:
