osu file format v14

[General]
AudioFilename: One Minute Remains.mp3
AudioLeadIn: 0
PreviewTime: 27441
Countdown: 0
SampleSet: Normal
StackLeniency: 0.7
Mode: 1
LetterboxInBreaks: 0
WidescreenStoryboard: 1

[Editor]
DistanceSpacing: 0.8
BeatDivisor: 4
GridSize: 8
TimelineZoom: 1

[Metadata]
Title:Now or Never
TitleUnicode:Now or Never
Artist:Shiokara-zu
ArtistUnicode:シオカラーズ
Creator:OzzyOzrock
Version:Oni
Source:Splatoon
Tags:スプラトゥーン one minute remains 峰岸 透 splatfest callie marie squid kid inkling
BeatmapID:833292
BeatmapSetID:380864

[Difficulty]
HPDrainRate:5
CircleSize:5
OverallDifficulty:6
ApproachRate:6
SliderMultiplier:1.4
SliderTickRate:1

[Events]
//Background and Video events
0,0,"allBGsforthissongarebad.jpg",0,80
//Break Periods
//Storyboard Layer 0 (Background)
//Storyboard Layer 1 (Fail)
//Storyboard Layer 2 (Pass)
//Storyboard Layer 3 (Foreground)
//Storyboard Sound Samples

[TimingPoints]
50,326.086956521739,4,1,0,90,1,0
40484,-100,4,1,0,90,0,1
59723,-100,4,1,0,90,0,0

[HitObjects]
370,89,1028,5,6,0:0:0:0:
110,284,1354,1,0,0:0:0:0:
342,277,1517,1,8,0:0:0:0:
149,288,1680,1,0,0:0:0:0:
329,264,1843,1,8,0:0:0:0:
143,274,2006,1,0,0:0:0:0:
327,258,2169,1,8,0:0:0:0:
166,274,2332,1,0,0:0:0:0:
112,264,2414,1,0,0:0:0:0:
346,270,2495,1,8,0:0:0:0:
166,275,2658,1,0,0:0:0:0:
356,264,2821,1,8,0:0:0:0:
128,264,2984,1,0,0:0:0:0:
352,264,3147,1,8,0:0:0:0:
115,231,3310,1,0,0:0:0:0:
344,277,3473,1,8,0:0:0:0:
120,280,3636,1,0,0:0:0:0:
344,277,3718,1,8,0:0:0:0:
344,277,3799,1,8,0:0:0:0:
122,257,3963,1,0,0:0:0:0:
391,238,4126,1,8,0:0:0:0:
128,288,4289,1,0,0:0:0:0:
379,224,4452,1,8,0:0:0:0:
169,263,4615,1,0,0:0:0:0:
386,245,4778,1,8,0:0:0:0:
135,309,4941,1,0,0:0:0:0:
104,320,5022,1,0,0:0:0:0:
386,245,5104,1,8,0:0:0:0:
183,272,5267,1,0,0:0:0:0:
407,249,5430,1,8,0:0:0:0:
120,312,5593,1,0,0:0:0:0:
407,249,5756,1,8,0:0:0:0:
161,285,5919,1,0,0:0:0:0:
136,290,6001,1,0,0:0:0:0:
345,259,6082,1,8,0:0:0:0:
379,254,6245,1,8,0:0:0:0:
364,255,6327,1,8,0:0:0:0:
379,254,6408,1,8,0:0:0:0:
174,286,6571,1,0,0:0:0:0:
433,281,6897,1,8,0:0:0:0:
383,279,7060,1,8,0:0:0:0:
161,285,7223,1,0,0:0:0:0:
161,285,7386,1,0,0:0:0:0:
418,283,7549,1,8,0:0:0:0:
138,291,7713,1,0,0:0:0:0:
139,291,8039,1,0,0:0:0:0:
407,275,8202,1,8,0:0:0:0:
168,289,8365,1,0,0:0:0:0:
155,289,8528,1,0,0:0:0:0:
119,279,8609,1,0,0:0:0:0:
119,279,8691,1,0,0:0:0:0:
413,276,8854,1,8,0:0:0:0:
174,286,9180,1,0,0:0:0:0:
433,281,9506,1,8,0:0:0:0:
401,280,9669,1,8,0:0:0:0:
161,285,9832,1,0,0:0:0:0:
161,285,9995,1,0,0:0:0:0:
418,283,10158,1,8,0:0:0:0:
138,291,10322,1,0,0:0:0:0:
139,291,10648,1,0,0:0:0:0:
407,275,10811,1,8,0:0:0:0:
168,289,10974,1,0,0:0:0:0:
344,290,11137,1,8,0:0:0:0:
119,279,11300,1,0,0:0:0:0:
119,279,11381,1,0,0:0:0:0:
413,276,11463,1,8,0:0:0:0:
340,281,11626,1,8,0:0:0:0:
120,280,11789,1,0,0:0:0:0:
376,295,12115,1,8,0:0:0:0:
345,279,12278,1,8,0:0:0:0:
146,289,12441,1,0,0:0:0:0:
146,289,12604,1,0,0:0:0:0:
354,275,12767,1,8,0:0:0:0:
155,285,12930,1,0,0:0:0:0:
155,285,13256,1,0,0:0:0:0:
329,277,13419,1,8,0:0:0:0:
178,279,13582,1,0,0:0:0:0:
156,279,13745,1,0,0:0:0:0:
156,279,13827,1,0,0:0:0:0:
156,279,13908,1,0,0:0:0:0:
380,283,14071,1,8,0:0:0:0:
150,295,14397,1,0,0:0:0:0:
329,277,14560,1,8,0:0:0:0:
167,277,14723,1,0,0:0:0:0:
167,277,14805,1,0,0:0:0:0:
316,273,14886,1,8,0:0:0:0:
158,273,15049,1,0,0:0:0:0:
429,94,15376,1,12,0:0:0:0:
143,295,15702,1,0,0:0:0:0:
329,277,15865,1,8,0:0:0:0:
132,281,16028,1,0,0:0:0:0:
134,283,16109,1,0,0:0:0:0:
359,278,16191,1,8,0:0:0:0:
167,277,16354,1,0,0:0:0:0:
408,92,16680,1,12,0:0:0:0:
422,299,17006,1,8,0:0:0:0:
119,306,17169,1,0,0:0:0:0:
432,301,17495,1,8,0:0:0:0:
160,267,17821,1,0,0:0:0:0:
152,288,17984,1,0,0:0:0:0:
446,281,18147,1,8,0:0:0:0:
169,299,18473,1,0,0:0:0:0:
410,275,18799,1,8,0:0:0:0:
121,287,18963,1,0,0:0:0:0:
121,287,19044,1,0,0:0:0:0:
410,275,19126,1,8,0:0:0:0:
184,279,19289,1,0,0:0:0:0:
422,299,19615,1,8,0:0:0:0:
119,306,19778,1,0,0:0:0:0:
432,301,20104,1,8,0:0:0:0:
160,267,20430,1,0,0:0:0:0:
136,288,20593,1,0,0:0:0:0:
446,281,20756,1,8,0:0:0:0:
169,299,21082,1,0,0:0:0:0:
410,275,21408,1,8,0:0:0:0:
410,275,21571,1,8,0:0:0:0:
379,270,21653,1,8,0:0:0:0:
163,274,21734,1,0,0:0:0:0:
379,270,21897,1,8,0:0:0:0:
422,299,22223,1,8,0:0:0:0:
97,283,22386,1,0,0:0:0:0:
432,301,22712,1,8,0:0:0:0:
160,267,23038,1,0,0:0:0:0:
104,280,23202,1,0,0:0:0:0:
446,281,23364,1,8,0:0:0:0:
169,299,23690,1,0,0:0:0:0:
410,275,24016,1,8,0:0:0:0:
410,275,24180,1,8,0:0:0:0:
477,278,24506,1,8,0:0:0:0:
136,308,24669,1,0,0:0:0:0:
142,306,24832,1,0,0:0:0:0:
377,260,24995,1,8,0:0:0:0:
126,292,25158,1,0,0:0:0:0:
126,292,25240,1,0,0:0:0:0:
307,257,25321,1,8,0:0:0:0:
151,286,25484,1,0,0:0:0:0:
358,115,25810,1,12,0:0:0:0:
145,305,26136,1,0,0:0:0:0:
349,264,26299,1,8,0:0:0:0:
161,303,26463,1,0,0:0:0:0:
161,303,26544,1,0,0:0:0:0:
359,263,26626,1,8,0:0:0:0:
379,296,26789,1,8,0:0:0:0:
335,300,26870,1,8,0:0:0:0:
335,300,26952,1,8,0:0:0:0:
347,109,27115,1,12,0:0:0:0:
177,289,27441,1,0,0:0:0:0:
378,269,27767,1,8,0:0:0:0:
171,302,28093,1,0,0:0:0:0:
171,302,28256,1,0,0:0:0:0:
337,278,28419,1,8,0:0:0:0:
131,288,28745,1,0,0:0:0:0:
347,279,29071,1,8,0:0:0:0:
141,271,29234,1,0,0:0:0:0:
117,281,29560,1,0,0:0:0:0:
331,266,29723,1,8,0:0:0:0:
174,283,29886,1,0,0:0:0:0:
146,291,30049,1,0,0:0:0:0:
332,281,30375,1,8,0:0:0:0:
94,316,30702,1,0,0:0:0:0:
126,313,30865,1,0,0:0:0:0:
304,266,31028,1,8,0:0:0:0:
117,323,31354,1,0,0:0:0:0:
117,319,31517,1,0,0:0:0:0:
369,270,31680,1,8,0:0:0:0:
369,270,31843,1,8,0:0:0:0:
147,300,32006,1,0,0:0:0:0:
136,304,32088,1,0,0:0:0:0:
147,300,32169,1,0,0:0:0:0:
378,268,32332,1,8,0:0:0:0:
400,280,32414,1,8,0:0:0:0:
369,270,32495,1,8,0:0:0:0:
177,289,32658,1,0,0:0:0:0:
378,269,32984,1,8,0:0:0:0:
171,302,33310,1,0,0:0:0:0:
171,302,33473,1,0,0:0:0:0:
337,278,33636,1,8,0:0:0:0:
131,288,33962,1,0,0:0:0:0:
347,279,34288,1,8,0:0:0:0:
141,271,34451,1,0,0:0:0:0:
117,281,34777,1,0,0:0:0:0:
331,266,34940,1,8,0:0:0:0:
352,282,35103,1,8,0:0:0:0:
146,291,35267,1,0,0:0:0:0:
332,281,35592,1,8,0:0:0:0:
94,316,35919,1,0,0:0:0:0:
126,313,36082,1,0,0:0:0:0:
304,266,36245,1,8,0:0:0:0:
117,323,36571,1,0,0:0:0:0:
369,270,36734,1,8,0:0:0:0:
376,264,36816,1,8,0:0:0:0:
117,319,36897,1,0,0:0:0:0:
369,270,37060,1,8,0:0:0:0:
147,300,37223,1,0,0:0:0:0:
147,300,37549,1,0,0:0:0:0:
360,272,37876,1,8,0:0:0:0:
171,285,38039,1,0,0:0:0:0:
391,275,38202,1,8,0:0:0:0:
174,302,38365,1,0,0:0:0:0:
298,283,38528,1,8,0:0:0:0:
139,308,38691,1,0,0:0:0:0:
301,274,38854,1,8,0:0:0:0:
106,301,39017,1,0,0:0:0:0:
363,296,39180,1,8,0:0:0:0:
346,291,39506,1,8,0:0:0:0:
319,291,39832,1,8,0:0:0:0:
319,291,39995,1,8,0:0:0:0:
319,291,40158,1,8,0:0:0:0:
333,280,40240,1,8,0:0:0:0:
368,273,40321,1,8,0:0:0:0:
174,286,40484,1,0,0:0:0:0:
433,281,40810,1,8,0:0:0:0:
383,279,40973,1,8,0:0:0:0:
161,285,41136,1,0,0:0:0:0:
120,282,41218,1,0,0:0:0:0:
161,285,41299,1,0,0:0:0:0:
418,283,41462,1,8,0:0:0:0:
138,291,41626,1,0,0:0:0:0:
139,291,41952,1,0,0:0:0:0:
407,275,42115,1,8,0:0:0:0:
168,289,42278,1,0,0:0:0:0:
155,289,42441,1,0,0:0:0:0:
119,279,42522,1,0,0:0:0:0:
119,279,42604,1,0,0:0:0:0:
120,280,42685,1,0,0:0:0:0:
413,276,42767,1,8,0:0:0:0:
174,286,43093,1,0,0:0:0:0:
433,281,43419,1,8,0:0:0:0:
401,280,43582,1,8,0:0:0:0:
161,285,43745,1,0,0:0:0:0:
154,313,43827,1,0,0:0:0:0:
161,285,43908,1,0,0:0:0:0:
418,283,44071,1,8,0:0:0:0:
138,291,44235,1,0,0:0:0:0:
139,291,44561,1,0,0:0:0:0:
407,275,44724,1,8,0:0:0:0:
168,289,44887,1,0,0:0:0:0:
344,290,45050,1,8,0:0:0:0:
352,296,45131,1,8,0:0:0:0:
119,279,45213,1,0,0:0:0:0:
119,279,45294,1,0,0:0:0:0:
413,276,45376,1,8,0:0:0:0:
340,281,45539,1,8,0:0:0:0:
120,280,45702,1,0,0:0:0:0:
376,295,46028,1,8,0:0:0:0:
345,279,46191,1,8,0:0:0:0:
146,289,46354,1,0,0:0:0:0:
57,244,46435,1,0,0:0:0:0:
146,289,46517,1,0,0:0:0:0:
354,275,46680,1,8,0:0:0:0:
155,285,46843,1,0,0:0:0:0:
155,285,47169,1,0,0:0:0:0:
329,277,47332,1,8,0:0:0:0:
178,279,47495,1,0,0:0:0:0:
156,279,47658,1,0,0:0:0:0:
156,279,47740,1,0,0:0:0:0:
156,279,47821,1,0,0:0:0:0:
152,296,47903,1,0,0:0:0:0:
380,283,47984,1,8,0:0:0:0:
150,295,48310,1,0,0:0:0:0:
329,277,48473,1,8,0:0:0:0:
167,277,48636,1,0,0:0:0:0:
167,277,48718,1,0,0:0:0:0:
316,273,48799,1,8,0:0:0:0:
158,273,48962,1,0,0:0:0:0:
429,94,49289,1,12,0:0:0:0:
143,295,49615,1,0,0:0:0:0:
329,277,49778,1,8,0:0:0:0:
132,281,49941,1,0,0:0:0:0:
134,283,50022,1,0,0:0:0:0:
359,278,50104,1,8,0:0:0:0:
167,277,50267,1,0,0:0:0:0:
408,92,50593,1,12,0:0:0:0:
163,316,50919,1,0,0:0:0:0:
376,280,51082,1,8,0:0:0:0:
147,286,51245,1,0,0:0:0:0:
147,286,51327,1,0,0:0:0:0:
387,277,51408,1,8,0:0:0:0:
154,280,51571,1,0,0:0:0:0:
154,280,51653,1,0,0:0:0:0:
154,280,51734,1,0,0:0:0:0:
366,275,51897,1,8,0:0:0:0:
125,277,52223,1,0,0:0:0:0:
454,295,52386,1,8,0:0:0:0:
197,297,52549,1,0,0:0:0:0:
398,285,52713,1,8,0:0:0:0:
229,306,52876,1,0,0:0:0:0:
359,289,53039,1,8,0:0:0:0:
173,313,53202,1,0,0:0:0:0:
144,288,53283,1,0,0:0:0:0:
357,282,53365,1,8,0:0:0:0:
189,306,53528,1,0,0:0:0:0:
365,287,53691,1,8,0:0:0:0:
185,313,53854,1,0,0:0:0:0:
311,293,54017,1,8,0:0:0:0:
173,313,54180,1,0,0:0:0:0:
334,288,54343,1,8,0:0:0:0:
197,317,54506,1,0,0:0:0:0:
376,264,54588,1,8,0:0:0:0:
416,280,54669,1,8,0:0:0:0:
125,277,54832,1,0,0:0:0:0:
454,295,54995,1,8,0:0:0:0:
197,297,55158,1,0,0:0:0:0:
136,280,55240,1,0,0:0:0:0:
398,285,55322,1,8,0:0:0:0:
229,306,55485,1,0,0:0:0:0:
359,289,55648,1,8,0:0:0:0:
173,313,55811,1,0,0:0:0:0:
96,272,55892,1,0,0:0:0:0:
357,282,55974,1,8,0:0:0:0:
189,306,56137,1,0,0:0:0:0:
365,287,56300,1,8,0:0:0:0:
185,313,56463,1,0,0:0:0:0:
368,312,56544,1,8,0:0:0:0:
311,293,56626,1,8,0:0:0:0:
173,313,56789,1,0,0:0:0:0:
334,288,56952,1,8,0:0:0:0:
197,317,57115,1,0,0:0:0:0:
125,277,57441,1,0,0:0:0:0:
454,295,57604,1,8,0:0:0:0:
197,297,57767,1,0,0:0:0:0:
192,312,57848,1,0,0:0:0:0:
398,285,57931,1,8,0:0:0:0:
229,306,58094,1,0,0:0:0:0:
359,289,58257,1,8,0:0:0:0:
392,296,58338,1,8,0:0:0:0:
173,313,58420,1,0,0:0:0:0:
357,282,58583,1,8,0:0:0:0:
189,306,58746,1,0,0:0:0:0:
365,287,58909,1,8,0:0:0:0:
405,294,59072,1,8,0:0:0:0:
379,282,59153,1,8,0:0:0:0:
311,293,59235,1,8,0:0:0:0:
360,280,59316,1,8,0:0:0:0:
173,313,59398,1,0,0:0:0:0:
334,288,59561,1,8,0:0:0:0:
136,120,59724,1,4,0:0:0:0:
