osu file format v14

[General]
AudioFilename: One Minute Remains.mp3
AudioLeadIn: 0
PreviewTime: 27441
Countdown: 0
SampleSet: Normal
StackLeniency: 0.7
Mode: 1
LetterboxInBreaks: 0
WidescreenStoryboard: 1

[Editor]
DistanceSpacing: 0.8
BeatDivisor: 4
GridSize: 8
TimelineZoom: 0.9999989

[Metadata]
Title:Now or Never
TitleUnicode:Now or Never
Artist:Shiokara-zu
ArtistUnicode:シオカラーズ
Creator:OzzyOzrock
Version:Futsuu
Source:Splatoon
Tags:スプラトゥーン one minute remains 峰岸 透 splatfest callie marie squid kid inkling
BeatmapID:833288
BeatmapSetID:380864

[Difficulty]
HPDrainRate:7
CircleSize:5
OverallDifficulty:4
ApproachRate:6
SliderMultiplier:1.4
SliderTickRate:1

[Events]
//Background and Video events
0,0,"allBGsforthissongarebad.jpg",0,80
//Break Periods
//Storyboard Layer 0 (Background)
//Storyboard Layer 1 (Fail)
//Storyboard Layer 2 (Pass)
//Storyboard Layer 3 (Foreground)
//Storyboard Sound Samples

[TimingPoints]
50,326.086956521739,4,1,0,90,1,0
40484,-100,4,1,0,90,0,1
59723,-100,4,1,0,90,0,0

[HitObjects]
370,89,1028,5,6,0:0:0:0:
110,284,1354,1,0,0:0:0:0:
328,288,1680,1,8,0:0:0:0:
143,274,2006,1,0,0:0:0:0:
166,274,2169,1,0,0:0:0:0:
329,264,2332,1,8,0:0:0:0:
166,275,2658,1,0,0:0:0:0:
360,275,2984,1,8,0:0:0:0:
115,231,3310,1,0,0:0:0:0:
122,257,3963,1,0,0:0:0:0:
379,224,4289,1,8,0:0:0:0:
169,263,4615,1,0,0:0:0:0:
183,272,4778,1,0,0:0:0:0:
386,245,4941,1,8,0:0:0:0:
176,288,5267,1,0,0:0:0:0:
407,249,5593,1,8,0:0:0:0:
360,248,5756,1,8,0:0:0:0:
161,285,5919,1,0,0:0:0:0:
174,286,6571,1,0,0:0:0:0:
433,281,6897,1,8,0:0:0:0:
161,285,7223,1,0,0:0:0:0:
418,283,7549,1,8,0:0:0:0:
138,291,7713,1,0,0:0:0:0:
139,291,8039,1,0,0:0:0:0:
407,275,8202,1,8,0:0:0:0:
155,289,8528,1,0,0:0:0:0:
174,286,9180,1,0,0:0:0:0:
433,281,9506,1,8,0:0:0:0:
161,285,9832,1,0,0:0:0:0:
418,283,10158,1,8,0:0:0:0:
138,291,10322,1,0,0:0:0:0:
139,291,10648,1,0,0:0:0:0:
407,275,10811,1,8,0:0:0:0:
344,290,11137,1,8,0:0:0:0:
120,280,11789,1,0,0:0:0:0:
376,295,12115,1,8,0:0:0:0:
146,289,12441,1,0,0:0:0:0:
354,275,12767,1,8,0:0:0:0:
155,285,12930,1,0,0:0:0:0:
155,285,13256,1,0,0:0:0:0:
329,277,13419,1,8,0:0:0:0:
156,279,13745,1,0,0:0:0:0:
336,280,14071,1,8,0:0:0:0:
150,295,14397,1,0,0:0:0:0:
158,273,15049,1,0,0:0:0:0:
429,94,15376,1,12,0:0:0:0:
143,295,15702,1,0,0:0:0:0:
132,281,16191,1,0,0:0:0:0:
167,277,16354,1,0,0:0:0:0:
408,92,16680,1,12,0:0:0:0:
422,299,17006,1,8,0:0:0:0:
160,267,17332,1,0,0:0:0:0:
432,301,17658,1,8,0:0:0:0:
446,281,18147,1,8,0:0:0:0:
432,280,18636,1,8,0:0:0:0:
160,280,18963,1,0,0:0:0:0:
422,299,19615,1,8,0:0:0:0:
160,267,19941,1,0,0:0:0:0:
432,301,20267,1,8,0:0:0:0:
446,281,20756,1,8,0:0:0:0:
410,275,21245,1,8,0:0:0:0:
392,304,21571,1,8,0:0:0:0:
422,299,22223,1,8,0:0:0:0:
160,267,22549,1,0,0:0:0:0:
432,301,22876,1,8,0:0:0:0:
446,281,23365,1,8,0:0:0:0:
360,256,23854,1,8,0:0:0:0:
112,312,24180,1,0,0:0:0:0:
104,296,24506,1,0,0:0:0:0:
168,304,24832,1,0,0:0:0:0:
175,286,25484,1,0,0:0:0:0:
358,115,25810,1,12,0:0:0:0:
145,305,26136,1,0,0:0:0:0:
161,303,26626,1,0,0:0:0:0:
201,300,26789,1,0,0:0:0:0:
347,109,27115,1,12,0:0:0:0:
177,289,27441,1,0,0:0:0:0:
171,302,28093,1,0,0:0:0:0:
337,278,28419,1,8,0:0:0:0:
131,288,28745,1,0,0:0:0:0:
331,266,29071,1,8,0:0:0:0:
320,288,29397,1,8,0:0:0:0:
144,288,29723,1,0,0:0:0:0:
288,288,30049,1,8,0:0:0:0:
94,316,30702,1,0,0:0:0:0:
304,266,31028,1,8,0:0:0:0:
117,323,31354,1,0,0:0:0:0:
369,270,31680,1,8,0:0:0:0:
147,300,32006,1,0,0:0:0:0:
378,268,32332,1,8,0:0:0:0:
177,289,32658,1,0,0:0:0:0:
171,302,33310,1,0,0:0:0:0:
337,278,33636,1,8,0:0:0:0:
131,288,33962,1,0,0:0:0:0:
347,279,34288,1,8,0:0:0:0:
352,264,34615,1,8,0:0:0:0:
331,266,34940,1,8,0:0:0:0:
146,291,35267,1,0,0:0:0:0:
94,316,35919,1,0,0:0:0:0:
304,266,36245,1,8,0:0:0:0:
117,323,36571,1,0,0:0:0:0:
369,270,36897,1,8,0:0:0:0:
147,300,37223,1,0,0:0:0:0:
147,300,37549,1,0,0:0:0:0:
360,272,37876,1,8,0:0:0:0:
298,283,38528,1,8,0:0:0:0:
56,296,38854,1,0,0:0:0:0:
363,296,39180,1,8,0:0:0:0:
346,291,39506,1,8,0:0:0:0:
319,291,39832,1,8,0:0:0:0:
174,286,40484,1,0,0:0:0:0:
433,281,40810,1,8,0:0:0:0:
161,285,41136,1,0,0:0:0:0:
112,288,41299,1,0,0:0:0:0:
418,283,41462,1,8,0:0:0:0:
138,291,41626,1,0,0:0:0:0:
139,291,41952,1,0,0:0:0:0:
407,275,42115,1,8,0:0:0:0:
155,289,42441,1,0,0:0:0:0:
174,286,43093,1,0,0:0:0:0:
433,281,43419,1,8,0:0:0:0:
161,285,43745,1,0,0:0:0:0:
136,320,43908,1,0,0:0:0:0:
418,283,44071,1,8,0:0:0:0:
138,291,44235,1,0,0:0:0:0:
104,304,44560,1,0,0:0:0:0:
407,275,44724,1,8,0:0:0:0:
352,296,45049,1,8,0:0:0:0:
120,280,45702,1,0,0:0:0:0:
376,295,46028,1,8,0:0:0:0:
146,289,46354,1,0,0:0:0:0:
146,289,46517,1,0,0:0:0:0:
354,275,46680,1,8,0:0:0:0:
155,285,46843,1,0,0:0:0:0:
155,285,47169,1,0,0:0:0:0:
329,277,47332,1,8,0:0:0:0:
156,279,47658,1,0,0:0:0:0:
304,272,47984,1,8,0:0:0:0:
150,295,48310,1,0,0:0:0:0:
158,273,48962,1,0,0:0:0:0:
429,94,49289,1,12,0:0:0:0:
143,295,49615,1,0,0:0:0:0:
132,281,50104,1,0,0:0:0:0:
167,277,50267,1,0,0:0:0:0:
408,92,50593,1,12,0:0:0:0:
256,192,50919,12,0,51571,0:0:0:0:
125,277,52223,5,0,0:0:0:0:
336,288,52549,1,8,0:0:0:0:
229,306,52876,1,0,0:0:0:0:
173,313,53039,1,0,0:0:0:0:
359,289,53202,1,8,0:0:0:0:
189,306,53528,1,0,0:0:0:0:
456,296,53854,1,8,0:0:0:0:
173,313,54180,1,0,0:0:0:0:
376,304,54343,1,8,0:0:0:0:
408,288,54506,1,8,0:0:0:0:
125,277,54832,1,0,0:0:0:0:
398,285,55158,1,8,0:0:0:0:
229,306,55485,1,0,0:0:0:0:
173,313,55648,1,0,0:0:0:0:
359,289,55811,1,8,0:0:0:0:
189,306,56137,1,0,0:0:0:0:
360,312,56299,1,8,0:0:0:0:
365,287,56463,1,8,0:0:0:0:
173,313,56789,1,0,0:0:0:0:
125,277,57441,1,0,0:0:0:0:
152,296,57604,1,0,0:0:0:0:
398,285,57767,1,8,0:0:0:0:
229,306,58094,1,0,0:0:0:0:
173,313,58257,1,0,0:0:0:0:
359,289,58420,1,8,0:0:0:0:
189,306,58746,1,0,0:0:0:0:
185,313,58909,1,0,0:0:0:0:
365,287,59072,1,8,0:0:0:0:
381,325,59398,1,8,0:0:0:0:
357,321,59561,1,8,0:0:0:0:
112,104,59724,1,4,0:0:0:0:
