osu file format v14

[General]
AudioFilename: One Minute Remains.mp3
AudioLeadIn: 0
PreviewTime: 27441
Countdown: 0
SampleSet: Normal
StackLeniency: 0.7
Mode: 1
LetterboxInBreaks: 0
WidescreenStoryboard: 1

[Editor]
DistanceSpacing: 0.8
BeatDivisor: 4
GridSize: 8
TimelineZoom: 0.5999995

[Metadata]
Title:Now or Never
TitleUnicode:Now or Never
Artist:Shiokara-zu
ArtistUnicode:シオカラーズ
Creator:OzzyOzrock
Version:Kantan
Source:Splatoon
Tags:スプラトゥーン one minute remains 峰岸 透 splatfest callie marie squid kid inkling
BeatmapID:833290
BeatmapSetID:380864

[Difficulty]
HPDrainRate:8
CircleSize:5
OverallDifficulty:4
ApproachRate:6
SliderMultiplier:1.4
SliderTickRate:1

[Events]
//Background and Video events
0,0,"allBGsforthissongarebad.jpg",0,80
//Break Periods
//Storyboard Layer 0 (Background)
//Storyboard Layer 1 (Fail)
//Storyboard Layer 2 (Pass)
//Storyboard Layer 3 (Foreground)
//Storyboard Sound Samples

[TimingPoints]
50,326.086956521739,4,1,0,90,1,0
40484,-100,4,1,0,90,0,1
59723,-100,4,1,0,90,0,0

[HitObjects]
370,89,1028,5,6,0:0:0:0:
110,284,1354,1,0,0:0:0:0:
143,274,2006,1,0,0:0:0:0:
329,264,2332,1,8,0:0:0:0:
166,275,2658,1,0,0:0:0:0:
440,264,3310,1,8,0:0:0:0:
122,257,3963,1,0,0:0:0:0:
407,249,4289,1,8,0:0:0:0:
169,263,4615,1,0,0:0:0:0:
386,245,4941,1,8,0:0:0:0:
176,288,5267,1,0,0:0:0:0:
174,286,6571,1,0,0:0:0:0:
433,281,6897,1,8,0:0:0:0:
161,285,7223,1,0,0:0:0:0:
368,288,7876,1,8,0:0:0:0:
155,289,8528,1,0,0:0:0:0:
174,286,9180,1,0,0:0:0:0:
433,281,9506,1,8,0:0:0:0:
161,285,9832,1,0,0:0:0:0:
144,312,10484,1,0,0:0:0:0:
344,290,11137,1,8,0:0:0:0:
120,280,11789,1,0,0:0:0:0:
376,295,12115,1,8,0:0:0:0:
146,289,12441,1,0,0:0:0:0:
384,304,13093,1,8,0:0:0:0:
156,279,13745,1,0,0:0:0:0:
150,295,14397,1,0,0:0:0:0:
429,94,15376,1,12,0:0:0:0:
143,295,15702,1,0,0:0:0:0:
408,92,16680,1,12,0:0:0:0:
422,299,17006,1,8,0:0:0:0:
136,328,17658,1,0,0:0:0:0:
446,281,18147,1,8,0:0:0:0:
160,280,18963,1,0,0:0:0:0:
422,299,19615,1,8,0:0:0:0:
136,296,20267,1,0,0:0:0:0:
446,281,20756,1,8,0:0:0:0:
410,275,21571,1,8,0:0:0:0:
422,299,22223,1,8,0:0:0:0:
160,267,22876,1,0,0:0:0:0:
446,281,23364,1,8,0:0:0:0:
112,312,24180,1,0,0:0:0:0:
168,304,24832,1,0,0:0:0:0:
358,115,25810,1,12,0:0:0:0:
145,305,26136,1,0,0:0:0:0:
347,109,27115,1,12,0:0:0:0:
177,289,27441,1,0,0:0:0:0:
171,302,28093,1,0,0:0:0:0:
337,278,28419,1,8,0:0:0:0:
131,288,28745,1,0,0:0:0:0:
320,288,29397,1,8,0:0:0:0:
146,291,30049,1,0,0:0:0:0:
304,266,30702,1,8,0:0:0:0:
369,270,31354,1,8,0:0:0:0:
177,289,32658,1,0,0:0:0:0:
171,302,33310,1,0,0:0:0:0:
337,278,33636,1,8,0:0:0:0:
131,288,33962,1,0,0:0:0:0:
352,264,34615,1,8,0:0:0:0:
146,291,35267,1,0,0:0:0:0:
304,266,35919,1,8,0:0:0:0:
369,270,36571,1,8,0:0:0:0:
147,300,37223,1,0,0:0:0:0:
346,291,37549,1,0,0:0:0:0:
360,272,37876,1,8,0:0:0:0:
298,283,38528,1,8,0:0:0:0:
363,296,39180,1,8,0:0:0:0:
174,286,40484,1,0,0:0:0:0:
433,281,40810,1,8,0:0:0:0:
161,285,41136,1,0,0:0:0:0:
368,296,41626,1,8,0:0:0:0:
138,291,42441,1,0,0:0:0:0:
174,286,43093,1,0,0:0:0:0:
433,281,43419,1,8,0:0:0:0:
161,285,43745,1,0,0:0:0:0:
160,312,44234,1,0,0:0:0:0:
352,296,45049,1,8,0:0:0:0:
120,280,45702,1,0,0:0:0:0:
376,295,46028,1,8,0:0:0:0:
146,289,46354,1,0,0:0:0:0:
384,304,46843,1,8,0:0:0:0:
156,279,47658,1,0,0:0:0:0:
150,295,48310,1,0,0:0:0:0:
429,94,49289,1,12,0:0:0:0:
143,295,49615,1,0,0:0:0:0:
408,92,50593,1,12,0:0:0:0:
256,192,50919,12,0,51571,0:0:0:0:
125,277,52223,5,0,0:0:0:0:
336,288,52549,1,8,0:0:0:0:
229,306,52876,1,0,0:0:0:0:
189,306,53528,1,0,0:0:0:0:
456,296,53854,1,8,0:0:0:0:
173,313,54180,1,0,0:0:0:0:
125,277,54832,1,0,0:0:0:0:
398,285,55158,1,8,0:0:0:0:
229,306,55485,1,0,0:0:0:0:
359,289,55811,1,8,0:0:0:0:
189,306,56137,1,0,0:0:0:0:
125,277,57441,1,0,0:0:0:0:
229,306,58094,1,0,0:0:0:0:
359,289,58420,1,8,0:0:0:0:
189,306,58746,1,0,0:0:0:0:
365,287,59072,1,8,0:0:0:0:
349,313,59398,1,8,0:0:0:0:
88,104,59724,1,4,0:0:0:0:
