osu file format v14

[General]
AudioFilename: One Minute Remains.mp3
AudioLeadIn: 0
PreviewTime: 27441
Countdown: 0
SampleSet: Normal
StackLeniency: 0.7
Mode: 1
LetterboxInBreaks: 0
WidescreenStoryboard: 0

[Editor]
DistanceSpacing: 0.8
BeatDivisor: 4
GridSize: 8
TimelineZoom: 1.399999

[Metadata]
Title:Now or Never
TitleUnicode:Now or Never
Artist:Shiokara-zu
ArtistUnicode:シオカラーズ
Creator:OzzyOzrock
Version:Inker Oni
Source:Splatoon
Tags:スプラトゥーン one minute remains 峰岸 透 splatfest callie marie squid kid inkling
BeatmapID:833289
BeatmapSetID:380864

[Difficulty]
HPDrainRate:5
CircleSize:5
OverallDifficulty:6
ApproachRate:6
SliderMultiplier:1.4
SliderTickRate:1

[Events]
//Background and Video events
0,0,"allBGsforthissongarebad.jpg",0,80
//Break Periods
//Storyboard Layer 0 (Background)
//Storyboard Layer 1 (Fail)
//Storyboard Layer 2 (Pass)
//Storyboard Layer 3 (Foreground)
//Storyboard Sound Samples

[TimingPoints]
50,326.086956521739,4,1,0,90,1,0
40484,-100,4,1,0,90,0,1
59723,-100,4,1,0,90,0,0

[HitObjects]
368,120,1028,5,12,0:0:0:0:
104,312,1354,1,0,0:0:0:0:
104,312,1435,1,0,0:0:0:0:
368,256,1517,1,8,0:0:0:0:
368,256,1598,1,8,0:0:0:0:
128,272,1680,1,0,0:0:0:0:
128,272,1761,1,0,0:0:0:0:
328,264,1843,1,8,0:0:0:0:
328,264,1924,1,8,0:0:0:0:
120,288,2006,1,0,0:0:0:0:
120,288,2088,1,0,0:0:0:0:
320,264,2169,1,8,0:0:0:0:
320,264,2251,1,8,0:0:0:0:
120,288,2332,1,0,0:0:0:0:
120,288,2414,1,0,0:0:0:0:
344,272,2495,1,8,0:0:0:0:
352,280,2577,1,8,0:0:0:0:
104,312,2658,1,0,0:0:0:0:
328,312,2739,1,8,0:0:0:0:
368,256,2821,1,8,0:0:0:0:
368,256,2902,1,8,0:0:0:0:
128,272,2984,1,0,0:0:0:0:
352,272,3065,1,8,0:0:0:0:
328,264,3147,1,8,0:0:0:0:
328,264,3228,1,8,0:0:0:0:
120,288,3310,1,0,0:0:0:0:
344,288,3392,1,8,0:0:0:0:
320,264,3473,1,8,0:0:0:0:
320,264,3555,1,8,0:0:0:0:
120,288,3636,1,0,0:0:0:0:
344,272,3799,1,8,0:0:0:0:
104,312,3963,1,0,0:0:0:0:
104,312,4044,1,0,0:0:0:0:
368,256,4126,1,8,0:0:0:0:
368,256,4207,1,8,0:0:0:0:
128,272,4289,1,0,0:0:0:0:
128,272,4370,1,0,0:0:0:0:
328,264,4452,1,8,0:0:0:0:
328,264,4533,1,8,0:0:0:0:
120,288,4615,1,0,0:0:0:0:
120,288,4697,1,0,0:0:0:0:
320,264,4778,1,8,0:0:0:0:
320,264,4860,1,8,0:0:0:0:
120,288,4941,1,0,0:0:0:0:
120,288,5023,1,0,0:0:0:0:
344,272,5104,1,8,0:0:0:0:
352,280,5186,1,8,0:0:0:0:
104,312,5267,1,0,0:0:0:0:
328,312,5348,1,8,0:0:0:0:
80,312,5430,1,0,0:0:0:0:
80,312,5511,1,0,0:0:0:0:
360,280,5593,1,8,0:0:0:0:
128,272,5674,1,0,0:0:0:0:
328,288,5756,1,8,0:0:0:0:
328,288,5838,1,8,0:0:0:0:
352,280,5919,1,8,0:0:0:0:
352,280,6001,1,8,0:0:0:0:
352,280,6082,1,8,0:0:0:0:
352,280,6164,1,8,0:0:0:0:
352,280,6245,1,8,0:0:0:0:
352,280,6327,1,8,0:0:0:0:
352,280,6408,1,8,0:0:0:0:
352,280,6490,1,8,0:0:0:0:
112,288,6571,1,0,0:0:0:0:
128,296,6734,1,0,0:0:0:0:
80,304,6816,1,0,0:0:0:0:
344,264,6897,1,8,0:0:0:0:
160,288,7060,1,0,0:0:0:0:
400,256,7223,1,8,0:0:0:0:
120,288,7305,1,0,0:0:0:0:
368,264,7386,1,8,0:0:0:0:
128,320,7549,1,0,0:0:0:0:
328,264,7713,1,8,0:0:0:0:
328,264,7794,1,8,0:0:0:0:
128,288,7876,1,0,0:0:0:0:
328,264,8039,1,8,0:0:0:0:
328,264,8120,1,8,0:0:0:0:
328,264,8202,1,8,0:0:0:0:
152,288,8365,1,0,0:0:0:0:
328,256,8528,1,8,0:0:0:0:
112,288,8609,1,0,0:0:0:0:
144,280,8691,1,0,0:0:0:0:
96,288,8772,1,0,0:0:0:0:
336,256,8854,1,8,0:0:0:0:
200,280,9017,1,0,0:0:0:0:
400,272,9180,1,8,0:0:0:0:
128,296,9343,1,0,0:0:0:0:
80,304,9425,1,0,0:0:0:0:
344,264,9506,1,8,0:0:0:0:
160,288,9669,1,0,0:0:0:0:
400,256,9832,1,8,0:0:0:0:
120,288,9914,1,0,0:0:0:0:
368,264,9995,1,8,0:0:0:0:
128,320,10158,1,0,0:0:0:0:
328,264,10322,1,8,0:0:0:0:
328,264,10403,1,8,0:0:0:0:
128,288,10485,1,0,0:0:0:0:
328,264,10648,1,8,0:0:0:0:
328,264,10729,1,8,0:0:0:0:
328,264,10811,1,8,0:0:0:0:
152,288,10974,1,0,0:0:0:0:
328,256,11137,1,8,0:0:0:0:
328,256,11218,1,8,0:0:0:0:
144,280,11300,1,0,0:0:0:0:
96,288,11381,1,0,0:0:0:0:
336,256,11463,1,8,0:0:0:0:
344,288,11626,1,8,0:0:0:0:
344,296,11789,1,8,0:0:0:0:
128,296,11952,1,0,0:0:0:0:
80,304,12034,1,0,0:0:0:0:
344,264,12115,1,8,0:0:0:0:
160,288,12278,1,0,0:0:0:0:
400,256,12441,1,8,0:0:0:0:
120,288,12523,1,0,0:0:0:0:
368,264,12604,1,8,0:0:0:0:
128,320,12767,1,0,0:0:0:0:
328,264,12931,1,8,0:0:0:0:
328,264,13012,1,8,0:0:0:0:
128,288,13094,1,0,0:0:0:0:
328,264,13257,1,8,0:0:0:0:
328,264,13338,1,8,0:0:0:0:
328,264,13420,1,8,0:0:0:0:
152,288,13583,1,0,0:0:0:0:
328,256,13746,1,8,0:0:0:0:
112,288,13827,1,0,0:0:0:0:
144,280,13909,1,0,0:0:0:0:
96,288,13990,1,0,0:0:0:0:
336,256,14072,1,8,0:0:0:0:
200,280,14235,1,0,0:0:0:0:
64,288,14397,1,0,0:0:0:0:
64,288,14479,1,0,0:0:0:0:
320,272,14560,1,8,0:0:0:0:
358,292,14642,1,8,0:0:0:0:
128,296,14723,1,0,0:0:0:0:
144,304,14805,1,0,0:0:0:0:
368,272,14886,1,8,0:0:0:0:
368,272,14968,1,8,0:0:0:0:
160,304,15049,1,0,0:0:0:0:
360,104,15376,1,12,0:0:0:0:
80,280,15702,1,0,0:0:0:0:
80,280,15783,1,0,0:0:0:0:
392,264,15865,1,8,0:0:0:0:
392,264,15946,1,8,0:0:0:0:
112,288,16028,1,0,0:0:0:0:
368,264,16109,1,8,0:0:0:0:
168,288,16191,1,0,0:0:0:0:
120,280,16272,1,0,0:0:0:0:
168,288,16354,1,0,0:0:0:0:
384,80,16680,1,12,0:0:0:0:
408,265,17006,1,8,0:0:0:0:
128,300,17088,1,0,0:0:0:0:
139,291,17169,1,0,0:0:0:0:
139,291,17332,1,0,0:0:0:0:
381,267,17495,1,8,0:0:0:0:
381,267,17577,1,8,0:0:0:0:
115,290,17658,1,0,0:0:0:0:
372,255,17821,1,8,0:0:0:0:
115,290,17984,1,0,0:0:0:0:
337,272,18147,1,8,0:0:0:0:
337,272,18229,1,8,0:0:0:0:
177,274,18310,1,0,0:0:0:0:
368,276,18473,1,8,0:0:0:0:
139,291,18636,1,0,0:0:0:0:
400,280,18799,1,8,0:0:0:0:
368,288,19126,1,8,0:0:0:0:
120,304,19289,1,0,0:0:0:0:
155,321,19452,1,0,0:0:0:0:
383,275,19615,1,8,0:0:0:0:
198,311,19696,1,0,0:0:0:0:
131,324,19778,1,0,0:0:0:0:
132,324,19941,1,0,0:0:0:0:
355,280,20104,1,8,0:0:0:0:
355,280,20185,1,8,0:0:0:0:
116,314,20267,1,0,0:0:0:0:
361,281,20430,1,8,0:0:0:0:
126,317,20593,1,0,0:0:0:0:
325,297,20756,1,8,0:0:0:0:
325,297,20838,1,8,0:0:0:0:
131,331,20919,1,0,0:0:0:0:
329,294,21082,1,8,0:0:0:0:
163,309,21245,1,0,0:0:0:0:
341,293,21408,1,8,0:0:0:0:
416,280,21571,1,8,0:0:0:0:
82,277,21653,1,0,0:0:0:0:
90,292,21816,1,0,0:0:0:0:
80,296,21897,1,0,0:0:0:0:
90,292,22060,1,0,0:0:0:0:
380,282,22223,1,8,0:0:0:0:
157,313,22305,1,0,0:0:0:0:
81,283,22386,1,0,0:0:0:0:
97,297,22549,1,0,0:0:0:0:
323,274,22713,1,8,0:0:0:0:
323,274,22794,1,8,0:0:0:0:
135,280,22876,1,0,0:0:0:0:
327,263,23039,1,8,0:0:0:0:
167,288,23202,1,0,0:0:0:0:
344,259,23365,1,8,0:0:0:0:
344,259,23446,1,8,0:0:0:0:
150,292,23528,1,0,0:0:0:0:
327,269,23691,1,8,0:0:0:0:
167,296,23854,1,0,0:0:0:0:
137,286,24017,1,0,0:0:0:0:
304,278,24180,1,8,0:0:0:0:
351,288,24506,1,8,0:0:0:0:
155,298,24669,1,0,0:0:0:0:
155,279,24832,1,0,0:0:0:0:
155,279,24914,1,0,0:0:0:0:
397,269,24995,1,8,0:0:0:0:
397,269,25077,1,8,0:0:0:0:
146,298,25158,1,0,0:0:0:0:
146,298,25240,1,0,0:0:0:0:
411,259,25321,1,8,0:0:0:0:
411,259,25403,1,8,0:0:0:0:
208,288,25484,1,0,0:0:0:0:
312,49,25810,1,12,0:0:0:0:
144,277,26136,1,0,0:0:0:0:
144,277,26218,1,0,0:0:0:0:
434,279,26299,1,8,0:0:0:0:
434,279,26381,1,8,0:0:0:0:
230,306,26463,1,0,0:0:0:0:
230,306,26544,1,0,0:0:0:0:
364,282,26626,1,8,0:0:0:0:
364,282,26707,1,8,0:0:0:0:
201,308,26789,1,0,0:0:0:0:
305,284,26870,1,8,0:0:0:0:
305,284,26952,1,8,0:0:0:0:
305,284,27033,1,8,0:0:0:0:
305,284,27115,1,8,0:0:0:0:
305,284,27196,1,8,0:0:0:0:
305,284,27278,1,8,0:0:0:0:
305,284,27359,1,8,0:0:0:0:
122,315,27441,1,0,0:0:0:0:
438,307,27767,1,8,0:0:0:0:
155,307,27930,1,0,0:0:0:0:
155,307,28093,1,0,0:0:0:0:
418,295,28419,1,8,0:0:0:0:
344,320,28582,1,8,0:0:0:0:
142,311,28745,1,0,0:0:0:0:
387,297,29071,1,8,0:0:0:0:
159,311,29234,1,0,0:0:0:0:
159,311,29397,1,0,0:0:0:0:
387,297,29723,1,8,0:0:0:0:
416,304,29886,1,8,0:0:0:0:
160,320,30049,1,0,0:0:0:0:
160,320,30213,1,0,0:0:0:0:
160,320,30294,1,0,0:0:0:0:
384,288,30376,1,8,0:0:0:0:
160,320,30539,1,0,0:0:0:0:
384,288,30620,1,8,0:0:0:0:
192,320,30702,1,0,0:0:0:0:
176,320,30865,1,0,0:0:0:0:
176,320,30946,1,0,0:0:0:0:
352,288,31028,1,8,0:0:0:0:
352,288,31191,1,8,0:0:0:0:
352,288,31272,1,8,0:0:0:0:
192,288,31354,1,0,0:0:0:0:
160,320,31517,1,0,0:0:0:0:
160,320,31598,1,0,0:0:0:0:
384,288,31680,1,8,0:0:0:0:
384,288,31843,1,8,0:0:0:0:
384,288,31924,1,8,0:0:0:0:
192,320,32006,1,0,0:0:0:0:
176,320,32088,1,0,0:0:0:0:
176,320,32250,1,0,0:0:0:0:
352,288,32332,1,8,0:0:0:0:
352,288,32495,1,8,0:0:0:0:
352,288,32576,1,8,0:0:0:0:
192,288,32658,1,0,0:0:0:0:
356,277,32984,1,8,0:0:0:0:
168,298,33147,1,0,0:0:0:0:
168,298,33473,1,0,0:0:0:0:
356,295,33636,1,8,0:0:0:0:
188,307,33799,1,0,0:0:0:0:
188,307,33963,1,0,0:0:0:0:
349,301,34289,1,8,0:0:0:0:
189,308,34452,1,0,0:0:0:0:
189,308,34778,1,0,0:0:0:0:
319,305,34941,1,8,0:0:0:0:
440,328,35104,1,8,0:0:0:0:
173,304,35267,1,0,0:0:0:0:
160,320,35430,1,0,0:0:0:0:
160,320,35511,1,0,0:0:0:0:
384,288,35593,1,8,0:0:0:0:
128,320,35756,1,0,0:0:0:0:
384,288,35837,1,8,0:0:0:0:
192,320,35919,1,0,0:0:0:0:
176,320,36082,1,0,0:0:0:0:
176,320,36163,1,0,0:0:0:0:
352,288,36245,1,8,0:0:0:0:
352,288,36408,1,8,0:0:0:0:
352,288,36489,1,8,0:0:0:0:
192,288,36571,1,0,0:0:0:0:
160,320,36734,1,0,0:0:0:0:
160,320,36815,1,0,0:0:0:0:
384,288,36897,1,8,0:0:0:0:
384,288,37060,1,8,0:0:0:0:
384,288,37141,1,8,0:0:0:0:
165,283,37223,1,0,0:0:0:0:
163,290,37549,1,0,0:0:0:0:
371,274,37876,1,8,0:0:0:0:
160,296,38039,1,0,0:0:0:0:
380,295,38202,1,8,0:0:0:0:
167,296,38365,1,0,0:0:0:0:
167,291,38446,1,0,0:0:0:0:
360,292,38528,1,8,0:0:0:0:
201,302,38691,1,0,0:0:0:0:
362,289,38854,1,8,0:0:0:0:
199,291,39017,1,0,0:0:0:0:
167,291,39098,1,0,0:0:0:0:
344,291,39180,1,8,0:0:0:0:
163,326,39343,1,0,0:0:0:0:
160,283,39424,1,0,0:0:0:0:
411,281,39506,1,8,0:0:0:0:
191,295,39669,1,0,0:0:0:0:
160,283,39751,1,0,0:0:0:0:
313,295,39832,1,8,0:0:0:0:
336,292,39995,1,8,0:0:0:0:
336,292,40158,1,8,0:0:0:0:
337,292,40240,1,8,0:0:0:0:
337,292,40321,1,8,0:0:0:0:
337,292,40403,1,8,0:0:0:0:
112,288,40484,1,0,0:0:0:0:
128,296,40647,1,0,0:0:0:0:
80,304,40729,1,0,0:0:0:0:
344,264,40810,1,8,0:0:0:0:
160,288,40973,1,0,0:0:0:0:
400,256,41136,1,8,0:0:0:0:
120,288,41218,1,0,0:0:0:0:
368,264,41299,1,8,0:0:0:0:
371,258,41381,1,8,0:0:0:0:
128,320,41462,1,0,0:0:0:0:
328,264,41626,1,8,0:0:0:0:
328,264,41707,1,8,0:0:0:0:
128,288,41789,1,0,0:0:0:0:
328,264,41952,1,8,0:0:0:0:
328,264,42033,1,8,0:0:0:0:
328,264,42115,1,8,0:0:0:0:
152,288,42278,1,0,0:0:0:0:
328,256,42441,1,8,0:0:0:0:
112,288,42522,1,0,0:0:0:0:
144,280,42604,1,0,0:0:0:0:
96,288,42685,1,0,0:0:0:0:
336,256,42767,1,8,0:0:0:0:
346,257,42848,1,8,0:0:0:0:
200,280,42930,1,0,0:0:0:0:
400,272,43093,1,8,0:0:0:0:
128,296,43256,1,0,0:0:0:0:
80,304,43338,1,0,0:0:0:0:
344,264,43419,1,8,0:0:0:0:
160,288,43582,1,0,0:0:0:0:
400,256,43745,1,8,0:0:0:0:
120,288,43827,1,0,0:0:0:0:
368,264,43908,1,8,0:0:0:0:
321,263,43990,1,8,0:0:0:0:
128,320,44071,1,0,0:0:0:0:
328,264,44235,1,8,0:0:0:0:
328,264,44316,1,8,0:0:0:0:
128,288,44398,1,0,0:0:0:0:
328,264,44561,1,8,0:0:0:0:
328,264,44642,1,8,0:0:0:0:
328,264,44724,1,8,0:0:0:0:
152,288,44887,1,0,0:0:0:0:
328,256,45050,1,8,0:0:0:0:
328,256,45131,1,8,0:0:0:0:
144,280,45213,1,0,0:0:0:0:
96,288,45294,1,0,0:0:0:0:
336,256,45376,1,8,0:0:0:0:
383,278,45457,1,8,0:0:0:0:
344,288,45539,1,8,0:0:0:0:
344,296,45702,1,8,0:0:0:0:
128,296,45865,1,0,0:0:0:0:
80,304,45947,1,0,0:0:0:0:
344,264,46028,1,8,0:0:0:0:
361,268,46109,1,8,0:0:0:0:
160,288,46191,1,0,0:0:0:0:
400,256,46354,1,8,0:0:0:0:
120,288,46436,1,0,0:0:0:0:
368,264,46517,1,8,0:0:0:0:
356,262,46598,1,8,0:0:0:0:
128,320,46680,1,0,0:0:0:0:
328,264,46844,1,8,0:0:0:0:
328,264,46925,1,8,0:0:0:0:
128,288,47007,1,0,0:0:0:0:
328,264,47170,1,8,0:0:0:0:
328,264,47251,1,8,0:0:0:0:
328,264,47333,1,8,0:0:0:0:
152,288,47496,1,0,0:0:0:0:
328,256,47659,1,8,0:0:0:0:
112,288,47740,1,0,0:0:0:0:
144,280,47822,1,0,0:0:0:0:
96,288,47903,1,0,0:0:0:0:
336,256,47985,1,8,0:0:0:0:
333,247,48066,1,8,0:0:0:0:
200,280,48148,1,0,0:0:0:0:
74,277,48310,1,0,0:0:0:0:
75,277,48392,1,0,0:0:0:0:
296,268,48473,1,8,0:0:0:0:
296,268,48555,1,8,0:0:0:0:
153,280,48636,1,0,0:0:0:0:
153,280,48718,1,0,0:0:0:0:
333,268,48799,1,8,0:0:0:0:
333,268,48881,1,8,0:0:0:0:
162,279,48963,1,0,0:0:0:0:
372,99,49289,1,12,0:0:0:0:
94,284,49615,1,0,0:0:0:0:
96,284,49696,1,0,0:0:0:0:
386,264,49778,1,8,0:0:0:0:
386,264,49859,1,8,0:0:0:0:
159,277,49941,1,0,0:0:0:0:
377,278,50022,1,8,0:0:0:0:
179,295,50104,1,0,0:0:0:0:
96,288,50185,1,0,0:0:0:0:
177,293,50267,1,0,0:0:0:0:
332,77,50593,1,12,0:0:0:0:
119,285,50919,1,0,0:0:0:0:
119,285,51001,1,0,0:0:0:0:
323,276,51082,1,8,0:0:0:0:
328,275,51164,1,8,0:0:0:0:
150,290,51245,1,0,0:0:0:0:
150,290,51327,1,0,0:0:0:0:
335,289,51408,1,8,0:0:0:0:
335,289,51490,1,8,0:0:0:0:
133,303,51571,1,0,0:0:0:0:
309,284,51653,1,8,0:0:0:0:
310,284,51734,1,8,0:0:0:0:
310,284,51816,1,8,0:0:0:0:
310,284,51897,1,8,0:0:0:0:
310,284,51979,1,8,0:0:0:0:
310,284,52060,1,8,0:0:0:0:
325,297,52142,1,8,0:0:0:0:
88,272,52223,5,0,0:0:0:0:
88,272,52386,1,0,0:0:0:0:
384,272,52549,1,8,0:0:0:0:
384,272,52713,1,8,0:0:0:0:
184,288,52876,1,0,0:0:0:0:
184,288,53039,1,0,0:0:0:0:
360,248,53202,1,8,0:0:0:0:
360,248,53365,1,8,0:0:0:0:
160,288,53528,1,0,0:0:0:0:
336,272,53691,1,8,0:0:0:0:
208,288,53854,1,0,0:0:0:0:
376,264,54017,1,8,0:0:0:0:
112,288,54180,1,0,0:0:0:0:
336,264,54343,1,8,0:0:0:0:
112,288,54506,1,0,0:0:0:0:
352,256,54669,1,8,0:0:0:0:
128,288,54832,1,0,0:0:0:0:
128,288,54914,1,0,0:0:0:0:
344,256,54995,1,8,0:0:0:0:
344,256,55077,1,8,0:0:0:0:
152,272,55158,1,0,0:0:0:0:
152,272,55240,1,0,0:0:0:0:
320,248,55321,1,8,0:0:0:0:
384,240,55403,1,8,0:0:0:0:
176,280,55484,1,0,0:0:0:0:
176,280,55566,1,0,0:0:0:0:
312,248,55647,1,8,0:0:0:0:
312,248,55729,1,8,0:0:0:0:
224,264,55810,1,0,0:0:0:0:
224,264,55892,1,0,0:0:0:0:
352,256,55973,1,8,0:0:0:0:
384,248,56055,1,8,0:0:0:0:
128,288,56136,1,0,0:0:0:0:
424,256,56218,1,8,0:0:0:0:
416,240,56299,1,8,0:0:0:0:
416,240,56381,1,8,0:0:0:0:
56,280,56463,1,0,0:0:0:0:
392,264,56544,1,8,0:0:0:0:
368,248,56626,1,8,0:0:0:0:
384,248,56707,1,8,0:0:0:0:
208,272,56789,1,0,0:0:0:0:
368,264,56870,1,8,0:0:0:0:
360,248,56952,1,8,0:0:0:0:
360,248,57033,1,8,0:0:0:0:
160,296,57115,1,0,0:0:0:0:
448,264,57196,1,8,0:0:0:0:
400,248,57278,1,8,0:0:0:0:
384,248,57359,1,8,0:0:0:0:
152,296,57441,1,0,0:0:0:0:
144,328,57522,1,0,0:0:0:0:
328,256,57604,1,8,0:0:0:0:
360,288,57685,1,8,0:0:0:0:
144,288,57767,1,0,0:0:0:0:
392,240,57848,1,8,0:0:0:0:
368,232,57930,1,8,0:0:0:0:
368,232,58011,1,8,0:0:0:0:
160,288,58093,1,0,0:0:0:0:
152,328,58174,1,0,0:0:0:0:
376,256,58256,1,8,0:0:0:0:
376,256,58338,1,8,0:0:0:0:
176,288,58419,1,0,0:0:0:0:
392,240,58501,1,8,0:0:0:0:
392,264,58582,1,8,0:0:0:0:
392,264,58664,1,8,0:0:0:0:
144,288,58745,1,0,0:0:0:0:
392,240,58826,1,8,0:0:0:0:
368,232,58908,1,8,0:0:0:0:
368,232,58989,1,8,0:0:0:0:
384,288,59071,1,8,0:0:0:0:
384,272,59152,1,8,0:0:0:0:
376,256,59234,1,8,0:0:0:0:
376,256,59316,1,8,0:0:0:0:
400,288,59397,1,8,0:0:0:0:
392,240,59479,1,8,0:0:0:0:
392,264,59560,1,8,0:0:0:0:
392,264,59642,1,8,0:0:0:0:
136,296,59723,1,0,0:0:0:0:
