osu file format v14

[General]
AudioFilename: 26 Splatfest - Multiplayer VS Theme_01.mp3
AudioLeadIn: 0
PreviewTime: 11903
Countdown: 0
SampleSet: Normal
StackLeniency: 0.7
Mode: 1
LetterboxInBreaks: 0
WidescreenStoryboard: 0

[Editor]
Bookmarks: 34229
DistanceSpacing: 1.5
BeatDivisor: 4
GridSize: 4
TimelineZoom: 1.2

[Metadata]
Title:Ink Me Up
TitleUnicode:キミ色に染めて
Artist:Shiokara-zu
ArtistUnicode:シオカラーズ
Creator:OzzyOzrock
Version:Oni
Source:Splatoon
Tags:スプラトゥーン splat squid sisters inkling nintendo 藤井志帆 fujii shiho kimi iro ni somete
BeatmapID:807618
BeatmapSetID:368343

[Difficulty]
HPDrainRate:6
CircleSize:5
OverallDifficulty:6
ApproachRate:6
SliderMultiplier:1.4
SliderTickRate:1

[Events]
//Background and Video events
0,0,"splatfeststretchedoutlol.jpg",0,60
//Break Periods
//Storyboard Layer 0 (Background)
//Storyboard Layer 1 (Fail)
//Storyboard Layer 2 (Pass)
//Storyboard Layer 3 (Foreground)
//Storyboard Sound Samples

[TimingPoints]
741,348.837209302326,4,1,0,80,1,0
45392,-100,4,1,0,80,0,1
56554,-100,4,1,0,80,0,0

[HitObjects]
396,268,44,5,8,0:0:0:0:
396,268,131,1,8,0:0:0:0:
396,268,218,1,8,0:0:0:0:
396,268,305,1,8,0:0:0:0:
396,268,392,1,8,0:0:0:0:
396,268,480,1,8,0:0:0:0:
396,268,567,1,8,0:0:0:0:
396,268,654,1,8,0:0:0:0:
160,240,741,1,0,0:0:0:0:
152,236,916,1,0,0:0:0:0:
384,248,1090,1,8,0:0:0:0:
156,260,1439,1,0,0:0:0:0:
156,260,1613,1,0,0:0:0:0:
348,248,1788,1,8,0:0:0:0:
156,268,2137,1,0,0:0:0:0:
36,260,2311,1,0,0:0:0:0:
360,268,2485,1,8,0:0:0:0:
128,304,2834,1,0,0:0:0:0:
380,276,3009,1,8,0:0:0:0:
380,276,3183,1,8,0:0:0:0:
152,284,3532,1,0,0:0:0:0:
152,284,3706,1,0,0:0:0:0:
316,264,3881,1,8,0:0:0:0:
120,300,4230,1,0,0:0:0:0:
120,300,4404,1,0,0:0:0:0:
312,280,4578,1,8,0:0:0:0:
136,296,4927,1,0,0:0:0:0:
136,296,5102,1,0,0:0:0:0:
312,284,5276,1,8,0:0:0:0:
152,304,5450,1,0,0:0:0:0:
160,296,5799,1,0,0:0:0:0:
348,292,5974,1,8,0:0:0:0:
352,304,6061,1,8,0:0:0:0:
312,280,6148,1,8,0:0:0:0:
144,304,6323,1,0,0:0:0:0:
408,252,6497,1,8,0:0:0:0:
164,300,6671,1,0,0:0:0:0:
376,252,7020,1,8,0:0:0:0:
120,292,7369,1,0,0:0:0:0:
76,304,7718,1,0,0:0:0:0:
324,272,7892,1,8,0:0:0:0:
124,304,8241,1,0,0:0:0:0:
328,280,8416,1,8,0:0:0:0:
156,288,8590,1,0,0:0:0:0:
156,288,8764,1,0,0:0:0:0:
364,240,8939,1,8,0:0:0:0:
136,300,9113,1,0,0:0:0:0:
368,264,9287,1,8,0:0:0:0:
116,280,9461,1,0,0:0:0:0:
320,272,9810,1,8,0:0:0:0:
56,292,10159,1,0,0:0:0:0:
412,292,10509,1,8,0:0:0:0:
412,292,10596,1,8,0:0:0:0:
412,292,10683,1,8,0:0:0:0:
412,292,10770,1,8,0:0:0:0:
412,292,10857,1,8,0:0:0:0:
412,292,10945,1,8,0:0:0:0:
412,292,11032,1,8,0:0:0:0:
412,292,11119,1,8,0:0:0:0:
412,292,11206,1,8,0:0:0:0:
412,292,11293,1,8,0:0:0:0:
168,296,11381,1,0,0:0:0:0:
168,296,11468,1,0,0:0:0:0:
412,292,11555,1,8,0:0:0:0:
412,292,11642,1,8,0:0:0:0:
412,292,11730,1,8,0:0:0:0:
412,292,11817,1,8,0:0:0:0:
172,280,11904,1,0,0:0:0:0:
408,272,12253,1,8,0:0:0:0:
152,288,12602,1,0,0:0:0:0:
124,272,12775,1,0,0:0:0:0:
384,268,12950,1,8,0:0:0:0:
144,288,13125,1,0,0:0:0:0:
144,288,13474,1,0,0:0:0:0:
372,284,13648,1,8,0:0:0:0:
372,284,13823,1,8,0:0:0:0:
100,284,13997,1,0,0:0:0:0:
352,280,14346,1,8,0:0:0:0:
116,284,14695,1,0,0:0:0:0:
116,284,14869,1,0,0:0:0:0:
376,288,15043,1,8,0:0:0:0:
376,288,15218,1,8,0:0:0:0:
128,288,15392,1,0,0:0:0:0:
128,288,15567,1,0,0:0:0:0:
372,288,15741,1,8,0:0:0:0:
372,288,15916,1,8,0:0:0:0:
126,116,16090,1,4,0:0:0:0:
134,112,16439,1,4,0:0:0:0:
134,112,16788,1,4,0:0:0:0:
392,304,16961,1,8,0:0:0:0:
392,296,17136,1,8,0:0:0:0:
392,296,17310,1,8,0:0:0:0:
132,280,17485,1,0,0:0:0:0:
408,272,17834,1,8,0:0:0:0:
152,288,18183,1,0,0:0:0:0:
124,272,18356,1,0,0:0:0:0:
384,268,18531,1,8,0:0:0:0:
144,288,18706,1,0,0:0:0:0:
144,288,19055,1,0,0:0:0:0:
372,284,19229,1,8,0:0:0:0:
372,284,19404,1,8,0:0:0:0:
100,284,19578,1,0,0:0:0:0:
352,280,19927,1,8,0:0:0:0:
116,284,20276,1,0,0:0:0:0:
376,288,20450,1,8,0:0:0:0:
116,284,20624,1,0,0:0:0:0:
376,288,20799,1,8,0:0:0:0:
372,288,20973,1,8,0:0:0:0:
372,288,21148,1,8,0:0:0:0:
128,288,21322,1,0,0:0:0:0:
384,296,21497,1,8,0:0:0:0:
115,55,21671,1,4,0:0:0:0:
123,51,22020,1,4,0:0:0:0:
151,71,22368,1,4,0:0:0:0:
152,103,22543,1,4,0:0:0:0:
404,280,22717,1,8,0:0:0:0:
404,280,22892,1,8,0:0:0:0:
144,256,23066,1,0,0:0:0:0:
408,295,23415,1,8,0:0:0:0:
118,317,23764,1,0,0:0:0:0:
408,277,24113,1,8,0:0:0:0:
145,318,24461,1,0,0:0:0:0:
391,296,24810,1,8,0:0:0:0:
159,327,25159,1,0,0:0:0:0:
159,327,25334,1,0,0:0:0:0:
398,303,25508,1,8,0:0:0:0:
188,343,25857,1,0,0:0:0:0:
367,311,26206,1,8,0:0:0:0:
145,314,26554,1,0,0:0:0:0:
145,314,26729,1,0,0:0:0:0:
385,276,26903,1,8,0:0:0:0:
151,304,27252,1,0,0:0:0:0:
363,280,27601,1,8,0:0:0:0:
135,314,27775,1,0,0:0:0:0:
139,313,28124,1,0,0:0:0:0:
373,297,28299,1,8,0:0:0:0:
102,279,28647,1,0,0:0:0:0:
368,115,28996,1,12,0:0:0:0:
133,294,29345,1,0,0:0:0:0:
321,110,29694,1,12,0:0:0:0:
150,301,30043,1,0,0:0:0:0:
320,104,30392,1,12,0:0:0:0:
138,295,30741,1,0,0:0:0:0:
149,300,30915,1,0,0:0:0:0:
311,108,31089,1,12,0:0:0:0:
133,283,31438,1,0,0:0:0:0:
375,97,31787,1,12,0:0:0:0:
158,283,32136,1,0,0:0:0:0:
158,283,32310,1,0,0:0:0:0:
389,88,32485,1,12,0:0:0:0:
402,299,32834,1,8,0:0:0:0:
402,299,32921,1,8,0:0:0:0:
402,299,33008,1,8,0:0:0:0:
402,299,33095,1,8,0:0:0:0:
402,299,33182,1,8,0:0:0:0:
402,299,33270,1,8,0:0:0:0:
402,299,33357,1,8,0:0:0:0:
402,299,33444,1,8,0:0:0:0:
402,299,33531,1,8,0:0:0:0:
402,299,33618,1,8,0:0:0:0:
402,299,33706,1,8,0:0:0:0:
402,299,33793,1,8,0:0:0:0:
79,315,33880,1,0,0:0:0:0:
79,315,33967,1,0,0:0:0:0:
402,299,34054,1,8,0:0:0:0:
402,299,34142,1,8,0:0:0:0:
51,275,34229,1,0,0:0:0:0:
51,275,34403,1,0,0:0:0:0:
376,291,34578,1,8,0:0:0:0:
391,243,34839,1,8,0:0:0:0:
214,276,34927,1,0,0:0:0:0:
188,283,35101,1,0,0:0:0:0:
345,272,35275,1,8,0:0:0:0:
140,292,35450,1,0,0:0:0:0:
122,288,35624,1,0,0:0:0:0:
383,273,35973,1,8,0:0:0:0:
383,273,36235,1,8,0:0:0:0:
144,304,36322,1,0,0:0:0:0:
144,304,36496,1,0,0:0:0:0:
321,262,36671,1,8,0:0:0:0:
357,273,36845,1,8,0:0:0:0:
140,292,37020,1,0,0:0:0:0:
129,293,37194,1,0,0:0:0:0:
355,281,37368,1,8,0:0:0:0:
212,304,37543,1,0,0:0:0:0:
138,297,37892,1,0,0:0:0:0:
322,280,38066,1,8,0:0:0:0:
322,280,38241,1,8,0:0:0:0:
127,301,38415,1,0,0:0:0:0:
127,301,38589,1,0,0:0:0:0:
378,279,38764,1,8,0:0:0:0:
156,312,38938,1,0,0:0:0:0:
201,314,39287,1,0,0:0:0:0:
342,271,39461,1,8,0:0:0:0:
342,271,39549,1,8,0:0:0:0:
342,271,39636,1,8,0:0:0:0:
127,301,39810,1,0,0:0:0:0:
152,300,39985,1,0,0:0:0:0:
331,277,40159,1,8,0:0:0:0:
352,292,40421,1,8,0:0:0:0:
54,300,40508,1,0,0:0:0:0:
111,292,40682,1,0,0:0:0:0:
328,273,40857,1,8,0:0:0:0:
105,291,41031,1,0,0:0:0:0:
127,294,41206,1,0,0:0:0:0:
382,271,41554,1,8,0:0:0:0:
382,271,41816,1,8,0:0:0:0:
112,278,41903,1,0,0:0:0:0:
112,278,42078,1,0,0:0:0:0:
370,264,42252,1,8,0:0:0:0:
328,273,42427,1,8,0:0:0:0:
126,286,42601,1,0,0:0:0:0:
341,279,42775,1,8,0:0:0:0:
197,285,42950,1,0,0:0:0:0:
334,278,43124,1,8,0:0:0:0:
340,274,43299,1,8,0:0:0:0:
340,274,43473,1,8,0:0:0:0:
150,295,43647,1,0,0:0:0:0:
376,267,43822,1,8,0:0:0:0:
134,309,43996,1,0,0:0:0:0:
149,317,44171,1,0,0:0:0:0:
341,279,44345,1,8,0:0:0:0:
160,305,44520,1,0,0:0:0:0:
397,285,44694,1,8,0:0:0:0:
397,285,44781,1,8,0:0:0:0:
397,285,44868,1,8,0:0:0:0:
397,285,44956,1,8,0:0:0:0:
397,285,45043,1,8,0:0:0:0:
397,285,45130,1,8,0:0:0:0:
397,285,45217,1,8,0:0:0:0:
397,285,45304,1,8,0:0:0:0:
222,311,45392,1,0,0:0:0:0:
134,315,45566,1,0,0:0:0:0:
362,273,45741,1,8,0:0:0:0:
397,285,46002,1,8,0:0:0:0:
212,332,46089,1,0,0:0:0:0:
164,301,46264,1,0,0:0:0:0:
386,260,46438,1,8,0:0:0:0:
164,301,46613,1,0,0:0:0:0:
389,256,46787,1,8,0:0:0:0:
150,313,47136,1,0,0:0:0:0:
363,279,47310,1,8,0:0:0:0:
363,279,47397,1,8,0:0:0:0:
363,279,47485,1,8,0:0:0:0:
164,301,47659,1,0,0:0:0:0:
350,247,47834,1,8,0:0:0:0:
327,286,48008,1,8,0:0:0:0:
142,305,48182,1,0,0:0:0:0:
116,300,48357,1,0,0:0:0:0:
320,272,48531,1,8,0:0:0:0:
172,300,48706,1,0,0:0:0:0:
140,288,49054,1,0,0:0:0:0:
300,280,49229,1,8,0:0:0:0:
160,292,49403,1,0,0:0:0:0:
172,315,49578,1,0,0:0:0:0:
172,315,49665,1,0,0:0:0:0:
108,300,49752,1,0,0:0:0:0:
296,280,49927,1,8,0:0:0:0:
208,292,50101,1,0,0:0:0:0:
140,308,50450,1,0,0:0:0:0:
328,268,50624,1,8,0:0:0:0:
328,268,50711,1,8,0:0:0:0:
328,268,50799,1,8,0:0:0:0:
152,296,50973,1,0,0:0:0:0:
152,296,51147,1,0,0:0:0:0:
384,272,51322,1,8,0:0:0:0:
448,284,51584,1,8,0:0:0:0:
84,312,51671,1,0,0:0:0:0:
140,308,51845,1,0,0:0:0:0:
396,284,52020,1,8,0:0:0:0:
396,284,52194,1,8,0:0:0:0:
108,304,52368,1,0,0:0:0:0:
360,292,52542,1,8,0:0:0:0:
156,304,52717,1,0,0:0:0:0:
360,292,52891,1,8,0:0:0:0:
368,280,53066,1,8,0:0:0:0:
232,304,53241,1,0,0:0:0:0:
358,275,53415,1,8,0:0:0:0:
358,275,53589,1,8,0:0:0:0:
147,321,53764,1,0,0:0:0:0:
127,320,53938,1,0,0:0:0:0:
363,278,54113,1,8,0:0:0:0:
404,296,54374,1,8,0:0:0:0:
112,304,54461,1,0,0:0:0:0:
112,304,54636,1,0,0:0:0:0:
368,288,54810,1,8,0:0:0:0:
372,288,54897,1,8,0:0:0:0:
372,288,54985,1,8,0:0:0:0:
180,128,55159,1,4,0:0:0:0:
356,112,55334,1,12,0:0:0:0:
128,136,55508,1,4,0:0:0:0:
312,108,55682,1,12,0:0:0:0:
80,272,55857,1,0,0:0:0:0:
80,272,55944,1,0,0:0:0:0:
328,264,56031,1,8,0:0:0:0:
328,264,56118,1,8,0:0:0:0:
96,276,56206,1,0,0:0:0:0:
108,280,56293,1,0,0:0:0:0:
336,272,56380,1,8,0:0:0:0:
336,272,56467,1,8,0:0:0:0:
156,296,56554,1,0,0:0:0:0:
384,284,56903,1,8,0:0:0:0:
120,304,57252,1,0,0:0:0:0:
364,280,57601,1,8,0:0:0:0:
120,320,57950,1,0,0:0:0:0:
372,288,58299,1,8,0:0:0:0:
88,296,58647,1,0,0:0:0:0:
88,296,58822,1,0,0:0:0:0:
352,288,58996,1,8,0:0:0:0:
116,120,59345,1,4,0:0:0:0:
304,256,59694,1,8,0:0:0:0:
104,296,60043,1,0,0:0:0:0:
104,296,60217,1,0,0:0:0:0:
324,268,60392,1,8,0:0:0:0:
88,292,60741,1,0,0:0:0:0:
324,268,61089,1,8,0:0:0:0:
136,292,61264,1,0,0:0:0:0:
324,268,61438,1,8,0:0:0:0:
168,292,61613,1,0,0:0:0:0:
168,292,61700,1,0,0:0:0:0:
312,264,61787,1,8,0:0:0:0:
312,264,61874,1,8,0:0:0:0:
116,296,61961,1,0,0:0:0:0:
116,296,62049,1,0,0:0:0:0:
112,288,62136,1,0,0:0:0:0:
328,284,62485,1,8,0:0:0:0:
192,304,62834,1,0,0:0:0:0:
340,272,63182,1,8,0:0:0:0:
140,284,63531,1,0,0:0:0:0:
340,276,63880,1,8,0:0:0:0:
100,304,64229,1,0,0:0:0:0:
100,304,64403,1,0,0:0:0:0:
56,280,64491,1,0,0:0:0:0:
288,288,64578,1,8,0:0:0:0:
72,280,64927,1,0,0:0:0:0:
376,276,65101,1,8,0:0:0:0:
108,312,65275,1,0,0:0:0:0:
336,308,65624,1,8,0:0:0:0:
36,300,65799,1,0,0:0:0:0:
348,324,65973,1,8,0:0:0:0:
72,296,66147,1,0,0:0:0:0:
348,160,66322,1,12,0:0:0:0:
364,144,66671,1,12,0:0:0:0:
404,304,67020,1,8,0:0:0:0:
404,304,67107,1,8,0:0:0:0:
404,304,67194,1,8,0:0:0:0:
404,304,67281,1,8,0:0:0:0:
404,304,67368,1,8,0:0:0:0:
404,304,67456,1,8,0:0:0:0:
404,304,67543,1,8,0:0:0:0:
404,304,67630,1,8,0:0:0:0:
196,312,67717,1,0,0:0:0:0:
