osu file format v14

[General]
AudioFilename: 26 Splatfest - Multiplayer VS Theme_01.mp3
AudioLeadIn: 0
PreviewTime: 11903
Countdown: 0
SampleSet: Normal
StackLeniency: 0.7
Mode: 1
LetterboxInBreaks: 0
WidescreenStoryboard: 0

[Editor]
Bookmarks: 34229
DistanceSpacing: 1.5
BeatDivisor: 4
GridSize: 4
TimelineZoom: 0.9999996

[Metadata]
Title:Ink Me Up
TitleUnicode:キミ色に染めて
Artist:Shiokara-zu
ArtistUnicode:シオカラーズ
Creator:OzzyOzrock
Version:Muzukashii
Source:Splatoon
Tags:スプラトゥーン splat squid sisters inkling nintendo 藤井志帆 fujii shiho kimi iro ni somete
BeatmapID:807617
BeatmapSetID:368343

[Difficulty]
HPDrainRate:6
CircleSize:5
OverallDifficulty:5
ApproachRate:6
SliderMultiplier:1.4
SliderTickRate:1

[Events]
//Background and Video events
0,0,"splatfeststretchedoutlol.jpg",0,60
//Break Periods
//Storyboard Layer 0 (Background)
//Storyboard Layer 1 (Fail)
//Storyboard Layer 2 (Pass)
//Storyboard Layer 3 (Foreground)
//Storyboard Sound Samples

[TimingPoints]
741,348.837209302326,4,1,0,80,1,0
45392,-100,4,1,0,80,0,1
56554,-100,4,1,0,80,0,0

[HitObjects]
396,268,44,5,8,0:0:0:0:
396,268,218,1,8,0:0:0:0:
396,268,392,1,8,0:0:0:0:
396,268,567,1,8,0:0:0:0:
160,240,741,1,0,0:0:0:0:
384,248,1090,1,8,0:0:0:0:
156,260,1439,1,0,0:0:0:0:
156,260,1613,1,0,0:0:0:0:
348,248,1788,1,8,0:0:0:0:
156,268,2137,1,0,0:0:0:0:
360,268,2485,1,8,0:0:0:0:
152,292,2834,1,0,0:0:0:0:
380,276,3009,1,8,0:0:0:0:
152,284,3532,1,0,0:0:0:0:
316,264,3881,1,8,0:0:0:0:
120,300,4230,1,0,0:0:0:0:
120,300,4404,1,0,0:0:0:0:
312,280,4578,1,8,0:0:0:0:
136,296,4927,1,0,0:0:0:0:
312,284,5276,1,8,0:0:0:0:
152,304,5450,1,0,0:0:0:0:
160,296,5799,1,0,0:0:0:0:
348,292,5974,1,8,0:0:0:0:
312,280,6148,1,8,0:0:0:0:
144,304,6323,1,0,0:0:0:0:
376,252,6671,1,8,0:0:0:0:
164,300,7020,1,0,0:0:0:0:
84,296,7194,1,0,0:0:0:0:
340,260,7368,1,8,0:0:0:0:
76,304,7718,1,0,0:0:0:0:
324,272,8066,1,8,0:0:0:0:
176,284,8415,1,0,0:0:0:0:
368,264,8589,1,8,0:0:0:0:
136,300,9113,1,0,0:0:0:0:
312,240,9461,1,8,0:0:0:0:
88,268,9811,1,0,0:0:0:0:
124,280,9985,1,0,0:0:0:0:
320,272,10160,1,8,0:0:0:0:
412,292,10509,1,8,0:0:0:0:
412,292,10683,1,8,0:0:0:0:
412,292,10857,1,8,0:0:0:0:
412,292,11032,1,8,0:0:0:0:
412,292,11206,1,8,0:0:0:0:
104,296,11380,1,0,0:0:0:0:
412,292,11554,1,8,0:0:0:0:
412,292,11642,1,8,0:0:0:0:
412,272,11729,1,8,0:0:0:0:
172,280,11904,1,0,0:0:0:0:
408,272,12253,1,8,0:0:0:0:
152,288,12602,1,0,0:0:0:0:
384,268,12950,1,8,0:0:0:0:
144,288,13125,1,0,0:0:0:0:
144,288,13474,1,0,0:0:0:0:
372,284,13648,1,8,0:0:0:0:
100,284,13997,1,0,0:0:0:0:
352,280,14346,1,8,0:0:0:0:
116,284,14695,1,0,0:0:0:0:
116,284,14869,1,0,0:0:0:0:
376,288,15043,1,8,0:0:0:0:
128,288,15392,1,0,0:0:0:0:
128,288,15567,1,0,0:0:0:0:
372,288,15741,1,8,0:0:0:0:
126,116,16090,1,4,0:0:0:0:
134,112,16439,1,4,0:0:0:0:
134,112,16788,1,4,0:0:0:0:
132,280,17485,1,0,0:0:0:0:
408,272,17834,1,8,0:0:0:0:
152,288,18183,1,0,0:0:0:0:
384,268,18531,1,8,0:0:0:0:
144,288,18706,1,0,0:0:0:0:
144,288,19055,1,0,0:0:0:0:
372,284,19229,1,8,0:0:0:0:
100,284,19578,1,0,0:0:0:0:
352,280,19927,1,8,0:0:0:0:
116,284,20276,1,0,0:0:0:0:
372,288,20624,1,8,0:0:0:0:
376,288,20799,1,8,0:0:0:0:
116,284,20973,1,0,0:0:0:0:
372,288,21322,1,8,0:0:0:0:
115,55,21671,1,4,0:0:0:0:
123,51,22020,1,4,0:0:0:0:
151,71,22368,1,4,0:0:0:0:
152,103,22543,1,4,0:0:0:0:
144,256,23066,1,0,0:0:0:0:
408,295,23415,1,8,0:0:0:0:
118,317,23764,1,0,0:0:0:0:
408,277,24113,1,8,0:0:0:0:
145,318,24461,1,0,0:0:0:0:
159,327,25159,1,0,0:0:0:0:
159,327,25334,1,0,0:0:0:0:
398,303,25508,1,8,0:0:0:0:
188,343,25857,1,0,0:0:0:0:
367,311,26206,1,8,0:0:0:0:
145,314,26554,1,0,0:0:0:0:
385,276,26903,1,8,0:0:0:0:
151,304,27252,1,0,0:0:0:0:
135,314,27775,1,0,0:0:0:0:
139,313,28124,1,0,0:0:0:0:
373,297,28299,1,8,0:0:0:0:
102,279,28647,1,0,0:0:0:0:
368,115,28996,1,12,0:0:0:0:
321,110,29694,1,12,0:0:0:0:
133,294,30043,1,0,0:0:0:0:
320,104,30392,1,12,0:0:0:0:
311,108,31089,1,12,0:0:0:0:
133,283,31438,1,0,0:0:0:0:
375,97,31787,1,12,0:0:0:0:
389,88,32485,1,12,0:0:0:0:
402,299,32834,1,8,0:0:0:0:
402,299,33008,1,8,0:0:0:0:
402,299,33182,1,8,0:0:0:0:
402,299,33357,1,8,0:0:0:0:
402,299,33531,1,8,0:0:0:0:
402,299,33618,1,8,0:0:0:0:
402,299,33706,1,8,0:0:0:0:
79,315,33880,1,0,0:0:0:0:
402,299,34054,1,8,0:0:0:0:
51,275,34229,1,0,0:0:0:0:
376,291,34578,1,8,0:0:0:0:
214,276,34927,1,0,0:0:0:0:
188,283,35101,1,0,0:0:0:0:
345,272,35275,1,8,0:0:0:0:
122,288,35624,1,0,0:0:0:0:
383,273,35973,1,8,0:0:0:0:
144,304,36147,1,0,0:0:0:0:
144,304,36496,1,0,0:0:0:0:
321,262,36671,1,8,0:0:0:0:
140,292,37020,1,0,0:0:0:0:
392,288,37368,1,8,0:0:0:0:
212,304,37543,1,0,0:0:0:0:
322,280,38066,1,8,0:0:0:0:
127,301,38415,1,0,0:0:0:0:
372,308,38764,1,8,0:0:0:0:
156,312,38938,1,0,0:0:0:0:
312,240,39287,1,8,0:0:0:0:
342,271,39462,1,8,0:0:0:0:
127,301,39810,1,0,0:0:0:0:
331,277,40159,1,8,0:0:0:0:
54,300,40508,1,0,0:0:0:0:
111,292,40682,1,0,0:0:0:0:
328,273,40857,1,8,0:0:0:0:
127,294,41206,1,0,0:0:0:0:
382,271,41554,1,8,0:0:0:0:
112,278,41729,1,0,0:0:0:0:
112,278,42078,1,0,0:0:0:0:
370,264,42252,1,8,0:0:0:0:
126,286,42601,1,0,0:0:0:0:
334,278,42950,1,8,0:0:0:0:
376,267,43124,1,8,0:0:0:0:
150,295,43299,1,0,0:0:0:0:
134,309,43473,1,0,0:0:0:0:
341,279,43647,1,8,0:0:0:0:
149,317,43996,1,0,0:0:0:0:
376,292,44345,1,8,0:0:0:0:
397,285,44694,1,8,0:0:0:0:
397,285,44868,1,8,0:0:0:0:
397,285,45043,1,8,0:0:0:0:
397,285,45130,1,8,0:0:0:0:
397,285,45217,1,8,0:0:0:0:
222,311,45392,1,0,0:0:0:0:
362,273,45741,1,8,0:0:0:0:
212,332,46264,1,0,0:0:0:0:
386,260,46438,1,8,0:0:0:0:
389,256,46613,1,8,0:0:0:0:
164,301,46787,1,0,0:0:0:0:
363,279,47136,1,8,0:0:0:0:
164,301,47310,1,0,0:0:0:0:
388,276,47659,1,8,0:0:0:0:
350,247,47834,1,8,0:0:0:0:
116,300,48182,1,0,0:0:0:0:
172,300,48357,1,0,0:0:0:0:
140,288,48706,1,0,0:0:0:0:
160,292,49054,1,0,0:0:0:0:
300,280,49229,1,8,0:0:0:0:
172,315,49578,1,0,0:0:0:0:
296,280,49927,1,8,0:0:0:0:
208,292,50101,1,0,0:0:0:0:
140,308,50450,1,0,0:0:0:0:
328,268,50624,1,8,0:0:0:0:
344,272,50799,1,8,0:0:0:0:
152,296,50973,1,0,0:0:0:0:
384,272,51322,1,8,0:0:0:0:
148,328,51845,1,0,0:0:0:0:
96,304,52020,1,0,0:0:0:0:
396,284,52194,1,8,0:0:0:0:
108,304,52368,1,0,0:0:0:0:
360,292,52717,1,8,0:0:0:0:
368,280,52892,1,8,0:0:0:0:
232,304,53241,1,0,0:0:0:0:
358,275,53415,1,8,0:0:0:0:
147,321,53764,1,0,0:0:0:0:
363,278,54113,1,8,0:0:0:0:
112,304,54636,1,0,0:0:0:0:
140,312,54810,1,0,0:0:0:0:
372,288,54985,1,8,0:0:0:0:
180,128,55159,1,4,0:0:0:0:
128,136,55508,1,4,0:0:0:0:
80,272,55857,1,0,0:0:0:0:
80,272,55944,1,0,0:0:0:0:
320,272,56031,1,0,0:0:0:0:
108,280,56206,1,8,0:0:0:0:
336,272,56293,1,8,0:0:0:0:
336,272,56380,1,8,0:0:0:0:
156,296,56554,1,0,0:0:0:0:
120,304,57252,1,0,0:0:0:0:
364,280,57601,1,8,0:0:0:0:
120,320,57950,1,0,0:0:0:0:
88,296,58647,1,0,0:0:0:0:
88,296,58822,1,0,0:0:0:0:
352,288,58996,1,8,0:0:0:0:
116,120,59345,1,4,0:0:0:0:
104,296,60043,1,0,0:0:0:0:
324,268,60392,1,8,0:0:0:0:
88,292,60741,1,0,0:0:0:0:
324,268,61438,1,8,0:0:0:0:
168,292,61613,1,0,0:0:0:0:
312,264,61787,1,8,0:0:0:0:
312,264,61874,1,8,0:0:0:0:
304,296,61961,1,8,0:0:0:0:
112,288,62136,1,0,0:0:0:0:
328,284,62485,1,8,0:0:0:0:
340,272,63182,1,8,0:0:0:0:
140,284,63531,1,0,0:0:0:0:
340,276,63880,1,8,0:0:0:0:
100,304,64403,1,0,0:0:0:0:
288,288,64578,1,8,0:0:0:0:
72,280,64927,1,0,0:0:0:0:
376,276,65275,1,8,0:0:0:0:
372,256,65973,1,8,0:0:0:0:
348,160,66322,1,12,0:0:0:0:
364,144,66671,1,12,0:0:0:0:
404,304,67020,1,8,0:0:0:0:
404,304,67194,1,8,0:0:0:0:
404,304,67368,1,8,0:0:0:0:
404,304,67456,1,8,0:0:0:0:
404,304,67543,1,8,0:0:0:0:
196,312,67717,1,0,0:0:0:0:
