osu file format v14

[General]
AudioFilename: 26 Splatfest - Multiplayer VS Theme_01.mp3
AudioLeadIn: 0
PreviewTime: 11903
Countdown: 0
SampleSet: Normal
StackLeniency: 0.7
Mode: 1
LetterboxInBreaks: 0
WidescreenStoryboard: 0

[Editor]
Bookmarks: 34229
DistanceSpacing: 1.5
BeatDivisor: 6
GridSize: 4
TimelineZoom: 1.1

[Metadata]
Title:Ink Me Up
TitleUnicode:キミ色に染めて
Artist:Shiokara-zu
ArtistUnicode:シオカラーズ
Creator:OzzyOzrock
Version:Kantan
Source:Splatoon
Tags:スプラトゥーン splat squid sisters inkling nintendo 藤井志帆 fujii shiho kimi iro ni somete
BeatmapID:807616
BeatmapSetID:368343

[Difficulty]
HPDrainRate:8
CircleSize:5
OverallDifficulty:4
ApproachRate:6
SliderMultiplier:1.4
SliderTickRate:1

[Events]
//Background and Video events
0,0,"splatfeststretchedoutlol.jpg",0,60
//Break Periods
//Storyboard Layer 0 (Background)
//Storyboard Layer 1 (Fail)
//Storyboard Layer 2 (Pass)
//Storyboard Layer 3 (Foreground)
//Storyboard Sound Samples

[TimingPoints]
741,348.837209302326,4,1,0,80,1,0
45392,-100,4,1,0,80,0,1
56554,-100,4,1,0,80,0,0

[HitObjects]
396,268,44,5,8,0:0:0:0:
160,240,741,1,0,0:0:0:0:
156,260,1439,1,0,0:0:0:0:
156,268,2137,1,0,0:0:0:0:
352,268,3532,1,8,0:0:0:0:
320,284,4230,1,8,0:0:0:0:
336,280,4927,1,8,0:0:0:0:
360,304,5624,1,8,0:0:0:0:
144,304,6323,1,0,0:0:0:0:
164,300,7020,1,0,0:0:0:0:
76,304,7718,1,0,0:0:0:0:
412,332,9113,1,8,0:0:0:0:
364,300,9811,1,8,0:0:0:0:
412,292,10509,1,8,0:0:0:0:
412,292,11206,1,8,0:0:0:0:
412,292,11554,1,8,0:0:0:0:
172,280,11904,1,0,0:0:0:0:
144,288,13299,1,0,0:0:0:0:
372,284,13996,1,8,0:0:0:0:
116,284,14695,1,0,0:0:0:0:
136,296,16090,1,0,0:0:0:0:
140,296,16438,1,0,0:0:0:0:
144,292,16788,1,0,0:0:0:0:
132,280,17485,1,0,0:0:0:0:
144,288,18880,1,0,0:0:0:0:
372,284,19578,1,8,0:0:0:0:
116,284,20276,1,0,0:0:0:0:
380,284,21671,1,8,0:0:0:0:
368,268,22020,1,8,0:0:0:0:
396,288,22368,1,8,0:0:0:0:
144,256,23066,1,0,0:0:0:0:
145,318,24461,1,0,0:0:0:0:
408,277,25159,1,8,0:0:0:0:
188,343,25857,1,0,0:0:0:0:
385,276,26206,1,8,0:0:0:0:
151,304,27252,1,0,0:0:0:0:
396,292,27950,1,8,0:0:0:0:
102,279,28647,1,0,0:0:0:0:
320,104,29694,1,12,0:0:0:0:
375,97,31089,1,12,0:0:0:0:
356,84,32485,1,12,0:0:0:0:
256,192,32834,12,0,33880,0:0:0:0:
51,275,34229,5,0,0:0:0:0:
214,276,34927,1,0,0:0:0:0:
122,288,35624,1,0,0:0:0:0:
140,292,37020,1,0,0:0:0:0:
322,280,37368,1,8,0:0:0:0:
212,304,37717,1,0,0:0:0:0:
127,301,38415,1,0,0:0:0:0:
400,296,39810,1,8,0:0:0:0:
327,295,40508,1,8,0:0:0:0:
400,289,41206,1,8,0:0:0:0:
126,286,42601,1,0,0:0:0:0:
334,278,42950,1,8,0:0:0:0:
150,295,43299,1,0,0:0:0:0:
397,285,43996,1,8,0:0:0:0:
428,296,45043,1,8,0:0:0:0:
222,311,45392,1,0,0:0:0:0:
212,332,46089,1,0,0:0:0:0:
372,272,46787,1,8,0:0:0:0:
350,247,47485,1,8,0:0:0:0:
116,300,48182,1,0,0:0:0:0:
300,280,48531,1,8,0:0:0:0:
160,292,48880,1,0,0:0:0:0:
172,315,49578,1,0,0:0:0:0:
148,312,50973,1,0,0:0:0:0:
380,312,51671,1,8,0:0:0:0:
348,308,52368,1,8,0:0:0:0:
108,304,52717,1,0,0:0:0:0:
384,296,53066,1,8,0:0:0:0:
363,278,53764,1,0,0:0:0:0:
352,272,54461,1,8,0:0:0:0:
180,128,55159,1,4,0:0:0:0:
368,284,55857,1,8,0:0:0:0:
352,288,56206,1,8,0:0:0:0:
156,296,56554,1,0,0:0:0:0:
120,320,57950,1,0,0:0:0:0:
88,296,58647,1,0,0:0:0:0:
116,120,59345,1,4,0:0:0:0:
88,292,60741,1,0,0:0:0:0:
324,268,61438,1,8,0:0:0:0:
312,264,61787,1,8,0:0:0:0:
112,288,62136,1,0,0:0:0:0:
340,272,63182,1,8,0:0:0:0:
324,248,63880,1,8,0:0:0:0:
288,288,64578,1,8,0:0:0:0:
308,284,64927,1,0,0:0:0:0:
408,280,65973,1,8,0:0:0:0:
348,160,66322,1,12,0:0:0:0:
404,304,67020,1,8,0:0:0:0:
380,304,67368,1,8,0:0:0:0:
196,312,67717,1,0,0:0:0:0:
