osu file format v14

[General]
AudioFilename: wheeeeeeeeeeeee.mp3
AudioLeadIn: 0
PreviewTime: 66422
Countdown: 0
SampleSet: Soft
StackLeniency: 0.2
Mode: 0
LetterboxInBreaks: 0
WidescreenStoryboard: 1

[Editor]
DistanceSpacing: 1.1
BeatDivisor: 4
GridSize: 4
TimelineZoom: 1.2

[Metadata]
Title:White Lovers
TitleUnicode:White Lovers
Artist:Shintani Sanae
ArtistUnicode:新谷さなえ
Creator:-Hanashi-
Version:HYPER
Source:ポップンミュージック 7
Tags:dance revolution extreme pop'n music winter pop sanae-chan BEMANI KONAMI
BeatmapID:713161
BeatmapSetID:318174

[Difficulty]
HPDrainRate:5
CircleSize:4
OverallDifficulty:5
ApproachRate:6
SliderMultiplier:1.6
SliderTickRate:1

[Events]
//Background and Video events
0,0,"white christmas.jpg",0,0
//Break Periods
//Storyboard Layer 0 (Background)
//Storyboard Layer 1 (Fail)
//Storyboard Layer 2 (Pass)
//Storyboard Layer 3 (Foreground)
//Storyboard Sound Samples

[TimingPoints]
1383,476.190476190476,4,2,0,100,1,0
1622,476.190476190476,4,2,0,100,1,0
5431,483.870967741935,4,2,0,100,1,0
7336,483.870967741935,4,2,0,100,1,0
9271,483.870967741935,4,2,0,100,1,0
10238,476.190476190476,4,2,0,100,1,0
11417,483.870967741935,4,2,0,100,1,0
15047,476.190476190476,4,2,0,100,1,0
16951,476.190476190476,4,2,0,100,1,0
17427,-86.9565217391304,4,2,0,100,0,0
20284,480,4,2,0,100,1,0
24604,483.870967741935,4,2,0,100,1,0
26055,476.190476190476,4,2,0,100,1,0
30340,483.870967741935,4,2,0,100,1,0
30823,-100,4,2,0,100,0,0
32250,483.870967741935,4,2,0,100,1,0
36121,476.190476190476,4,2,0,100,1,0
39930,480,4,2,0,100,1,0
43740,483.870967741935,4,2,0,100,1,0
47610,480,4,2,0,100,1,0
51480,468.75,4,2,0,100,1,0
53384,476.190476190476,4,2,0,100,1,0
55319,468.75,4,2,0,100,1,0
59069,483.870967741935,4,2,0,100,1,0
62939,480,4,2,0,100,1,0
66779,472.44094488189,4,2,0,100,1,0
70588,476.190476190476,4,2,0,100,1,0
74397,480,4,2,0,100,1,0
80157,461.538461538462,4,2,0,100,1,0
82049,480,4,2,0,100,1,0
97410,476.190476190476,4,2,0,100,1,0

[HitObjects]
84,104,1383,5,0,0:0:0:0:
84,104,1502,1,0,0:0:0:0:
84,104,1621,2,0,B|196:114|196:114|249:77,1,150,4|0,0:0|0:0,0:0:0:0:
296,40,2336,1,0,0:0:0:0:
364,96,2574,2,0,B|348:140|368:204|368:204|327:231,1,160
240,256,3288,5,0,0:0:0:0:
240,256,3407,1,0,0:0:0:0:
240,256,3526,2,0,L|72:248,1,160
20,84,4479,2,0,B|136:92|136:92|180:72,1,160
244,16,5193,1,0,0:0:0:0:
304,76,5431,6,0,B|297:192|297:192|312:182|360:196,1,160,4|0,0:0|0:0,0:0:0:0:
424,214,6156,2,0,L|456:250,2,40
420,44,7124,1,0,0:0:0:0:
420,44,7245,1,0,0:0:0:0:
420,44,7336,6,4,P|344:68|259:43,1,160,4|0,0:0|0:0,0:0:0:0:
160,184,8303,2,0,B|112:204|64:192|64:192|83:218|69:266,1,160
240,304,9271,6,0,L|324:317,1,80,4|0,0:0|0:0,0:0:0:0:
406,320,9754,1,0,0:0:0:0:
444,241,9996,1,0,0:0:0:0:
393,167,10238,2,0,B|417:131|381:71|381:71|343:75|328:102,1,160
266,156,10952,2,0,P|226:161|179:154,1,80,0|4,0:0|0:0,0:0:0:0:
47,46,12142,5,0,0:0:0:0:
95,215,12626,1,0,0:0:0:0:
256,192,13110,12,4,16951,0:0:0:0:
232,144,17427,6,0,L|328:156,1,92.0000017547608
399,103,17903,1,0,0:0:0:0:
461,170,18141,1,0,0:0:0:0:
388,226,18379,2,0,B|409:276|392:334,1,92.0000017547608
304,317,18855,5,0,0:0:0:0:
304,317,18974,1,0,0:0:0:0:
304,317,19093,2,0,L|234:303,2,46.0000008773804
396,316,19570,1,0,0:0:0:0:
329,252,19808,6,0,L|220:230,1,92.0000017547608
167,199,20284,2,0,B|180:153|157:96|157:96,1,80
147,41,20764,5,0,0:0:0:0:
147,41,20884,1,0,0:0:0:0:
147,41,21004,2,0,L|201:7,2,40
68,58,21484,1,0,0:0:0:0:
74,140,21724,6,0,P|32:144|-26:140,1,80
18,218,22204,2,0,P|60:214|119:221,1,80
177,225,22684,5,0,0:0:0:0:
280,102,23164,1,0,0:0:0:0:
339,250,23644,1,0,0:0:0:0:
177,225,24124,1,0,0:0:0:0:
107,185,24364,1,0,0:0:0:0:
119,106,24604,5,4,0:0:0:0:
119,106,24724,1,0,0:0:0:0:
119,106,24845,2,0,L|89:49,2,40
107,185,25329,1,0,0:0:0:0:
177,225,25571,6,0,P|221:231|272:221,1,80
331,194,26055,1,0,0:0:0:0:
369,123,26293,1,0,0:0:0:0:
289,125,26531,5,0,0:0:0:0:
289,125,26650,1,0,0:0:0:0:
289,125,26769,2,0,P|257:109|221:101,2,40
369,123,27245,1,0,0:0:0:0:
431,73,27483,6,0,L|519:75,1,80
472,4,27959,2,0,L|381:2,1,80
322,41,28435,5,4,0:0:0:0:
322,41,28555,1,0,0:0:0:0:
322,41,28674,2,0,L|312:96,2,40
245,16,29150,1,0,0:0:0:0:
170,46,29388,6,0,P|129:41|75:50,1,80,4|0,0:0|0:0,0:0:0:0:
126,117,29864,2,0,P|167:122|221:113,1,80
282,103,30340,5,4,0:0:0:0:
427,36,30823,1,0,0:0:0:0:
429,212,31307,1,0,0:0:0:0:
427,36,31791,1,0,0:0:0:0:
353,85,32033,1,0,0:0:0:0:
278,41,32250,6,0,P|226:35|173:48,1,80,4|0,0:0|0:0,0:0:0:0:
121,81,32733,1,0,0:0:0:0:
42,41,32975,2,0,B|18:92|52:142|52:142|21:170|30:193,1,160
93,246,33701,2,0,P|159:239|191:249,1,80
258,256,34185,5,0,0:0:0:0:
340,287,34427,1,0,0:0:0:0:
423,258,34669,1,0,0:0:0:0:
493,204,34911,2,0,B|439:153|376:189|376:189|349:138,1,160
286,113,35637,6,0,P|277:72|288:23,1,80
193,33,36121,2,0,P|115:42|30:24,1,160
67,125,36835,2,0,P|145:116|230:134,1,160
311,118,37549,1,0,0:0:0:0:
388,75,37787,1,0,0:0:0:0:
452,134,38025,6,0,P|444:168|449:218,2,80
388,75,38740,2,0,B|342:106|342:107|216:84,1,160
