osu file format v14

[General]
AudioFilename: Shintani Ryouko - Shujinkou.mp3
AudioLeadIn: 0
PreviewTime: 47239
Countdown: 1
SampleSet: Normal
StackLeniency: 0.7
Mode: 0
LetterboxInBreaks: 1
WidescreenStoryboard: 1

[Editor]
Bookmarks: -11,4489,11989,35989,47239,71989,74989,98989,110989,134801,146989,170989,197239
DistanceSpacing: 1.3
BeatDivisor: 2
GridSize: 8
TimelineZoom: 0.5

[Metadata]
Title:Shujinkou
TitleUnicode:Shujinkou
Artist:Shintani Ryouko
ArtistUnicode:Shintani Ryouko
Creator:Hammish
Version:Easy
Source:Sayonara Zetsubou Sensei
Tags:Goodbye Mr Despair Hito Nami Character Song
BeatmapID:725537
BeatmapSetID:326590

[Difficulty]
HPDrainRate:2
CircleSize:2
OverallDifficulty:2
ApproachRate:4
SliderMultiplier:0.700000005960464
SliderTickRate:1

[Events]
//Background and Video events
0,0,"nami_hito_vector_by_paksiwirongbuang.png",0,0
//Break Periods
2,71697,73740
//Storyboard Layer 0 (Background)
//Storyboard Layer 1 (Fail)
//Storyboard Layer 2 (Pass)
//Storyboard Layer 3 (Foreground)
//Storyboard Sound Samples

[TimingPoints]
60,375,4,1,1,100,1,0
111060,-100,4,1,1,100,0,1
122685,-100,4,1,1,100,0,0

[HitObjects]
96,48,6060,5,0,1:1:0:0:
104,232,6810,1,0,1:1:0:0:
264,320,7560,1,8,1:1:0:0:
336,264,7935,2,0,L|384:200,1,70.0000005960464,0|8,1:1|1:1,1:1:0:0:
384,120,8685,2,0,L|340:65,1,70.0000005960464,0|8,1:1|1:1,1:1:0:0:
160,64,9810,1,0,1:1:0:0:
24,184,10560,2,0,L|88:264,1,70.0000005960464,8|0,1:1|1:1,1:1:0:0:
136,296,11310,2,0,L|195:217,1,70.0000005960464,8|8,1:1|1:1,1:1:0:0:
256,192,12060,6,0,L|256:122,1,70.0000005960464,8|0,1:1|1:1,1:1:0:0:
80,88,13185,1,0,1:1:0:0:
248,24,13935,1,0,1:1:0:0:
448,152,14685,1,0,1:1:0:0:
376,208,15060,6,0,L|376:278,1,70.0000005960464,0|0,1:1|1:1,1:1:0:0:
200,336,16185,1,0,1:1:0:0:
56,224,16935,1,0,1:1:0:0:
160,72,17685,1,0,1:1:0:0:
240,120,18060,6,0,L|328:120,1,70.0000005960464,0|0,1:1|1:1,1:1:0:0:
440,248,19185,1,0,1:1:0:0:
280,328,19935,1,0,1:1:0:0:
288,144,20685,1,0,1:1:0:0:
200,136,21060,2,0,P|132:135|90:189,1,140.000001192093,8|8,1:1|1:1,1:1:0:0:
216,240,22372,6,0,P|283:239|325:186,1,140.000001192093,8|8,1:1|1:1,1:1:0:0:
464,24,24060,6,0,L|352:48,1,70.0000005960464,0|0,1:1|1:1,1:1:0:0:
152,96,25185,1,0,1:1:0:0:
208,272,25935,1,0,1:1:0:0:
384,224,26685,1,0,1:1:0:0:
368,136,27060,6,0,L|352:64,1,70.0000005960464,0|0,1:1|1:1,1:1:0:0:
176,40,28185,1,0,1:1:0:0:
208,128,28560,1,0,1:1:0:0:
296,152,28935,1,0,1:1:0:0:
344,224,29310,6,0,L|414:224,2,70.0000005960464,8|0|8,1:1|1:1|1:1,1:1:0:0:
256,224,30435,1,12,1:1:0:0:
168,224,30810,2,0,L|72:224,2,70.0000005960464,8|0|8,1:1|1:1|1:1,1:1:0:0:
256,224,31935,1,12,1:1:0:0:
208,144,32310,6,0,L|128:56,1,70.0000005960464,0|0,1:1|1:1,1:1:0:0:
232,32,33060,2,0,L|360:32,1,70.0000005960464,4|0,1:1|1:1,1:1:0:0:
312,120,33810,2,0,P|408:136|440:224,2,175.000001490116,4|0|4,1:1|1:1|1:1,1:1:0:0:
344,208,36060,6,0,B|291:290|218:216|161:295,1,210.000001788139,0|4,1:1|1:1,1:1:0:0:
88,248,37560,2,0,B|153:176|66:119|147:38,1,210.000001788139,0|4,1:1|1:1,1:1:0:0:
216,96,39060,6,0,P|240:184|368:184,1,210.000001788139,0|4,1:1|1:1,1:1:0:0:
440,192,40560,2,0,P|364:85|304:128,1,210.000001788139,0|4,1:1|1:1,1:1:0:0:
256,32,42060,6,0,L|128:32,1,70.0000005960464,0|0,1:1|1:1,1:1:0:0:
96,32,42810,2,0,L|28:104,1,70.0000005960464,0|2,1:1|1:1,1:1:0:0:
48,176,43560,2,4,L|144:176,2,70.0000005960464,4|2|6,1:1|1:1|1:1,1:1:0:0:
176,48,45060,6,0,B|268:48|268:48|268:144|268:144|384:144,1,280.000002384186,0|0,1:1|1:1,1:1:0:0:
448,144,47122,1,14,1:1:0:0:
176,192,48060,5,0,1:1:0:0:
264,192,48435,1,0,1:1:0:0:
352,192,48810,1,0,1:1:0:0:
120,40,49935,1,0,1:1:0:0:
344,192,51060,5,0,1:1:0:0:
256,192,51435,1,0,1:1:0:0:
168,192,51810,1,0,1:1:0:0:
416,304,52935,1,0,1:1:0:0:
168,192,54060,5,0,1:1:0:0:
256,192,54435,1,0,1:1:0:0:
344,192,54810,1,0,1:1:0:0:
136,16,55935,1,0,1:1:0:0:
56,304,57060,6,0,P|108:351|184:344,1,140.000001192093,0|0,1:1|1:1,1:1:0:0:
136,264,58185,1,0,1:1:0:0:
224,264,58560,1,0,1:1:0:0:
224,120,59122,1,0,1:1:0:0:
448,168,60060,6,0,L|448:248,1,70.0000005960464,0|0,1:1|1:1,1:1:0:0:
448,328,60810,2,0,B|360:312|344:248|360:136,1,210.000001788139,0|0,1:1|1:1,1:1:0:0:
352,72,62310,2,0,L|264:72,1,70.0000005960464,0|0,1:1|1:1,1:1:0:0:
248,184,63060,6,0,L|176:184,1,70.0000005960464,0|0,1:1|1:1,1:1:0:0:
192,272,63810,2,0,P|96:216|128:112,1,210.000001788139,0|0,1:1|1:1,1:1:0:0:
184,184,65310,2,0,L|264:136,1,70.0000005960464,0|0,1:1|1:1,1:1:0:0:
336,144,66060,6,0,L|336:214,1,70.0000005960464,0|0,1:1|1:1,1:1:0:0:
424,232,66810,2,0,P|336:304|256:256,1,210.000001788139,0|0,1:1|1:1,1:1:0:0:
336,216,68310,1,0,1:1:0:0:
256,192,69060,12,0,71497,1:1:0:0:
448,48,75060,6,0,L|380:115,1,70.0000005960464,0|0,1:1|1:1,1:1:0:0:
352,176,75810,6,0,L|408:232,1,70.0000005960464,0|0,1:1|1:1,1:1:0:0:
392,320,76560,2,0,L|256:320,1,70.0000005960464,0|0,1:1|1:1,1:1:0:0:
232,320,77310,2,0,L|120:320,1,70.0000005960464,0|0,1:1|1:1,1:1:0:0:
104,248,78060,6,0,L|183:168,1,70.0000005960464,0|0,1:1|1:1,1:1:0:0:
96,128,78810,2,0,L|0:31,1,70.0000005960464,0|0,1:1|1:1,1:1:0:0:
128,32,79560,1,0,1:1:0:0:
216,32,79935,1,0,1:1:0:0:
304,32,80310,1,0,1:1:0:0:
304,120,80685,1,0,1:1:0:0:
216,120,81060,6,0,L|176:192,1,70.0000005960464,0|0,1:1|1:1,1:1:0:0:
104,232,81810,2,0,L|128:304,1,70.0000005960464,0|0,1:1|1:1,1:1:0:0:
216,304,82560,1,0,1:1:0:0:
304,304,82935,1,0,1:1:0:0:
392,304,83310,2,0,P|429:266|459:236,1,70.0000005960464,0|0,1:1|1:1,1:1:0:0:
496,184,84060,6,0,B|480:168|480:168|440:120|496:56|496:56|496:40,1,140.000001192093,0|0,1:1|1:1,1:1:0:0:
408,24,85185,1,0,1:1:0:0:
320,32,85560,2,0,B|312:48|312:48|224:184|440:200|320:320|320:320|320:336,1,280.000002384186,0|0,1:1|1:1,1:1:0:0:
440,280,87435,5,0,1:1:0:0:
440,192,87810,1,0,1:1:0:0:
280,280,88560,1,0,1:1:0:0:
280,192,88935,1,0,1:1:0:0:
280,104,89310,1,0,1:1:0:0:
96,104,90060,5,0,1:1:0:0:
96,192,90435,1,0,1:1:0:0:
96,280,90810,1,0,1:1:0:0:
280,280,91560,1,0,1:1:0:0:
280,192,91935,1,0,1:1:0:0:
280,104,92310,1,0,1:1:0:0:
464,96,93060,2,0,L|464:168,1,70.0000005960464,0|0,1:1|1:1,1:1:0:0:
448,256,93810,6,0,L|391:312,1,70.0000005960464,0|0,1:1|1:1,1:1:0:0:
304,304,94560,2,0,L|224:304,1,70.0000005960464,0|0,1:1|1:1,1:1:0:0:
144,304,95310,2,0,L|59:219,1,70.0000005960464,0|0,1:1|1:1,1:1:0:0:
256,192,96060,12,0,98310,1:1:0:0:
496,48,99060,6,0,L|256:48,1,210.000001788139,0|0,1:1|1:1,1:1:0:0:
248,132,100560,2,0,L|488:132,1,210.000001788139,0|0,1:1|1:1,1:1:0:0:
424,216,102060,6,0,L|196:216,1,210.000001788139,0|0,1:1|1:1,1:1:0:0:
180,300,103560,2,0,L|420:300,1,210.000001788139,0|0,1:1|1:1,1:1:0:0:
392,208,105060,5,0,1:1:0:0:
212,204,105810,1,0,1:1:0:0:
360,96,106560,2,0,B|336:40|288:16|224:40,1,140.000001192093,0|0,1:1|1:1,1:1:0:0:
64,40,108060,5,0,1:1:0:0:
208,144,108810,1,0,1:1:0:0:
344,216,109560,2,0,B|320:272|272:296|208:272,1,140.000001192093,0|0,1:1|1:1,1:1:0:0:
256,192,111060,6,0,B|256:104|256:104|256:80|272:64|296:64|296:64|432:64,1,280.000002384186,0|0,1:1|1:1,1:1:0:0:
416,160,112935,2,0,B|416:249|416:249|416:273|400:289|376:289|376:289|288:289,1,210.000001788139,0|0,1:1|1:1,1:1:0:0:
320,192,114435,6,0,B|232:192|232:192|208:192|192:176|192:152|192:152|192:32,1,210.000001788139,0|0,1:1|1:1,1:1:0:0:
280,96,115935,1,0,1:1:0:0:
368,96,116310,1,0,1:1:0:0:
424,168,116685,6,0,B|424:257|424:257|424:281|408:297|384:297|384:297|296:297,1,210.000001788139,0|0,1:1|1:1,1:1:0:0:
64,288,118560,1,0,1:1:0:0:
88,200,118935,1,0,1:1:0:0:
176,168,119310,1,0,1:1:0:0:
320,280,120060,6,0,B|352:336|448:336|480:256,1,175.000001490116,0|0,1:1|1:1,1:1:0:0:
392,224,121560,2,0,B|368:200|368:200|408:184|408:184|392:144,1,105.00000089407,0|0,1:1|1:1,1:1:0:0:
64,96,123060,6,0,L|168:96,1,70.0000005960464,0|0,1:1|1:1,1:1:0:0:
224,96,123810,1,0,1:1:0:0:
0,240,124935,2,0,L|70:240,1,70.0000005960464,0|0,1:1|1:1,1:1:0:0:
160,240,125685,1,0,1:1:0:0:
232,168,126060,6,0,L|176:112,1,70.0000005960464,0|0,1:1|1:1,1:1:0:0:
232,40,126810,1,0,1:1:0:0:
144,32,127185,6,0,L|72:112,1,70.0000005960464,0|0,1:1|1:1,1:1:0:0:
72,168,127935,1,0,1:1:0:0:
132,228,128310,1,0,1:1:0:0:
200,296,128685,1,0,1:1:0:0:
324,286,129060,6,0,L|272:240,1,70.0000005960464,0|0,1:1|1:1,1:1:0:0:
200,184,129810,1,0,1:1:0:0:
64,160,130372,2,0,L|144:64,1,105.00000089407,0|0,1:1|1:1,1:1:0:0:
224,80,131310,1,0,1:1:0:0:
320,80,131685,1,0,1:1:0:0:
256,192,132060,12,0,134497,1:1:0:0:
