osu file format v12

[General]
AudioFilename: tubesnips.mp3
AudioLeadIn: 1500
PreviewTime: 66204
Countdown: 0
SampleSet: Normal
StackLeniency: 0.7
Mode: 0
LetterboxInBreaks: 1

[Editor]
DistanceSpacing: 1.2
BeatDivisor: 4
GridSize: 4

[Metadata]
Title:Chained Diary
TitleUnicode:Chained Diary
Artist:Shintani Ryouko
ArtistUnicode:新谷良子
Creator:Disoy
Version:Spinboxer
Source:
Tags:Pretty Good! Bungaku Shoujo spboxer3 l1106188 loneight
BeatmapID:134399
BeatmapSetID:31821

[Difficulty]
HPDrainRate:5
CircleSize:4
OverallDifficulty:6
ApproachRate:8
SliderMultiplier:1.4
SliderTickRate:1

[Events]
//Background and Video events
0,0,"BG2.jpg",0,0
Video,0,"video.avi"
//Break Periods
2,946,4359
2,5309,8722
2,103481,108280
2,127206,146164
//Storyboard Layer 0 (Background)
//Storyboard Layer 1 (Fail)
//Storyboard Layer 2 (Pass)
//Storyboard Layer 3 (Foreground)
//Storyboard Sound Samples
//Background Colour Transformations
3,100,163,162,255

[TimingPoints]
746,272.702481592583,4,2,1,60,1,0
9472,-100,4,1,1,60,0,0
13153,-100,4,1,2,65,0,0
13290,-100,4,1,1,60,0,0
13426,-100,4,1,1,60,0,0
18198,-100,4,1,1,45,0,0
18471,-100,4,1,1,60,0,0
22562,-100,4,1,1,45,0,0
22834,-100,4,1,1,60,0,0
26925,-100,4,2,1,60,0,0
28016,-100,4,2,2,80,0,0
28152,-100,4,2,1,60,0,0
28288,-100,4,2,2,80,0,0
28561,-100,4,2,1,60,0,0
28698,-100,4,2,1,60,0,0
29107,-100,4,2,2,80,0,0
29243,-100,4,2,1,60,0,0
30197,-100,4,2,2,80,0,0
30334,-100,4,2,1,60,0,0
30470,-100,4,2,2,80,0,0
30743,-100,4,2,1,60,0,0
31288,-100,4,2,2,80,0,0
31425,-100,4,2,1,60,0,0
32379,-100,4,2,2,80,0,0
32515,-100,4,2,1,60,0,0
32652,-100,4,2,2,80,0,0
32924,-100,4,2,1,60,0,0
33470,-100,4,2,2,80,0,0
33606,-100,4,2,1,60,0,0
34561,-100,4,2,2,80,0,0
34697,-100,4,2,1,60,0,0
34833,-100,4,2,2,80,0,0
34970,-100,4,2,1,60,0,0
35379,-100,4,1,1,50,0,0
35651,-100,4,2,2,80,0,0
35788,-100,4,2,1,60,0,0
36742,-100,4,2,2,80,0,0
36879,-100,4,2,1,60,0,0
37015,-100,4,2,2,80,0,0
37151,-100,4,2,1,60,0,0
37833,-100,4,2,2,80,0,0
37969,-100,4,2,1,60,0,0
38924,-100,4,2,2,80,0,0
39469,-100,4,2,1,60,0,0
39742,-100,4,1,1,50,0,0
39878,-100,4,2,1,60,0,0
40015,-100,4,2,2,80,0,0
40151,-100,4,2,1,60,0,0
40287,-100,4,2,2,80,0,0
40424,-100,4,2,1,60,0,0
40560,-100,4,2,1,60,0,0
41105,-100,4,2,2,80,0,0
41242,-100,4,2,1,60,0,0
41378,-100,4,2,2,80,0,0
41651,-100,4,2,1,60,0,0
42196,-100,4,2,2,80,0,0
42333,-100,4,2,1,60,0,0
42469,-100,4,2,2,80,0,0
42605,-100,4,2,1,60,0,0
43287,-100,4,1,1,60,0,0
44378,-100,4,2,1,60,0,0
45196,-100,4,1,2,80,0,0
45332,-100,4,2,1,60,0,0
45741,-100,4,2,2,80,0,0
46014,-100,4,1,1,60,0,0
46423,-100,4,1,2,60,0,0
46832,-100,4,2,1,60,0,0
47105,-100,4,1,1,60,0,0
47378,-100,4,1,2,80,0,0
47514,-100,4,1,1,60,0,0
47787,-100,4,1,2,60,0,0
48196,-100,4,1,1,60,0,0
48468,-100,4,1,2,80,0,0
48741,-100,4,1,1,60,0,0
52014,-100,4,2,2,80,0,0
52150,-100,4,1,2,70,0,0
52286,-100,4,1,2,80,0,0
52423,-100,4,1,2,70,0,0
52559,-100,4,1,1,60,0,0
52832,-100,4,1,2,80,0,0
53104,-100,4,2,2,80,0,0
53377,-100,4,1,2,70,0,0
53650,-100,4,1,1,60,0,0
53922,-100,4,1,2,80,0,0
54332,-100,4,1,2,70,0,0
54741,-100,4,1,1,60,0,0
55013,-100,4,1,2,70,0,0
55286,-100,4,1,2,80,0,0
55559,-100,4,2,1,60,0,0
55831,-100,4,1,1,60,0,0
56104,-100,4,1,2,70,0,0
56922,-100,4,1,1,60,0,0
57195,-100,4,2,2,80,0,0
57468,-100,4,1,1,60,0,0
60740,-100,4,2,2,80,0,0
61013,-100,4,1,1,50,0,0
64012,-100,4,1,1,60,0,0
66194,-100,4,1,1,60,0,1
66467,-100,4,1,1,70,0,1
74921,-100,4,1,1,70,0,1
81193,-100,4,1,2,70,0,1
83102,-100,4,1,1,70,0,1
83579,-100,4,1,1,50,0,0
83647,-100,4,1,1,50,0,1
83920,-100,4,1,1,60,0,1
92374,-100,4,1,1,60,0,1
101100,-100,4,1,1,60,0,0
103282,-100,4,1,2,60,0,0
109417,-100,4,2,1,50,0,0
109826,-100,4,1,1,40,0,0
110645,-100,4,2,2,80,0,0
110781,-100,4,2,1,60,0,0
110917,-100,4,2,2,80,0,0
111054,-100,4,2,1,60,0,0
111463,-100,4,2,1,60,0,0
112008,-100,4,2,2,80,0,0
112144,-100,4,2,1,60,0,0
112281,-100,4,2,2,80,0,0
112417,-100,4,2,1,60,0,0
112554,-100,4,2,1,60,0,0
112826,-100,4,2,2,80,0,0
112963,-100,4,2,1,60,0,0
113099,-100,4,2,2,80,0,0
113235,-100,4,2,1,60,0,0
113644,-100,4,2,1,60,0,0
114190,-100,4,2,2,80,0,0
114735,-100,4,2,1,60,0,0
115281,-100,4,2,2,80,0,0
115417,-100,4,2,1,60,0,0
115553,-100,4,2,2,80,0,0
115690,-100,4,2,1,60,0,0
115826,-100,4,2,1,60,0,0
116371,-100,4,2,2,80,0,0
116780,-100,4,2,1,60,0,0
117462,-100,4,2,2,80,0,0
117735,-100,4,2,1,60,0,0
118553,-100,4,1,1,60,0,0
118826,-100,4,2,1,60,0,0
120735,-100,4,1,1,60,0,0
121144,-100,4,2,1,60,0,0
122916,-100,4,2,2,80,0,0
123189,-100,4,2,1,60,0,0
126189,-100,4,2,1,30,0,0
151277,-100,4,2,1,90,0,0
151550,-100,4,1,1,60,0,0
167503,-100,4,1,2,80,0,0
167639,-100,4,1,1,60,0,0
168048,-100,4,1,2,80,0,0
168185,-100,4,1,1,60,0,0
168730,-100,4,1,1,70,0,1
177457,-100,4,2,1,70,0,1
177729,-100,4,1,1,70,0,1
178548,-100,4,2,1,70,0,1
178820,-100,4,1,1,70,0,1
181820,-100,4,1,1,80,0,1
186183,-100,4,1,1,50,0,0

[Colours]
Combo1 : 70,70,70
Combo2 : 192,192,192

[HitObjects]
256,192,746,1,4,0:0:0:0:
256,192,5109,5,4,0:0:0:0:
176,288,9472,6,0,B|120:288|120:288|72:272|64:208,1,140,4|0,0:0|0:0,0:0:0:0:
144,192,9881,1,0,0:0:0:0:
67,142,10017,2,0,B|71:97|119:81|119:81|175:81,1,140,8|0,0:0|0:0,0:0:0:0:
344,88,10563,6,0,B|432:88,2,70
280,144,10972,1,0,0:0:0:0:
344,200,11108,2,0,B|376:224|368:272,1,70,8|0,0:0|0:0,0:0:0:0:
288,264,11381,2,0,B|303:300|272:338,1,70,2|0,0:0|0:0,0:0:0:0:
200,296,11654,6,0,B|144:296|144:296|96:280|96:280|8:280,1,140,0|0,0:0|0:0,0:0:0:0:
32,200,12063,1,0,0:0:0:0:
104,152,12199,2,0,B|184:152,2,70,8|0|0,0:0|0:0|0:0,0:0:0:0:
64,80,12608,1,0,0:0:0:0:
136,32,12744,6,0,B|208:32|208:32|248:80|224:136,1,140,0|0,0:0|0:0,0:0:0:0:
256,176,13153,1,2,0:0:0:0:
320,120,13290,2,0,B|448:120,2,70,8|0|2,0:0|0:0|0:0,0:0:0:0:
344,200,13699,1,0,0:0:0:0:
368,280,13835,2,0,B|296:272|280:336|192:296,2,140,0|0|8,0:0|0:0|0:0,0:0:0:0:
224,192,14653,6,0,B|216:248|152:272,1,70
136,184,14926,2,0,B|304:288,2,140,0|0|8,0:0|0:0|0:0,0:0:0:0:
64,224,15608,1,0,0:0:0:0:
72,304,15744,2,0,B|80:344|144:352,1,70
208,344,16017,6,0,B|272:344|272:344|312:328|312:328|384:328,2,140,0|0|8,0:0|0:0|0:0,0:0:0:0:
200,256,16699,2,0,P|208:184|166:135,1,140
132,212,17108,2,0,B|204:212|284:124,2,140,0|0|8,0:0|0:0|0:0,0:0:0:0:
448,328,18198,6,0,B|392:328|392:328|336:304|328:224,1,140,4|0,0:0|0:0,0:0:0:0:
392,200,18608,1,0,0:0:0:0:
320,160,18744,2,0,B|321:123|265:99|265:99|209:99,1,140,8|0,0:0|0:0,0:0:0:0:
96,224,19289,6,0,B|40:288,2,70,0|0|8,0:0|0:0|0:0,0:0:0:0:
76,144,19698,1,0,0:0:0:0:
152,112,19835,2,0,B|200:56,1,70,8|0,0:0|0:0,0:0:0:0:
232,136,20107,2,0,B|301:111,1,70
320,192,20380,6,0,B|376:216|424:208|464:168,1,140
488,104,20789,1,0,0:0:0:0:
416,64,20925,2,0,B|376:64|344:72|344:72|360:120|400:136,1,140,8|0,0:0|0:0,0:0:0:0:
496,248,21471,5,0,0:0:0:0:
424,288,21607,2,0,B|352:336|248:312,1,140
312,240,22016,2,0,B|248:224|216:280|216:280|152:248,1,140,8|0,0:0|0:0,0:0:0:0:
168,104,22562,6,0,B|128:96|80:112|80:112|136:184,1,140,4|0,0:0|0:0,0:0:0:0:
160,220,22971,1,0,0:0:0:0:
208,288,23107,2,0,B|239:328|239:328|191:344|151:336,1,140,8|0,0:0|0:0,0:0:0:0:
72,304,23516,2,0,B|0:272|16:168,1,140
96,216,23925,2,0,B|112:176|168:176|168:176|264:176,1,140,0|8,0:0|0:0,0:0:0:0:
392,176,24471,1,0,0:0:0:0:
256,192,24743,12,8,26380,0:0:0:0:
176,232,26652,1,0,0:0:0:0:
176,232,26925,6,0,B|120:296,2,70,4|0|0,0:0|0:0|0:0,0:0:0:0:
224,160,27334,1,0,0:0:0:0:
152,128,27470,1,8,0:0:0:0:
72,120,27607,2,0,B|80:64|128:32|216:56,1,140
248,88,28016,2,0,B|320:56,2,70
336,248,28561,1,8,0:0:0:0:
416,280,28698,6,0,B|488:264,2,70
336,248,29107,2,0,B|248:216,3,70
328,168,29652,2,0,B|399:107,3,70,8|0|0|0,0:0|0:0|0:0|0:0,0:0:0:0:
440,64,30197,2,0,B|360:40,1,70
288,48,30470,2,0,B|232:48|232:48|184:56|184:56|120:56,1,140,0|8,0:0|0:0,0:0:0:0:
148,56,31288,5,0,0:0:0:0:
88,176,31425,1,0,0:0:0:0:
208,120,31561,1,0,0:0:0:0:
80,96,31697,1,0,0:0:0:0:
168,192,31834,2,0,B|216:216|208:272|296:304,1,140,8|0,0:0|0:0,0:0:0:0:
360,200,32243,5,0,0:0:0:0:
336,328,32379,1,0,0:0:0:0:
280,208,32515,1,0,0:0:0:0:
400,269,32652,1,0,0:0:0:0:
400,269,32924,6,0,B|482:269,2,70,8|0|0,0:0|0:0|0:0,0:0:0:0:
240,328,33470,2,0,B|202:329|168:304,1,70
200,232,33743,2,0,B|166:214|149:175,1,70
232,160,34015,2,0,B|212:128|216:85,1,70,8|0,0:0|0:0,0:0:0:0:
300,92,34288,2,0,B|304:127|284:158,1,70
359,181,34561,2,0,B|345:214|312:232,1,70
337,308,34833,2,0,B|309:329|272:328,1,70
188,328,35106,2,0,B|136:328|136:328|112:320|112:320|32:320,1,140,8|2,0:0|0:0,0:0:0:0:
160,192,35651,6,0,B|240:112,2,70
224,248,36060,1,0,0:0:0:0:
304,224,36197,2,0,B|360:176|456:208,1,140,8|0,0:0|0:0,0:0:0:0:
456,280,36606,1,0,0:0:0:0:
376,264,36742,6,0,B|352:144,1,70
280,80,37015,2,0,B|304:200,2,70,0|0|8,0:0|0:0|0:0,0:0:0:0:
200,56,37424,2,0,B|160:72|128:72|128:72|120:104|88:136,1,140
48,200,37833,6,0,B|40:256|88:288,1,70
144,240,38106,2,0,B|165:292|222:296,1,70
272,264,38378,2,0,B|392:264,2,70,8|0|0,0:0|0:0|0:0,0:0:0:0:
224,192,38787,1,0,0:0:0:0:
272,120,38924,2,0,B|344:120|344:120|376:160|448:160,1,140
272,48,39469,2,0,B|192:32,1,70,8|0,0:0|0:0,0:0:0:0:
136,88,39742,2,0,B|48:72,1,70,2|0,0:0|0:0,0:0:0:0:
88,160,40015,5,0,0:0:0:0:
136,232,40151,1,0,0:0:0:0:
56,200,40287,1,0,0:0:0:0:
136,232,40424,1,0,0:0:0:0:
216,248,40560,2,0,B|296:248|352:208,1,140,8|0,0:0|0:0,0:0:0:0:
400,144,40969,5,0,0:0:0:0:
408,64,41105,1,0,0:0:0:0:
400,144,41242,1,0,0:0:0:0:
440,216,41378,1,0,0:0:0:0:
312,328,41651,6,0,B|264:368|224:344|224:344|168:264,1,140,8|0,0:0|0:0,0:0:0:0:
120,160,42196,2,0,B|219:77,1,70
120,160,42469,2,0,B|184:48,1,70
120,160,42742,2,0,B|142:33,1,70,8|0,0:0|0:0,0:0:0:0:
120,160,43014,2,0,B|98:32,1,70
120,160,43287,6,0,B|112:160|112:160|120:152|120:152|112:152|112:152|112:144|112:144|104:152|104:152|104:144|104:144|96:144|96:144|104:136|104:136|96:136|96:136|96:128|96:128|88:136|88:136|88:128|88:128|80:128|80:128|88:120|88:120|80:120|80:120|80:112|80:112|72:120|72:120|72:112|72:112|64:112|64:112|72:104|72:104|64:104|64:104|64:96|64:96|56:104|56:104|56:96|56:96|48:96|48:96|56:88|56:88|48:88|48:88|48:80|48:80|40:88|40:88|40:80|40:80|32:80|32:80|40:72|40:72|32:72|32:72|32:64|32:64,1,280,0|8,0:0|0:0,0:0:0:0:
52,192,44378,6,0,B|196:256|284:120|476:200,1,420,4|4,0:0|0:0,0:0:0:0:
440,264,45332,2,0,B|328:312|224:256,1,210,0|0,0:0|0:0,0:0:0:0:
72,120,46014,2,0,B|184:72|288:128,1,210,8|2,0:0|0:0,0:0:0:0:
328,72,46560,2,0,B|384:128|360:240,1,140,4|0,0:0|0:0,0:0:0:0:
264,296,47105,6,0,B|176:320|112:256,1,140,8|4,0:0|0:0,0:0:0:0:
128,344,47514,2,0,B|151:256|88:192,1,140,0|2,0:0|0:0,0:0:0:0:
256,64,48196,2,0,B|256:208,1,140,8|4,0:0|0:0,0:0:0:0:
128,152,48741,6,0,B|200:144|256:104|256:104|312:144|400:152,1,280,4|8,0:0|0:0,0:0:0:0:
496,16,49559,1,0,0:0:0:0:
410,46,49696,2,0,B|354:150|435:240,1,210,4|0,0:0|0:0,0:0:0:0:
304,320,50377,2,0,B|280:320|280:320|216:336|216:336|128:336,1,140,8|0,0:0|0:0,0:0:0:0:
224,296,50786,2,0,B|56:296,1,140,4|0,0:0|0:0,0:0:0:0:
192,208,51332,1,0,0:0:0:0:
248,160,51468,2,0,B|307:159|307:159|360:168|392:224,1,140,8|0,0:0|0:0,0:0:0:0:
424,72,52014,6,0,B|336:56,1,70,0|4,0:0|0:0,0:0:0:0:
288,88,52286,2,0,B|208:88,1,70,0|2,0:0|0:0,0:0:0:0:
168,136,52559,2,0,B|112:120|112:120|88:168|16:176,1,140,8|0,0:0|0:0,0:0:0:0:
104,296,53104,6,0,B|152:352|280:336,1,140,0|4,0:0|0:0,0:0:0:0:
368,304,53650,1,8,0:0:0:0:
264,208,53922,2,0,B|232:88,1,70,2|4,0:0|0:0,0:0:0:0:
344,40,54332,6,0,B|376:160,1,70,2|4,0:0|0:0,0:0:0:0:
472,192,54741,2,0,B|392:192,1,70,8|0,0:0|0:0,0:0:0:0:
344,232,55013,2,0,B|168:232,1,140,4|0,0:0|0:0,0:0:0:0:
88,312,55559,6,0,B|152:360|152:360|256:360,2,140,4|8|2,0:0|0:0|0:0,0:0:0:0:
88,240,56240,2,0,B|88:176|88:176|104:152|104:152|104:112|104:112|120:64|168:48,1,210,4|2,0:0|0:0,0:0:0:0:
288,88,56922,2,0,B|432:128,2,140,8|0|0,0:0|0:0|0:0,0:0:0:0:
408,344,58013,6,0,B|248:344,1,140,4|0,0:0|0:0,0:0:0:0:
200,344,58422,2,0,B|144:376|104:320|104:320|104:176,1,210
240,240,59104,1,12,0:0:0:0:
192,112,59377,1,0,0:0:0:0:
328,136,59649,2,0,B|424:112|472:192|448:304,1,210
400,304,60195,2,0,B|296:304|296:304|264:328|264:328|256:328,1,140,12|0,0:0|0:0,0:0:0:0:
128,296,60740,5,0,0:0:0:0:
72,168,61013,1,2,0:0:0:0:
256,240,61285,5,8,0:0:0:0:
200,112,61558,1,0,0:0:0:0:
256,192,61831,12,8,64012,0:0:0:0:
248,192,66194,6,0,B|232:256|232:256|232:344,2,140,4|8|0,0:0|0:0|0:0,0:0:0:0:
392,104,67012,1,8,0:0:0:0:
304,104,67149,2,0,B|144:104,1,140
232,56,67558,2,0,B|144:56|144:56|120:80|120:80|72:80,1,140,8|0,0:0|0:0,0:0:0:0:
32,232,68103,1,8,0:0:0:0:
176,320,68376,6,0,B|216:344|272:320|272:320|304:240,2,140,0|8|0,0:0|0:0|0:0,0:0:0:0:
32,232,69194,2,0,B|112:232,1,70,8|0,0:0|0:0,0:0:0:0:
264,200,69603,2,0,B|184:200,1,70,0|8,0:0|0:0,0:0:0:0:
360,168,70012,5,0,0:0:0:0:
328,88,70148,1,0,0:0:0:0:
256,48,70285,1,8,0:0:0:0:
184,88,70421,1,0,0:0:0:0:
152,168,70557,6,0,B|152:264|152:264|120:304,2,140,0|8|0,0:0|0:0|0:0,0:0:0:0:
256,296,71375,2,0,B|256:376,1,70,8|0,0:0|0:0,0:0:0:0:
336,128,71921,2,0,B|368:88|432:80|480:120,2,140,8|0|8,0:0|0:0|0:0,0:0:0:0:
176,168,72739,6,0,B|121:167|121:167|72:152|64:80,2,140,0|8|0,0:0|0:0|0:0,0:0:0:0:
256,320,73557,2,0,B|168:320,2,70,8|0|0,0:0|0:0|0:0,0:0:0:0:
416,280,74102,1,8,0:0:0:0:
216,160,74375,1,0,0:0:0:0:
376,120,74648,1,8,0:0:0:0:
312,224,74921,5,0,0:0:0:0:
144,248,75193,2,0,B|48:248,1,70,0|0,0:0|0:0,0:0:0:0:
144,248,75466,2,0,B|80:168,1,70,8|0,0:0|0:0,0:0:0:0:
144,248,75739,2,0,B|144:80,1,140,0|0,0:0|0:0,0:0:0:0:
368,248,76284,6,0,B|464:248,1,70,0|0,0:0|0:0,0:0:0:0:
368,248,76557,2,0,B|432:168,1,70,8|0,0:0|0:0,0:0:0:0:
368,248,76829,2,0,B|368:80,1,140,0|0,0:0|0:0,0:0:0:0:
288,72,77239,1,0,0:0:0:0:
248,144,77375,1,0,0:0:0:0:
176,104,77511,1,0,0:0:0:0:
88,104,77648,6,0,B|40:104|16:184,1,70,8|0,0:0|0:0,0:0:0:0:
32,224,77920,2,0,B|38:261|86:261,1,70,0|0,0:0|0:0,0:0:0:0:
120,184,78193,2,0,B|176:184|176:184|216:216|216:216|304:216,1,140
328,184,78602,1,0,0:0:0:0:
312,264,78738,2,0,B|312:328|280:360|208:352,1,140,8|0,0:0|0:0,0:0:0:0:
256,192,79284,12,0,81193,0:0:0:0:
256,192,81465,12,8,83102,0:0:0:0:
256,192,83374,1,0,0:0:0:0:
256,192,83647,2,0,B|312:192|312:192|352:176|352:176|400:176,1,140,0|8,0:0|0:0,0:0:0:0:
232,120,84192,2,0,B|152:120,2,70,0|0|8,0:0|0:0|0:0,0:0:0:0:
280,280,84738,2,0,B|240:320|192:320|192:320|128:280,1,140,0|8,0:0|0:0,0:0:0:0:
80,336,85147,2,0,B|48:280|48:280|48:200,1,140
48,120,85556,1,8,0:0:0:0:
208,80,85829,6,0,B|280:80|280:80|336:128,2,140,0|8|0,0:0|0:0|0:0,0:0:0:0:
280,232,86647,2,0,B|328:312,1,70,8|0,0:0|0:0,0:0:0:0:
472,352,87056,2,0,B|432:288,1,70,0|8,0:0|0:0,0:0:0:0:
352,144,87465,1,0,0:0:0:0:
420,96,87601,1,0,0:0:0:0:
432,180,87738,2,0,B|496:204,2,70,8|0|0,0:0|0:0|0:0,0:0:0:0:
272,112,88283,6,0,B|208:88|208:88|104:88,2,140,8|0|8,0:0|0:0|0:0,0:0:0:0:
352,144,88964,2,0,B|416:208|360:304,1,140
304,224,89374,2,0,B|464:192,2,140,8|0|8,0:0|0:0|0:0,0:0:0:0:
152,296,90192,2,0,B|216:296|216:296|312:320,2,140,0|8|0,0:0|0:0|0:0,0:0:0:0:
72,272,90873,2,0,B|40:256|32:200,1,70,0|8,0:0|0:0,0:0:0:0:
80,144,91146,2,0,B|80:96|120:64|120:64,1,70
272,96,91555,6,0,B|344:72|352:112|432:88,2,140,8|0|8,0:0|0:0|0:0,0:0:0:0:
136,192,92373,1,4,0:0:0:0:
136,192,92646,5,0,0:0:0:0:
160,272,92782,1,0,0:0:0:0:
240,296,92919,2,0,B|360:296,2,70,8|0|0,0:0|0:0|0:0,0:0:0:0:
408,296,93464,1,0,0:0:0:0:
408,296,93737,5,0,0:0:0:0:
456,232,93873,1,0,0:0:0:0:
392,176,94009,2,0,B|304:176,2,70,8|0|0,0:0|0:0|0:0,0:0:0:0:
256,80,94555,6,0,B|168:80,1,70
224,152,94828,2,0,B|128:152,1,70
288,200,95100,2,0,B|384:200,1,70,8|0,0:0|0:0,0:0:0:0:
256,272,95373,2,0,B|344:272,1,70,0|0,0:0|0:0,0:0:0:0:
224,344,95646,2,0,B|160:344|160:344|144:336|144:336|72:336,1,140
24,280,96055,1,0,0:0:0:0:
104,264,96191,2,0,B|152:192|104:80,1,140,8|0,0:0|0:0,0:0:0:0:
280,72,96736,6,0,B|320:72|320:72|344:64|344:64|368:72|368:72|424:72,2,140,0|0|8,0:0|0:0|0:0,0:0:0:0:
344,224,97555,1,0,0:0:0:0:
344,304,97691,2,0,B|328:328|296:336|296:336|272:336|272:336|248:352|248:352|224:352|224:352|184:352|160:376|128:384,1,210
64,232,98373,2,0,B|40:184|72:112|160:128,1,140,8|0,0:0|0:0,0:0:0:0:
256,32,98918,5,0,0:0:0:0:
256,64,99464,1,8,0:0:0:0:
256,88,100009,1,8,0:0:0:0:
256,120,100555,1,8,0:0:0:0:
256,192,101100,12,0,103281,0:0:0:0:
256,80,109417,6,0,B|152:80,2,70,2|0|2,0:0|0:0|0:0,0:0:0:0:
336,48,109826,2,0,B|440:48,2,70
320,136,110236,2,0,B|400:176|384:304,1,140
320,304,110645,6,0,B|192:304,1,70
184,256,110918,2,0,B|144:240|96:264,1,70
64,320,111191,2,0,B|104:336|152:312,1,70
184,256,111463,2,0,B|232:176|208:96|136:48,1,210,8|0,0:0|0:0,0:0:0:0:
240,48,112009,6,0,B|320:32,1,70
376,88,112282,2,0,B|464:96,1,70
472,176,112554,2,0,B|440:256|344:240,1,140,8|0,0:0|0:0,0:0:0:0:
320,168,112963,1,0,0:0:0:0:
256,224,113100,2,0,B|152:224,1,70
256,224,113372,2,0,B|200:248|200:248|112:248,1,140,0|8,0:0|0:0,0:0:0:0:
96,96,114190,6,0,B|160:64|160:64|256:64,2,140,0|0|8,0:0|0:0|0:0,0:0:0:0:
40,160,114871,2,0,B|48:224|128:224,1,70
160,232,115144,1,0,0:0:0:0:
200,304,115280,6,0,B|248:392,1,70
304,320,115553,2,0,B|256:232,1,70
384,296,115826,2,0,B|432:384,1,70,8|0,0:0|0:0,0:0:0:0:
488,312,116099,2,0,B|440:224,1,70
456,168,116372,2,0,B|456:64,1,70
288,64,116781,5,0,0:0:0:0:
208,96,116917,2,0,B|128:96,2,70,8|0|0,0:0|0:0|0:0,0:0:0:0:
240,176,117327,2,0,B|216:224|128:208,2,70
320,144,117736,2,0,B|368:144|368:144|408:160|408:160|480:160,1,140,0|8,0:0|0:0,0:0:0:0:
144,288,118554,6,0,B|192:336|192:336|288:336,1,140,2|0,0:0|0:0,0:0:0:0:
416,264,119099,2,0,B|312:264,1,70,8|0,0:0|0:0,0:0:0:0:
272,216,119372,1,0,0:0:0:0:
144,104,119645,5,4,0:0:0:0:
72,152,119781,1,0,0:0:0:0:
128,88,119917,1,0,0:0:0:0:
40,96,120054,1,0,0:0:0:0:
120,72,120190,2,0,B|192:48,2,70,8|0|0,0:0|0:0|0:0,0:0:0:0:
288,88,120735,6,0,B|296:168|392:192|392:192|488:160,1,210,2|0,0:0|0:0,0:0:0:0:
384,112,121281,2,0,B|288:256,1,140,8|0,0:0|0:0,0:0:0:0:
136,240,121826,5,4,0:0:0:0:
128,104,121962,1,0,0:0:0:0:
56,216,122099,1,0,0:0:0:0:
184,168,122235,1,0,0:0:0:0:
48,136,122372,1,8,0:0:0:0:
136,240,122508,1,0,0:0:0:0:
128,104,122644,2,0,B|224:56,1,70
264,40,122916,6,0,B|320:40|320:40|408:88,2,140,0|0|8,0:0|0:0|0:0,0:0:0:0:
248,120,123598,1,0,0:0:0:0:
312,176,123734,2,0,B|416:176,1,70
416,256,124007,2,0,B|320:256,1,70
280,312,124280,2,0,B|224:312|224:312|184:296|184:296|112:296,1,140,0|8,0:0|0:0,0:0:0:0:
88,136,124825,6,0,B|160:136,1,70
256,104,125098,2,0,B|280:32,1,70
256,104,125370,2,0,B|320:40,1,70
256,104,125643,2,0,B|328:80,1,70,8|0,0:0|0:0,0:0:0:0:
256,104,125916,2,0,B|352:104,1,70
416,272,126188,6,0,B|320:272,1,70,4|0,0:0|0:0,0:0:0:0:
416,272,126461,2,0,B|352:240,1,70
416,272,126734,2,0,B|416:120,1,140
256,192,146914,12,8,150732,0:0:0:0:
168,104,150868,5,8,0:0:0:0:
176,128,151004,5,8,0:0:0:0:
184,152,151141,5,8,0:0:0:0:
192,176,151277,6,0,B|256:144|256:144|336:184,1,140,4|0,0:0|0:0,0:0:0:0:
256,320,151822,2,0,B|184:360|64:304,1,140,8|0,0:0|0:0,0:0:0:0:
72,256,152231,2,0,B|72:224|48:192|48:192|72:168|72:104,1,140
136,64,152641,2,0,B|200:64|200:64|240:48|288:48,2,140,0|8|0,0:0|0:0|0:0,0:0:0:0:
272,160,153459,6,0,B|272:216|272:216|288:248|288:248|288:296,1,140,8|0,0:0|0:0,0:0:0:0:
448,352,154004,2,0,B|448:303|448:303|432:240|376:248,1,140,8|0,0:0|0:0,0:0:0:0:
352,328,154413,2,0,B|336:368|296:368|296:368|208:368,1,140
168,312,154822,2,0,B|107:313|107:313|72:304|72:304|16:304,1,140,0|8,0:0|0:0,0:0:0:0:
360,256,155640,6,0,B|440:256|488:200,1,140,8|0,0:0|0:0,0:0:0:0:
331,172,156186,2,0,B|251:148|251:148|195:84,1,140,8|0,0:0|0:0,0:0:0:0:
298,105,156595,2,0,B|260:147|260:147|180:171,1,140
96,152,157004,2,0,B|40:296,2,140,0|8|0,0:0|0:0|0:0,0:0:0:0:
136,312,157822,6,0,B|208:288|208:288|312:288,2,140,8|0|8,0:0|0:0|0:0,0:0:0:0:
112,232,158504,1,0,0:0:0:0:
96,152,158640,1,0,0:0:0:0:
152,88,158776,1,0,0:0:0:0:
200,24,158913,2,0,B|288:48|296:136,1,140,8|0,0:0|0:0,0:0:0:0:
440,192,159458,2,0,B|344:192,2,70,8|0|0,0:0|0:0|0:0,0:0:0:0:
272,192,160004,5,8,0:0:0:0:
272,192,160277,2,0,B|176:192,1,70
208,280,160550,2,0,B|168:296|112:272,1,70,8|0,0:0|0:0,0:0:0:0:
80,224,160823,2,0,B|80:176|80:176|88:144|88:144|88:72,1,140,0|8,0:0|0:0,0:0:0:0:
256,64,161368,6,0,B|344:64,1,70
384,120,161641,2,0,B|352:152|296:136,1,70,8|0,0:0|0:0,0:0:0:0:
256,192,161913,2,0,B|216:256|216:256|144:256,1,140,0|8,0:0|0:0,0:0:0:0:
96,192,162322,5,0,0:0:0:0:
72,272,162459,2,0,B|48:352,2,70,0|0|8,0:0|0:0|0:0,0:0:0:0:
16,208,162868,2,0,B|48:104,1,70
200,104,163277,2,0,B|280:88|280:88|304:136|376:128,1,140,8|0,0:0|0:0,0:0:0:0:
408,136,163686,1,0,0:0:0:0:
360,208,163822,2,0,B|336:288|416:352,1,140,8|0,0:0|0:0,0:0:0:0:
256,240,164368,6,0,B|208:240|208:240|160:256|160:256|80:256,1,140,8|0,0:0|0:0,0:0:0:0:
48,104,164913,2,0,B|144:104|144:104|184:72,1,140,8|0,0:0|0:0,0:0:0:0:
248,120,165322,2,0,B|282:147|282:147|378:147,1,140
416,72,165731,2,0,B|336:232,1,140,0|8,0:0|0:0,0:0:0:0:
256,336,166277,1,0,0:0:0:0:
112,240,166549,6,0,B|64:224|64:224|32:192|56:128,1,140,8|0,0:0|0:0,0:0:0:0:
184,56,167095,1,8,0:0:0:0:
344,104,167367,2,0,B|424:104,2,70,0|0|8,0:0|0:0|0:0,0:0:0:0:
276,156,167775,1,8,0:0:0:0:
264,240,167912,1,8,0:0:0:0:
304,312,168048,1,2,0:0:0:0:
352,248,168185,5,8,0:0:0:0:
264,240,168321,1,8,0:0:0:0:
184,280,168457,1,8,0:0:0:0:
152,360,168594,1,8,0:0:0:0:
80,320,168730,6,0,B|32:272|32:272|32:160,1,140,4|8,0:0|0:0,0:0:0:0:
168,96,169275,2,0,B|216:120|280:112|312:48,1,140,0|8,0:0|0:0,0:0:0:0:
224,32,169684,2,0,B|248:184,1,140
304,232,170093,2,0,B|360:264|408:256|448:216,1,140,8|0,0:0|0:0,0:0:0:0:
432,56,170639,1,8,0:0:0:0:
296,152,170912,6,0,B|236:199|236:199|144:200,2,140,0|8|0,0:0|0:0|0:0,0:0:0:0:
384,144,171593,2,0,B|416:216|368:336,1,140
304,312,172002,2,0,B|256:312|256:312|216:320|216:320|144:320,1,140,0|8,0:0|0:0,0:0:0:0:
32,216,172548,1,0,0:0:0:0:
32,48,172820,1,8,0:0:0:0:
176,136,173093,6,0,B|240:136|240:136|272:120|264:48,2,140,0|8|0,0:0|0:0|0:0,0:0:0:0:
32,216,173911,1,8,0:0:0:0:
64,280,174048,2,0,P|122:308|191:287,1,140
254,250,174457,2,0,P|323:229|381:257,1,140,8|0,0:0|0:0,0:0:0:0:
440,136,175002,1,8,0:0:0:0:
280,80,175275,6,0,B|232:80|232:80|192:72|192:72|120:72,2,140,0|8|0,0:0|0:0|0:0,0:0:0:0:
344,136,175957,1,0,0:0:0:0:
336,216,176093,1,8,0:0:0:0:
264,256,176229,1,0,0:0:0:0:
192,208,176366,2,0,B|122:208,1,70
232,336,176638,2,0,B|328:336,1,70
152,304,176911,1,0,0:0:0:0:
152,304,177184,2,0,B|91:306|91:306|48:304|24:248,1,140,8|4,0:0|0:0,0:0:0:0:
88,104,177729,5,8,0:0:0:0:
160,64,177865,1,0,0:0:0:0:
176,144,178002,1,0,0:0:0:0:
240,24,178138,1,0,0:0:0:0:
272,184,178275,2,0,B|408:240,1,140,8|4,0:0|0:0,0:0:0:0:
256,320,178820,5,8,0:0:0:0:
192,267,178956,1,0,0:0:0:0:
160,344,179093,1,0,0:0:0:0:
129,214,179229,1,0,0:0:0:0:
56,368,179366,1,8,0:0:0:0:
32,208,179639,6,0,B|80:120,1,70
152,152,179912,2,0,B|224:104,1,70,8|0,0:0|0:0,0:0:0:0:
272,168,180184,2,0,B|368:144,1,70
416,192,180457,2,0,B|496:192,1,70,8|0,0:0|0:0,0:0:0:0:
456,112,180730,6,0,B|368:288,1,140,0|8,0:0|0:0,0:0:0:0:
448,304,181139,1,0,0:0:0:0:
376,344,181275,2,0,B|312:344|312:344|256:328|256:248,1,140,0|8,0:0|0:0,0:0:0:0:
128,192,181821,6,0,B|176:152|176:152|208:72,1,140,8|8,0:0|0:0,0:0:0:0:
40,104,182366,2,8,B|64:168|8:208|48:288,1,140
88,304,182775,2,0,B|168:352|256:272,1,140
288,248,183184,2,0,B|336:192,2,70,8|0|8,0:0|0:0|0:0,0:0:0:0:
192,104,183730,6,8,B|296:104,1,70
344,104,184002,2,0,B|352:96|352:96|352:112|352:112|360:96|360:96|360:112|360:112|368:96|368:96|368:112|368:112|376:96|376:96|376:112|376:112|384:96|384:96|384:112|384:112|392:96|392:96|392:112|392:112|400:96|400:96|400:112|400:112|408:96|408:96|408:112|408:112|416:104|416:104|432:104,1,280
168,280,185092,2,0,B|160:288|160:288|160:272|160:272|152:288|152:288|152:272|152:272|144:288|144:288|144:272|144:272|136:288|136:288|136:272|136:272|128:288|128:288|128:272|128:272|120:288|120:288|120:272|120:272|112:288|112:288|112:272|112:272|104:288|104:288|104:272|104:272|96:280|96:280|80:280,1,280,0|0,0:0|0:0,0:0:0:0:
120,128,185910,1,0,0:0:0:0:
200,148,186047,2,0,L|220:220,1,70
256,192,186251,12,0,190001,0:0:0:0:
