osu file format v12

[General]
AudioFilename: tubesnips.mp3
AudioLeadIn: 1500
PreviewTime: 66204
Countdown: 0
SampleSet: Normal
StackLeniency: 0.7
Mode: 0
LetterboxInBreaks: 1

[Editor]
DistanceSpacing: 1
BeatDivisor: 4
GridSize: 8

[Metadata]
Title:Chained Diary
TitleUnicode:Chained Diary
Artist:Shintani Ryouko
ArtistUnicode:新谷良子
Creator:Disoy
Version:Normal
Source:
Tags:Pretty Good! Bungaku Shoujo spboxer3 l1106188 loneight
BeatmapID:207406
BeatmapSetID:31821

[Difficulty]
HPDrainRate:3
CircleSize:3
OverallDifficulty:3
ApproachRate:4
SliderMultiplier:0.8
SliderTickRate:1

[Events]
//Background and Video events
0,0,"BG2.jpg",0,0
Video,0,"video.avi"
//Break Periods
2,103482,108280
2,127279,143412
//Storyboard Layer 0 (Background)
//Storyboard Layer 1 (Fail)
//Storyboard Layer 2 (Pass)
//Storyboard Layer 3 (Foreground)
//Storyboard Sound Samples
//Background Colour Transformations
3,100,163,162,255

[TimingPoints]
746,272.702481592583,4,2,1,60,1,0
4018,-100,4,2,2,50,0,0
5109,-100,4,2,1,60,0,0
8381,-100,4,2,2,50,0,0
9472,-100,4,1,1,60,0,0
18198,-100,4,1,1,45,0,0
18744,-100,4,1,1,60,0,0
26925,-100,4,2,1,60,0,0
28016,-100,4,2,2,80,0,0
28561,-100,4,2,1,60,0,0
29107,-100,4,2,2,80,0,0
29652,-100,4,2,1,60,0,0
30197,-100,4,2,2,80,0,0
30743,-100,4,2,1,60,0,0
31288,-100,4,2,2,80,0,0
31834,-100,4,2,1,60,0,0
32379,-100,4,2,2,80,0,0
32924,-100,4,2,1,60,0,0
33470,-100,4,2,2,80,0,0
34015,-100,4,2,1,60,0,0
34561,-100,4,2,2,80,0,0
35106,-100,4,2,1,60,0,0
35651,-100,4,2,2,80,0,0
36197,-100,4,2,1,60,0,0
36742,-100,4,2,2,80,0,0
37288,-100,4,2,1,60,0,0
37833,-100,4,2,2,80,0,0
38378,-100,4,2,1,60,0,0
38924,-100,4,2,2,80,0,0
39469,-100,4,2,1,60,0,0
40015,-100,4,2,2,80,0,0
40560,-100,4,2,1,60,0,0
41105,-100,4,2,2,80,0,0
41651,-100,4,2,1,60,0,0
42196,-100,4,2,2,80,0,0
42742,-100,4,2,1,60,0,0
43287,-100,4,1,1,60,0,0
44378,-100,4,2,1,60,0,0
45196,-100,4,1,2,80,0,0
45469,-100,4,2,1,60,0,0
45741,-100,4,2,2,80,0,0
46014,-100,4,1,1,60,0,0
46560,-100,4,1,2,60,0,0
47105,-100,4,1,1,60,0,0
48468,-100,4,1,2,80,0,0
48741,-100,4,1,1,60,0,0
52014,-100,4,2,2,80,0,0
52559,-100,4,1,2,60,0,0
53104,-100,4,2,2,80,0,0
53650,-100,4,1,1,60,0,0
53922,-100,4,1,2,80,0,0
54468,-100,4,1,2,70,0,0
54741,-100,4,1,1,60,0,0
55286,-100,4,1,2,80,0,0
55831,-100,4,1,1,60,0,0
56377,-100,4,1,2,70,0,0
56922,-100,4,1,1,60,0,0
60740,-100,4,2,2,80,0,0
61013,-100,4,1,1,50,0,0
64012,-100,4,1,1,60,0,0
66194,-100,4,1,1,60,0,1
66740,-100,4,1,1,70,0,1
83579,-100,4,1,1,50,0,0
83647,-100,4,1,1,50,0,1
84192,-100,4,1,1,60,0,1
101100,-100,4,1,1,60,0,0
103282,-100,4,2,1,60,0,0
109826,-100,4,1,1,40,0,0
110645,-100,4,2,2,80,0,0
111463,-100,4,2,1,60,0,0
112008,-100,4,2,2,80,0,0
112554,-100,4,2,1,60,0,0
113099,-100,4,2,2,80,0,0
113644,-100,4,2,1,60,0,0
114190,-100,4,2,2,80,0,0
114735,-100,4,2,1,60,0,0
115281,-100,4,2,2,80,0,0
115826,-100,4,2,1,60,0,0
116371,-100,4,2,2,80,0,0
116917,-100,4,2,1,60,0,0
117462,-100,4,2,2,80,0,0
117735,-100,4,2,1,60,0,0
118553,-100,4,1,1,60,0,0
118826,-100,4,2,1,60,0,0
120735,-100,4,1,1,60,0,0
121280,-100,4,2,1,60,0,0
122916,-100,4,2,2,80,0,0
123462,-100,4,2,1,60,0,0
126189,-100,4,2,1,30,0,0
151277,-100,4,2,1,90,0,0
151823,-100,4,1,1,60,0,0
168730,-100,4,1,1,60,0,1
169276,-100,4,1,1,70,0,1
177457,-100,4,2,1,70,0,1
177729,-100,4,1,1,70,0,1
178548,-100,4,2,1,70,0,1
178820,-100,4,1,1,70,0,1
181820,-100,4,1,1,80,0,1
186183,-100,4,1,1,60,0,0

[Colours]
Combo1 : 70,70,70
Combo2 : 192,192,192

[HitObjects]
256,192,745,1,4,0:0:0:0:
256,192,4018,2,12,L|256:288,2,80
256,192,5109,5,4,0:0:0:0:
256,192,8381,2,12,L|256:96,2,80
416,72,9472,6,0,P|448:136|432:240,1,160,4|8,0:0|0:0,0:0:0:0:
328,112,10563,2,0,P|280:88|232:80,2,80,0|0|8,0:0|0:0|0:0,0:0:0:0:
168,112,11654,2,0,B|96:128|88:192|88:192|104:240,1,160,0|8,0:0|0:0,0:0:0:0:
248,288,12744,2,0,L|352:264,2,80,0|0|8,0:0|0:0|0:0,0:0:0:0:
400,328,13835,6,0,B|432:312|432:312|464:248|408:184,1,160,0|8,0:0|0:0,0:0:0:0:
296,88,14926,2,0,P|248:96|200:80,1,80
152,40,15471,1,8,0:0:0:0:
64,176,16017,2,0,P|120:232|96:336,1,160,0|8,0:0|0:0,0:0:0:0:
272,280,17108,2,0,P|328:256|384:256,2,80,0|0|8,0:0|0:0|0:0,0:0:0:0:
424,232,18198,6,0,B|368:176|368:176|360:88,1,160,4|8,0:0|0:0,0:0:0:0:
208,48,19289,2,0,L|216:136,1,80
160,184,19835,1,8,0:0:0:0:
64,312,20380,2,0,P|160:288|232:312,1,160,0|8,0:0|0:0,0:0:0:0:
376,328,21471,2,0,L|288:264,2,80,0|0|8,0:0|0:0|0:0,0:0:0:0:
336,176,22562,6,0,B|384:160|384:160|400:80|336:48,1,160,0|8,0:0|0:0,0:0:0:0:
208,120,23653,1,0,0:0:0:0:
136,152,23925,1,0,0:0:0:0:
200,200,24198,1,8,0:0:0:0:
344,272,24743,6,0,P|256:280|184:320,1,160,0|8,0:0|0:0,0:0:0:0:
272,176,25834,2,0,L|352:184,2,80,0|0|8,0:0|0:0|0:0,0:0:0:0:
144,88,26925,6,0,B|104:128|104:128|120:248,1,160,4|8,0:0|0:0,0:0:0:0:
264,304,28016,2,0,B|304:264|304:264|288:144,1,160,0|8,0:0|0:0,0:0:0:0:
432,88,29107,2,0,L|464:272,1,160,0|8,0:0|0:0,0:0:0:0:
344,136,30197,6,0,L|256:120,1,80
200,72,30743,1,8,0:0:0:0:
48,120,31288,2,0,B|96:160|96:160|104:240|40:264,1,160,0|8,0:0|0:0,0:0:0:0:
224,248,32379,1,0,0:0:0:0:
296,216,32652,2,0,L|328:312,1,80,0|8,0:0|0:0,0:0:0:0:
480,312,33470,2,0,B|488:256|488:256|456:144,1,160,0|8,0:0|0:0,0:0:0:0:
320,72,34561,2,0,P|264:80|208:72,1,80
168,48,35106,1,8,0:0:0:0:
88,184,35651,6,0,B|128:224|128:224|104:344,1,160,0|8,0:0|0:0,0:0:0:0:
264,304,36742,1,0,0:0:0:0:
280,224,37015,1,0,0:0:0:0:
296,144,37288,1,8,0:0:0:0:
456,120,37833,2,0,P|432:176|424:288,1,160,0|8,0:0|0:0,0:0:0:0:
352,128,38924,1,0,0:0:0:0:
296,72,39197,2,0,L|200:88,1,80,0|8,0:0|0:0,0:0:0:0:
88,184,40015,6,0,B|136:232|136:232|112:320,1,160,0|8,0:0|0:0,0:0:0:0:
248,240,41105,1,0,0:0:0:0:
320,200,41378,2,0,L|352:96,1,80,0|8,0:0|0:0,0:0:0:0:
320,280,42196,2,0,P|416:304|488:272,1,160,0|8,0:0|0:0,0:0:0:0:
360,168,43287,2,0,P|256:72|144:192,1,320,0|4,0:0|0:0,0:0:0:0:
368,256,45196,6,0,P|408:288|424:328,1,80
344,336,45741,1,0,0:0:0:0:
288,280,46014,2,0,P|192:256|120:296,1,160,8|4,0:0|0:0,0:0:0:0:
176,120,47105,6,0,B|232:168|232:168|368:128,1,200,8|2,0:0|0:0,0:0:0:0:
448,64,48196,2,0,L|344:40,1,80,0|4,0:0|0:0,0:0:0:0:
288,56,48741,6,0,L|192:96,2,80,0|0|4,0:0|0:0|0:0,0:0:0:0:
128,64,49832,2,0,L|80:144,2,80,0|0|4,0:0|0:0|0:0,0:0:0:0:
232,184,50923,2,0,L|280:288,2,80,0|0|4,0:0|0:0|0:0,0:0:0:0:
392,152,52014,2,0,B|376:232|376:232|416:328,1,160,0|4,0:0|0:0,0:0:0:0:
304,184,53104,6,0,B|288:144|232:96|176:88,1,160,0|8,0:0|0:0,0:0:0:0:
104,120,53922,2,0,B|80:168|80:256|112:296,1,160,4|2,0:0|0:0,0:0:0:0:
176,312,54741,2,0,B|200:240|200:240|280:264,1,160,8|4,0:0|0:0,0:0:0:0:
424,328,55831,1,8,0:0:0:0:
408,168,56377,1,2,0:0:0:0:
472,120,56650,2,0,L|456:32,1,80,4|8,0:0|0:0,0:0:0:0:
296,24,57468,6,0,L|312:128,2,80,0|0|4,0:0|0:0|0:0,0:0:0:0:
160,104,58558,2,0,L|144:0,2,80,0|0|4,0:0|0:0|0:0,0:0:0:0:
80,240,59649,2,0,L|96:344,2,80,0|0|4,0:0|0:0|0:0,0:0:0:0:
240,256,60740,6,0,L|296:200,1,80,0|0,0:0|0:0,0:0:0:0:
376,184,61285,1,8,0:0:0:0:
256,192,61831,12,8,64012,0:0:0:0:
416,64,66194,6,0,B|456:104|456:104|432:224,1,160,4|8,0:0|0:0,0:0:0:0:
296,288,67285,2,0,P|224:280|144:328,1,160,0|8,0:0|0:0,0:0:0:0:
32,208,68376,2,0,P|76:151|78:57,1,160,0|8,0:0|0:0,0:0:0:0:
240,40,69467,2,0,P|273:104|358:143,1,160,0|8,0:0|0:0,0:0:0:0:
432,136,70285,1,0,0:0:0:0:
400,208,70557,6,0,B|424:256|424:256|416:320|336:320,1,160,0|8,0:0|0:0,0:0:0:0:
192,312,71648,2,0,P|232:248|328:248,1,160,0|8,0:0|0:0,0:0:0:0:
176,152,72739,2,0,P|136:216|40:216,1,160,0|8,0:0|0:0,0:0:0:0:
120,80,73830,2,0,B|184:56|184:56|288:112,1,160,0|8,0:0|0:0,0:0:0:0:
288,176,74648,1,0,0:0:0:0:
344,120,74921,6,0,L|424:168,1,80
472,216,75466,2,0,L|472:280,1,40,8|0,0:0|0:0,0:0:0:0:
384,336,76011,2,0,L|304:288,1,80
256,240,76557,2,0,L|256:176,1,40,8|0,0:0|0:0,0:0:0:0:
152,136,77102,2,0,B|160:200|160:200|112:296,1,160,0|8,0:0|0:0,0:0:0:0:
48,144,78193,2,0,L|32:64,1,80
104,32,78738,1,8,0:0:0:0:
240,120,79284,6,0,B|256:208|344:216|344:216|424:160,1,240,0|8,0:0|0:0,0:0:0:0:
416,88,80375,2,0,P|360:40|272:56,1,160,0|8,0:0|0:0,0:0:0:0:
128,96,81465,2,0,L|144:192,1,80,8|0,0:0|0:0,0:0:0:0:
216,208,82011,2,0,L|232:304,1,80,8|0,0:0|0:0,0:0:0:0:
304,320,82556,2,0,P|368:280|472:288,1,160,8|8,0:0|0:0,0:0:0:0:
328,176,83647,6,0,B|376:148|376:148|398:89|319:33,1,160,4|8,0:0|0:0,0:0:0:0:
184,32,84738,2,0,B|135:60|135:60|113:118|192:174,1,160,0|8,0:0|0:0,0:0:0:0:
104,296,85829,2,0,P|176:264|256:288,1,160,0|8,0:0|0:0,0:0:0:0:
232,128,86919,2,0,P|293:177|376:175,1,160,0|8,0:0|0:0,0:0:0:0:
432,120,87738,1,0,0:0:0:0:
456,200,88010,6,0,B|472:248|472:248|456:304|384:312,1,160,0|8,0:0|0:0,0:0:0:0:
232,336,89101,2,0,B|176:320|176:320|128:336|64:304,1,160,0|8,0:0|0:0,0:0:0:0:
80,152,90192,2,0,B|130:126|178:142|178:142|234:126,1,160,0|8,0:0|0:0,0:0:0:0:
376,208,91283,2,0,L|288:176,1,80,0|8,0:0|0:0,0:0:0:0:
240,232,91828,2,0,L|144:248,1,80,0|8,0:0|0:0,0:0:0:0:
88,208,92374,6,0,P|96:160|88:120,1,80
48,64,92919,2,0,L|96:16,1,40,8|0,0:0|0:0,0:0:0:0:
192,64,93464,2,0,P|184:112|192:152,1,80
256,184,94010,2,0,L|320:160,1,40,8|0,0:0|0:0,0:0:0:0:
384,88,94555,6,0,P|416:144|400:192,1,80
400,232,95101,2,0,P|368:272|312:272,1,80,8|0,0:0|0:0,0:0:0:0:
264,296,95646,2,0,P|216:296|176:256,1,80
128,224,96191,1,8,0:0:0:0:
192,80,96737,6,0,B|248:88|248:88|288:144|240:200,1,160,0|8,0:0|0:0,0:0:0:0:
176,160,97555,1,0,0:0:0:0:
160,240,97828,2,0,B|104:232|104:232|64:176|112:120,1,160,0|8,0:0|0:0,0:0:0:0:
240,216,98918,2,0,L|328:224,1,80,8|0,0:0|0:0,0:0:0:0:
368,160,99464,2,0,L|480:168,1,80,8|0,0:0|0:0,0:0:0:0:
440,88,100009,2,8,P|376:48|296:72,1,160
256,192,101100,12,4,103282,0:0:0:0:
424,80,109826,6,0,B|464:136|432:192|432:192|376:208,1,160,4|8,0:0|0:0,0:0:0:0:
352,136,110645,2,0,L|256:152,1,80
128,88,111463,1,8,0:0:0:0:
128,88,112008,6,0,B|88:136|88:136|120:232,1,160,0|8,0:0|0:0,0:0:0:0:
248,160,113099,2,0,L|224:256,1,80
168,296,113644,1,8,0:0:0:0:
320,240,114190,6,0,B|344:184|416:168|488:208,1,160,0|8,0:0|0:0,0:0:0:0:
472,112,115008,2,0,P|432:104|400:64,1,80
248,56,115826,1,8,0:0:0:0:
88,88,116371,6,0,B|136:136|136:136|112:240,1,160,0|8,0:0|0:0,0:0:0:0:
240,328,117462,2,0,L|336:280,1,80
392,304,118008,1,8,0:0:0:0:
448,152,118553,6,0,L|336:144,1,80
360,64,119098,2,0,L|248:56,1,80,8|0,0:0|0:0,0:0:0:0:
200,80,119644,2,0,P|224:112|224:152,3,80,4|2|4|2,0:0|0:0|0:0|0:0,0:0:0:0:
136,136,120735,6,0,L|64:176,1,80
120,240,121280,2,0,L|32:288,1,80,8|0,0:0|0:0,0:0:0:0:
104,344,121825,6,0,P|152:352|192:344,3,80,4|2|4|2,0:0|0:0|0:0|0:0,0:0:0:0:
200,264,122916,2,0,P|288:240|376:272,1,160,0|8,0:0|0:0,0:0:0:0:
488,176,124007,2,0,P|400:152|312:184,1,160,0|8,0:0|0:0,0:0:0:0:
208,64,125098,2,0,P|296:88|384:56,1,160,0|8,0:0|0:0,0:0:0:0:
360,72,126189,5,4,0:0:0:0:
408,136,126461,2,0,L|392:224,2,80,0|2|0,0:0|0:0|0:0,0:0:0:0:
256,192,144732,12,0,149641,0:0:0:0:
88,56,150186,2,0,L|176:40,3,80
256,48,151277,2,0,P|312:112|296:208,1,160,4|8,0:0|0:0,0:0:0:0:
448,104,152368,2,0,P|442:188|363:245,1,160,0|8,0:0|0:0,0:0:0:0:
496,280,153459,2,0,P|432:336|336:320,1,160,0|8,0:0|0:0,0:0:0:0:
216,264,154550,2,0,L|128:288,2,80,0|0|8,0:0|0:0|0:0,0:0:0:0:
256,48,155641,6,0,P|200:112|216:208,1,160,0|8,0:0|0:0,0:0:0:0:
64,104,156731,2,0,P|69:188|148:245,1,160,0|8,0:0|0:0,0:0:0:0:
16,280,157822,2,0,P|80:336|176:320,1,160,0|8,0:0|0:0,0:0:0:0:
296,264,158913,2,0,L|384:288,2,80,0|0|8,0:0|0:0|0:0,0:0:0:0:
320,104,160004,6,0,P|256:144|152:120,1,160,0|8,0:0|0:0,0:0:0:0:
40,56,161095,2,0,P|80:120|56:224,1,160,0|8,0:0|0:0,0:0:0:0:
232,208,162185,2,0,B|272:208|272:208|304:232|304:232|400:232,1,160,0|8,0:0|0:0,0:0:0:0:
424,160,163003,1,0,0:0:0:0:
376,96,163276,2,0,P|416:80|456:88,2,80,0|0|8,0:0|0:0|0:0,0:0:0:0:
232,48,164367,6,0,L|192:120,1,80,8|0,0:0|0:0,0:0:0:0:
120,144,164912,2,0,L|72:224,1,80,8|0,0:0|0:0,0:0:0:0:
120,280,165458,2,0,P|200:264|288:288,1,160,8|0,0:0|0:0,0:0:0:0:
424,344,166549,5,8,0:0:0:0:
275,281,167094,1,8,0:0:0:0:
400,184,167639,1,8,0:0:0:0:
336,232,167912,1,8,0:0:0:0:
320,152,168185,1,8,0:0:0:0:
328,72,168458,5,8,0:0:0:0:
328,72,168730,2,0,B|272:56|272:56|208:88|208:144,1,160,4|8,0:0|0:0,0:0:0:0:
88,232,169821,2,0,P|128:256|152:312,1,80,0|8,0:0|0:0,0:0:0:0:
224,256,170366,2,0,P|272:288|304:288,1,80,0|8,0:0|0:0,0:0:0:0:
368,264,170912,2,0,B|424:248|440:168|392:120,1,160,0|8,0:0|0:0,0:0:0:0:
256,56,172003,6,0,L|176:96,1,80,0|8,0:0|0:0,0:0:0:0:
112,56,172548,1,0,0:0:0:0:
64,208,173093,2,0,P|144:224|160:312,1,160,0|8,0:0|0:0,0:0:0:0:
280,176,174184,2,0,P|256:216|248:256,1,80,0|8,0:0|0:0,0:0:0:0:
288,320,174730,2,0,P|320:328|368:328,1,80,0|8,0:0|0:0,0:0:0:0:
424,272,175275,2,0,P|424:200|352:152,1,160,0|8,0:0|0:0,0:0:0:0:
280,176,176093,5,0,0:0:0:0:
200,192,176366,2,0,P|136:216|48:192,1,160,0|8,0:0|0:0,0:0:0:0:
152,72,177457,5,4,0:0:0:0:
232,64,177729,2,0,L|312:32,2,80,0|8|0,0:0|0:0|0:0,0:0:0:0:
200,136,178548,5,4,0:0:0:0:
120,144,178820,2,0,L|40:128,2,80,0|8|0,0:0|0:0|0:0,0:0:0:0:
120,224,179638,6,0,L|200:240,1,80,0|8,0:0|0:0,0:0:0:0:
256,296,180184,2,0,L|352:312,1,80,0|8,0:0|0:0,0:0:0:0:
416,328,180729,1,0,0:0:0:0:
360,272,181002,1,8,0:0:0:0:
304,216,181275,1,0,0:0:0:0:
304,56,181820,6,8,P|280:96|272:152,1,80
216,192,182365,2,8,P|176:208|112:200,1,80
64,184,182911,2,8,B|-8:168|0:104|0:104|48:48,1,160
96,112,183729,1,8,0:0:0:0:
176,120,184002,6,8,P|232:112|272:136,1,80
304,184,184547,2,8,P|288:240|248:272,1,80
192,264,185092,2,8,P|160:240|144:168,1,80
143,204,185638,1,0,0:0:0:0:
224,192,185910,2,0,L|304:184,1,80
256,192,186456,12,0,190001,0:0:0:0:
