osu file format v12

[General]
AudioFilename: tubesnips.mp3
AudioLeadIn: 1500
PreviewTime: 66204
Countdown: 0
SampleSet: Normal
StackLeniency: 0.7
Mode: 0
LetterboxInBreaks: 1

[Editor]
DistanceSpacing: 1
BeatDivisor: 4
GridSize: 4

[Metadata]
Title:Chained Diary
TitleUnicode:Chained Diary
Artist:Shintani Ryouko
ArtistUnicode:新谷良子
Creator:Disoy
Version:Dis
Source:
Tags:Pretty Good! Bungaku Shoujo spboxer3 l1106188 loneight
BeatmapID:104414
BeatmapSetID:31821

[Difficulty]
HPDrainRate:6
CircleSize:4
OverallDifficulty:8
ApproachRate:9
SliderMultiplier:1.4
SliderTickRate:1

[Events]
//Background and Video events
Video,0,"video.avi"
0,0,"BG2.jpg",0,0
//Break Periods
2,127479,144132
//Storyboard Layer 0 (Background)
//Storyboard Layer 1 (Fail)
//Storyboard Layer 2 (Pass)
//Storyboard Layer 3 (Foreground)
//Storyboard Sound Samples
//Background Colour Transformations
3,100,163,162,255

[TimingPoints]
746,272.702481592583,4,2,1,60,1,0
1018,-133.333333333333,4,2,1,60,0,0
1291,-200,4,2,1,60,0,0
1836,-100,4,2,1,60,0,0
2109,-133.333333333333,4,2,1,60,0,0
2382,-200,4,2,1,60,0,0
3200,-133.333333333333,4,2,1,60,0,0
3473,-100,4,2,1,60,0,0
4018,-100,4,2,2,40,0,0
5109,-200,4,2,1,60,0,0
5381,-133.333333333333,4,2,1,60,0,0
5654,-100,4,2,1,60,0,0
6200,-200,4,2,1,60,0,0
6472,-133.333333333333,4,2,1,60,0,0
6745,-100,4,2,1,60,0,0
7563,-133.333333333333,4,2,1,60,0,0
7836,-200,4,2,1,60,0,0
8108,-100,4,2,1,60,0,0
8381,-100,4,2,2,40,0,0
9472,-100,4,1,1,60,0,0
13085,-100,4,1,2,65,0,0
13290,-100,4,2,1,60,0,0
13426,-100,4,1,1,60,0,0
17108,-100,4,1,2,55,0,0
17380,-100,4,1,1,60,0,0
18198,-100,4,1,1,45,0,0
18335,-100,4,1,1,60,0,0
22562,-100,4,2,1,65,0,0
22834,-100,4,1,1,60,0,0
23925,-100,4,1,2,55,0,0
24198,-100,4,1,1,60,0,0
26243,-100,4,1,2,65,0,0
26380,-100,4,2,2,65,0,0
26516,-100,4,1,2,65,0,0
26925,-100,4,2,1,60,0,0
28016,-100,4,2,2,80,0,0
28152,-100,4,2,1,60,0,0
28288,-100,4,2,2,80,0,0
28425,-100,4,2,1,60,0,0
29107,-100,4,2,2,80,0,0
29243,-100,4,2,1,60,0,0
30197,-100,4,2,2,80,0,0
30334,-100,4,2,1,60,0,0
30470,-100,4,2,2,80,0,0
30743,-100,4,2,1,60,0,0
31015,-100,4,1,1,50,0,0
31288,-100,4,2,2,80,0,0
31425,-133.333333333333,4,2,1,60,0,0
32379,-133.333333333333,4,2,2,80,0,0
32515,-133.333333333333,4,2,1,60,0,0
32652,-133.333333333333,4,2,2,80,0,0
32788,-100,4,2,1,60,0,0
33470,-100,4,2,2,80,0,0
33606,-100,4,2,1,60,0,0
34561,-100,4,2,2,80,0,0
34697,-100,4,2,1,60,0,0
34833,-100,4,2,2,80,0,0
34970,-100,4,2,1,60,0,0
35379,-100,4,1,1,50,0,0
35651,-100,4,2,2,80,0,0
35788,-100,4,2,1,60,0,0
36742,-100,4,2,2,80,0,0
37151,-100,4,2,1,60,0,0
37833,-100,4,2,2,80,0,0
37901,-100,4,2,1,60,0,0
38924,-100,4,2,2,80,0,0
39060,-100,4,2,1,60,0,0
39197,-100,4,2,2,80,0,0
39333,-100,4,2,1,60,0,0
39742,-100,4,1,1,50,0,0
40015,-100,4,2,2,80,0,0
40151,-100,4,2,1,60,0,0
40560,-133.333333333333,4,2,1,60,0,0
41105,-133.333333333333,4,2,2,80,0,0
41242,-133.333333333333,4,2,1,60,0,0
41378,-133.333333333333,4,2,2,80,0,0
41515,-100,4,2,1,60,0,0
43287,-100,4,1,1,60,0,0
44242,-100,4,1,2,60,0,0
44378,-133.333333333333,4,2,1,60,0,0
44651,-133.333333333333,4,1,1,60,0,0
44923,-133.333333333333,4,1,2,60,0,0
45196,-133.333333333333,4,1,2,80,0,0
45332,-133.333333333333,4,2,1,60,0,0
45741,-133.333333333333,4,2,2,80,0,0
45878,-133.333333333333,4,2,1,60,0,0
46014,-133.333333333333,4,1,1,60,0,0
46287,-133.333333333333,4,1,2,60,0,0
46560,-133.333333333333,4,2,2,80,0,0
46696,-133.333333333333,4,2,1,60,0,0
47105,-133.333333333333,4,1,1,60,0,0
47378,-133.333333333333,4,1,2,80,0,0
47514,-133.333333333333,4,1,1,60,0,0
47650,-133.333333333333,4,1,2,60,0,0
48059,-133.333333333333,4,1,2,80,0,0
48196,-133.333333333333,4,1,1,60,0,0
48468,-133.333333333333,4,1,2,80,0,0
48741,-133.333333333333,4,1,1,60,0,0
52014,-100,4,2,2,80,0,0
52150,-100,4,1,2,70,0,0
52286,-100,4,1,2,80,0,0
52423,-100,4,1,2,70,0,0
52559,-100,4,1,1,60,0,0
52695,-100,4,1,2,80,0,0
53104,-133.333333333333,4,2,2,80,0,0
53513,-133.333333333333,4,1,2,60,0,0
53650,-133.333333333333,4,1,1,60,0,0
53786,-133.333333333333,4,1,2,70,0,0
53922,-133.333333333333,4,1,2,80,0,0
54195,-133.333333333333,4,2,2,80,0,0
54332,-100,4,2,1,60,0,0
54741,-100,4,1,1,60,0,0
55013,-100,4,1,2,70,0,0
55286,-100,4,1,2,80,0,0
55422,-133.333333333333,4,2,1,60,0,0
55831,-133.333333333333,4,1,1,60,0,0
55968,-133.333333333333,4,1,2,70,0,0
56240,-133.333333333333,4,1,2,80,0,0
56377,-133.333333333333,4,2,2,80,0,0
56513,-133.333333333333,4,1,2,80,0,0
57059,-133.333333333333,4,2,2,80,0,0
57331,-133.333333333333,4,1,1,60,0,0
60740,-100,4,2,2,80,0,0
60876,-100,4,1,1,50,0,0
61831,-100,4,1,1,40,0,0
62376,-100,4,1,1,50,0,0
64012,-100,4,1,1,60,0,0
64285,-100,4,2,1,40,0,0
65103,-200,4,2,1,30,0,0
66194,-100,4,1,1,60,0,1
66467,-100,4,1,1,70,0,1
74921,-133.333333333333,4,1,1,70,0,1
82829,-133.333333333333,4,1,2,100,0,1
82965,-133.333333333333,4,1,2,90,0,1
83102,-100,4,1,1,70,0,1
83579,-100,4,1,1,50,0,0
83647,-100,4,1,1,50,0,1
83920,-100,4,1,1,60,0,1
92374,-133.333333333333,4,1,1,60,0,1
101100,-100,4,1,2,80,0,0
101645,-100,4,1,1,70,0,0
102054,-100,4,1,2,80,0,0
102464,-100,4,1,1,70,0,0
102736,-100,4,1,2,80,0,0
103827,-100,4,1,1,70,0,0
104918,-100,4,2,1,50,0,0
105463,-100,4,1,2,80,0,0
106009,-100,4,1,1,70,0,0
107099,-200,4,2,2,50,0,0
107645,-200,4,1,2,80,0,0
107781,-100,4,1,2,80,0,0
108190,-100,4,1,1,70,0,0
108463,-100,4,2,1,60,0,0
109417,-100,4,2,1,50,0,0
109826,-100,4,1,1,40,0,0
110099,-100,4,2,2,80,0,0
110372,-100,4,2,1,60,0,0
110645,-100,4,2,2,80,0,0
110781,-100,4,2,1,60,0,0
110917,-100,4,2,2,80,0,0
111463,-100,4,2,1,60,0,0
112008,-100,4,2,2,80,0,0
112554,-100,4,2,1,60,0,0
112826,-100,4,2,2,80,0,0
112963,-100,4,2,1,60,0,0
113099,-100,4,2,2,80,0,0
113644,-100,4,2,1,60,0,0
114190,-100,4,2,2,80,0,0
114326,-100,4,2,1,60,0,0
114462,-100,4,2,2,80,0,0
114735,-100,4,2,1,60,0,0
115281,-100,4,2,2,80,0,0
115417,-100,4,2,1,60,0,0
115553,-100,4,2,2,80,0,0
115826,-100,4,2,1,60,0,0
116371,-100,4,2,2,80,0,0
116780,-100,4,2,1,60,0,0
117462,-100,4,2,2,80,0,0
117735,-100,4,2,1,60,0,0
118553,-100,4,1,1,60,0,0
118689,-100,4,2,1,60,0,0
120735,-100,4,1,1,60,0,0
120871,-100,4,2,1,60,0,0
122916,-100,4,2,2,80,0,0
123053,-100,4,2,1,60,0,0
126189,-200,4,2,1,30,0,0
127279,-200,4,1,1,30,0,0
146914,-100,4,1,1,40,0,0
147187,-100,4,1,2,80,0,0
147459,-100,4,1,1,70,0,0
147732,-100,4,1,2,70,0,0
148278,-100,4,1,1,70,0,0
148550,-100,4,1,1,60,0,0
148687,-100,4,1,1,70,0,0
148823,-100,4,1,2,80,0,0
148959,-100,4,1,2,70,0,0
149368,-100,4,2,2,80,0,0
149505,-100,4,1,1,70,0,0
149777,-100,4,1,2,70,0,0
149914,-100,4,1,1,70,0,0
150186,-100,4,2,1,50,0,0
151277,-200,4,2,1,90,0,0
151550,-200,4,1,1,60,0,0
155641,-133.333333333333,4,1,1,60,0,0
164367,-133.333333333333,4,1,1,80,0,0
166958,-133.333333333333,4,1,2,80,0,0
167094,-133.333333333333,4,1,1,60,0,0
167230,-133.333333333333,4,1,2,90,0,0
167367,-133.333333333333,4,1,1,60,0,0
167503,-133.333333333333,4,1,2,80,0,0
167639,-133.333333333333,4,1,1,60,0,0
168048,-133.333333333333,4,1,2,80,0,0
168185,-133.333333333333,4,1,1,60,0,0
168730,-100,4,1,1,70,0,1
177457,-100,4,2,1,70,0,1
177729,-100,4,1,1,70,0,1
178548,-100,4,2,1,70,0,1
178820,-100,4,1,1,70,0,1
181820,-100,4,1,1,80,0,1
185365,-100,4,1,2,80,0,1
185638,-100,4,1,2,70,0,1
185774,-100,4,1,1,80,0,1
186183,-100,4,1,1,60,0,0

[Colours]
Combo1 : 70,70,70
Combo2 : 192,192,192

[HitObjects]
376,232,745,2,0,B|392:276|376:324,1,70,4|0,0:0|0:0,0:0:0:0:
376,232,1018,6,0,B|372:276|348:292,1,52.4999984353781,0|0,0:0|0:0,0:0:0:0:
376,232,1291,6,0,B|356:256|336:260,1,35,2|0,0:0|0:0,0:0:0:0:
280,272,1564,1,2,0:0:0:0:
204,256,1700,1,0,0:0:0:0:
136,152,1836,6,0,B|120:108|136:60,1,70,4|0,0:0|0:0,0:0:0:0:
136,152,2109,6,0,B|140:108|164:92,1,52.4999984353781
136,152,2382,6,0,B|156:128|176:124,1,35,2|0,0:0|0:0,0:0:0:0:
232,112,2654,1,0,0:0:0:0:
308,128,2791,1,0,0:0:0:0:
312,208,2927,6,0,B|324:236|324:252,1,35,4|0,0:0|0:0,0:0:0:0:
404,192,3200,2,0,B|404:228|396:256,1,52.4999984353781
496,204,3473,2,0,B|484:260|452:288,1,70,2|0,0:0|0:0,0:0:0:0:
400,316,3745,1,0,0:0:0:0:
320,336,3882,1,0,0:0:0:0:
256,284,4018,2,0,B|228:256|284:176|232:128,2,140,12|12|12,0:0|0:0|0:0,0:0:0:0:
148,196,5109,6,0,B|168:172|188:168,1,35,4|0,0:0|0:0,0:0:0:0:
148,196,5381,6,0,B|152:152|176:136,1,52.4999984353781
148,196,5654,6,0,B|132:152|148:104,1,70,2|0,0:0|0:0,0:0:0:0:
204,92,5927,1,0,0:0:0:0:
276,92,6063,1,0,0:0:0:0:
364,188,6200,6,0,B|344:212|324:216,1,35,4|0,0:0|0:0,0:0:0:0:
364,188,6472,6,0,B|360:232|336:248,1,52.4999984353781
364,188,6745,6,0,B|380:232|364:280,1,70,2|0,0:0|0:0,0:0:0:0:
308,292,7018,1,0,0:0:0:0:
236,292,7154,1,0,0:0:0:0:
164,268,7290,6,0,B|132:312|96:320,1,70,4|0,0:0|0:0,0:0:0:0:
92,240,7563,2,0,B|56:260|24:252,1,52.4999984353781
44,180,7836,2,0,B|24:184|8:176,1,35
144,144,8108,5,0,0:0:0:0:
368,144,8245,1,0,0:0:0:0:
256,76,8381,6,12,B|284:120|224:192|272:224,2,140
408,48,9472,6,0,B|444:84|444:84|436:180,1,140,4|8,0:0|0:0,0:0:0:0:
348,200,9881,2,0,B|360:112,1,70
416,240,10154,1,0,0:0:0:0:
272,232,10290,2,0,B|256:308,1,70,8|2,0:0|0:0,0:0:0:0:
188,352,10563,2,0,B|116:376|44:332,1,140,0|8,0:0|0:0,0:0:0:0:
24,256,10972,5,0,0:0:0:0:
88,200,11108,2,0,B|112:240|104:284,1,70
164,184,11381,2,0,B|140:144|148:100,1,70,8|8,0:0|0:0,0:0:0:0:
228,132,11654,2,0,B|316:160|364:92,1,140,0|8,0:0|0:0,0:0:0:0:
372,28,12063,5,0,0:0:0:0:
428,80,12199,2,0,B|464:144,1,70
420,204,12472,2,0,B|460:288,1,70,8|2,0:0|0:0,0:0:0:0:
404,332,12744,2,0,B|336:320|336:320|260:328,1,140,0|8,0:0|0:0,0:0:0:0:
240,332,13085,1,4,0:0:0:0:
220,336,13153,1,2,0:0:0:0:
208,248,13290,6,0,B|300:232,1,70,4|0,0:0|0:0,0:0:0:0:
112,216,13563,2,0,B|20:232,1,70,8|8,0:0|0:0,0:0:0:0:
180,164,13835,2,0,B|260:176|304:96,1,140,0|8,0:0|0:0,0:0:0:0:
297,106,14244,1,0,0:0:0:0:
272,28,14381,6,0,B|320:16|348:40,1,70
320,180,14653,2,0,B|272:192|244:168,1,70,8|2,0:0|0:0,0:0:0:0:
224,96,14926,2,0,B|160:120|160:188|200:236,1,140,0|8,0:0|0:0,0:0:0:0:
364,256,15335,5,0,0:0:0:0:
424,200,15471,2,0,B|460:272,1,70
408,332,15744,2,0,B|352:360|300:316|300:316|244:324,1,140,8|2,0:0|0:0,0:0:0:0:
196,340,16153,1,0,0:0:0:0:
176,344,16221,1,0,0:0:0:0:
156,348,16290,2,0,B|112:356|64:348,1,70,8|0,0:0|0:0,0:0:0:0:
108,268,16562,6,0,B|56:272|24:244,1,70
80,184,16835,2,0,B|28:156|16:124,1,70,8|2,0:0|0:0,0:0:0:0:
96,96,17108,2,0,B|84:56|84:52,2,35,4|2|2,0:0|0:0|0:0,0:0:0:0:
156,156,17380,2,0,B|196:172|232:152,1,70,8|0,0:0|0:0,0:0:0:0:
252,236,17653,2,0,B|304:220|352:244,1,70
384,288,17926,2,0,B|316:240|360:144,1,140,8|4,0:0|0:0,0:0:0:0:
424,208,18335,6,0,B|468:228|464:292,1,70,0|8,0:0|0:0,0:0:0:0:
384,288,18608,2,0,B|412:368,2,70
304,316,19017,2,0,B|276:295|293:250,1,70,8|2,0:0|0:0,0:0:0:0:
340,184,19289,6,0,B|380:148|380:148|376:56,1,140,0|8,0:0|0:0,0:0:0:0:
216,68,19698,1,0,0:0:0:0:
216,68,19835,2,0,B|220:156,1,70
300,96,20107,2,0,B|296:16,1,70,8|8,0:0|0:0,0:0:0:0:
156,192,20380,6,0,B|116:224|116:224|112:292|168:312,1,140,0|8,0:0|0:0,0:0:0:0:
208,256,20789,1,0,0:0:0:0:
336,168,20925,2,0,B|376:200|376:200|380:268|324:288,1,140,0|8,0:0|0:0,0:0:0:0:
284,232,21335,1,2,0:0:0:0:
264,308,21471,2,0,B|264:376,2,70,0|0|8,0:0|0:0|0:0,0:0:0:0:
208,256,21880,6,0,B|180:332,1,70,0|0,0:0|0:0,0:0:0:0:
176,184,22153,2,0,B|128:236,2,70,0|8|8,0:0|0:0|0:0,0:0:0:0:
168,108,22562,2,0,B|204:68|260:72|260:72|308:116,1,140,4|8,0:0|0:0,0:0:0:0:
236,156,22971,1,0,0:0:0:0:
440,180,23107,6,0,B|404:140|348:144|348:144|300:188,1,140,0|8,0:0|0:0,0:0:0:0:
372,228,23516,1,0,0:0:0:0:
444,256,23653,2,0,B|468:328,1,70
384,304,23925,1,2,0:0:0:0:
380,320,23993,1,4,0:0:0:0:
376,336,24062,1,2,0:0:0:0:
292,328,24198,6,0,B|256:344|200:320,1,70,0|0,0:0|0:0,0:0:0:0:
192,200,24471,2,0,B|228:184|284:208,1,70,8|8,0:0|0:0,0:0:0:0:
160,276,24743,2,0,B|136:320|136:320|36:332,1,140,0|8,0:0|0:0,0:0:0:0:
0,236,25152,2,0,B|80:228,1,70
192,144,25425,2,0,B|112:172,2,70,0|8|2,0:0|0:0|0:0,0:0:0:0:
232,72,25834,6,0,B|288:104|292:156|256:212,1,140,0|8,0:0|0:0,0:0:0:0:
192,288,26243,2,0,B|184:236|204:204,1,70,2|8,0:0|0:0,0:0:0:0:
268,320,26516,1,2,0:0:0:0:
292,316,26584,1,4,0:0:0:0:
316,312,26652,1,2,0:0:0:0:
340,308,26720,1,4,0:0:0:0:
364,304,26789,1,2,0:0:0:0:
352,228,26925,6,0,B|440:212,1,70,4|0,0:0|0:0,0:0:0:0:
420,140,27198,2,0,B|496:128,1,70,2|0,0:0|0:0,0:0:0:0:
492,52,27470,2,0,B|428:60|428:60|356:32,1,140,8|0,0:0|0:0,0:0:0:0:
280,48,27879,5,0,0:0:0:0:
212,84,28016,2,0,B|116:48,1,70,0|2,0:0|0:0,0:0:0:0:
100,120,28288,2,0,B|4:84,1,70,0|2,0:0|0:0,0:0:0:0:
176,160,28561,2,0,B|228:180|228:180|248:232|204:288,1,140,8|0,0:0|0:0,0:0:0:0:
148,236,28970,1,0,0:0:0:0:
100,296,29107,6,0,B|64:260|72:228,1,70,0|2,0:0|0:0,0:0:0:0:
308,140,29379,2,0,B|344:176|336:208,1,70,0|2,0:0|0:0,0:0:0:0:
280,308,29652,2,0,B|244:344|211:335,1,70,8|2,0:0|0:0,0:0:0:0:
128,128,29925,2,0,B|164:92|196:100,1,70,0|2,0:0|0:0,0:0:0:0:
188,176,30197,5,0,0:0:0:0:
116,204,30334,1,0,0:0:0:0:
188,176,30470,2,0,B|208:236|156:296|96:280,2,140,0|8|2,0:0|0:0|0:0,0:0:0:0:
125,281,31288,5,0,0:0:0:0:
72,264,31425,1,2,0:0:0:0:
40,216,31561,1,0,0:0:0:0:
56,160,31697,1,2,0:0:0:0:
104,132,31834,2,0,B|164:120|192:184,1,104.999996870756,12|0,0:0|0:0,0:0:0:0:
386,281,32243,5,2,0:0:0:0:
440,264,32379,1,0,0:0:0:0:
472,216,32515,1,2,0:0:0:0:
456,160,32652,1,0,0:0:0:0:
408,132,32788,2,0,B|328:148,2,70,2|12|0,0:0|0:0|0:0,0:0:0:0:
280,96,33197,6,0,B|204:116|128:64,1,140
96,16,33606,1,2,0:0:0:0:
76,92,33743,2,0,B|32:144|48:232,1,140,0|8,0:0|0:0,0:0:0:0:
112,264,34152,2,0,B|132:232|112:188,1,70,2|0,0:0|0:0,0:0:0:0:
46,224,34424,1,2,0:0:0:0:
48,300,34561,2,0,B|48:344|92:372,1,70,0|2,0:0|0:0,0:0:0:0:
188,260,34833,6,0,B|188:216|144:188,1,70,0|2,0:0|0:0,0:0:0:0:
160,328,35106,2,0,B|228:360|320:316,1,140,8|2,0:0|0:0,0:0:0:0:
452,316,35651,2,0,B|360:300,1,70,0|2,0:0|0:0,0:0:0:0:
340,240,35924,1,0,0:0:0:0:
340,240,36060,1,2,0:0:0:0:
416,236,36197,2,0,B|472:248|472:248|504:208|480:156,1,140,8|0,0:0|0:0,0:0:0:0:
408,156,36606,5,0,0:0:0:0:
264,76,36742,2,0,B|220:116|220:116|240:208,1,140
308,160,37151,2,0,B|328:244,1,70,2|8,0:0|0:0,0:0:0:0:
256,268,37424,2,0,B|240:348,2,70,2|0|0,0:0|0:0|0:0,0:0:0:0:
172,300,37833,5,0,0:0:0:0:
148,308,37901,1,0,0:0:0:0:
124,316,37969,1,2,0:0:0:0:
76,256,38106,2,0,B|8:280,1,70,0|2,0:0|0:0,0:0:0:0:
48,184,38378,2,0,B|92:168|92:168|152:184|152:248,1,140,8|0,0:0|0:0,0:0:0:0:
76,256,38787,1,0,0:0:0:0:
48,184,38924,6,0,B|96:152|136:192,1,70,0|2,0:0|0:0,0:0:0:0:
144,104,39197,2,0,B|192:124|188:184,1,70,0|2,0:0|0:0,0:0:0:0:
168,232,39469,2,0,B|224:292|312:252,1,140,8|2,0:0|0:0,0:0:0:0:
388,188,40015,5,0,0:0:0:0:
444,192,40151,1,2,0:0:0:0:
488,228,40287,1,0,0:0:0:0:
500,284,40424,1,2,0:0:0:0:
476,336,40560,2,0,B|432:356|432:356|376:356,1,104.999996870756,8|4,0:0|0:0,0:0:0:0:
240,300,40969,5,2,0:0:0:0:
184,296,41105,1,0,0:0:0:0:
140,260,41242,1,2,0:0:0:0:
128,204,41378,1,0,0:0:0:0:
152,152,41515,2,0,B|240:132,1,70,2|8,0:0|0:0,0:0:0:0:
360,148,41787,2,0,B|280:168,1,70,2|0,0:0|0:0,0:0:0:0:
280,88,42060,6,0,B|340:140|316:244,1,140,0|2,0:0|0:0,0:0:0:0:
321,215,42401,1,0,0:0:0:0:
321,215,42469,1,0,0:0:0:0:
252,184,42605,2,0,B|240:232|268:272,1,70,2|8,0:0|0:0,0:0:0:0:
324,292,42878,2,0,B|348:336|336:376,1,70
264,340,43151,1,2,0:0:0:0:
196,304,43287,1,0,0:0:0:0:
48,256,43560,6,0,B|32:192|32:192|88:108,1,140,0|8,0:0|0:0,0:0:0:0:
188,80,43969,2,8,B|140:152,1,70
256,52,44242,1,2,0:0:0:0:
328,88,44378,6,0,B|384:132|448:108,1,104.999996870756,4|8,0:0|0:0,0:0:0:0:
500,84,44787,1,0,0:0:0:0:
444,140,44923,2,0,B|424:200|456:260,1,104.999996870756,2|4,0:0|0:0,0:0:0:0:
488,312,45332,1,2,0:0:0:0:
408,308,45469,2,0,B|336:332,1,52.4999984353781
240,276,45741,2,0,B|304:288,1,52.4999984353781
164,296,46014,2,0,B|120:332|40:312,1,104.999996870756,8|2,0:0|0:0,0:0:0:0:
52,160,46560,6,0,B|84:200,1,52.4999984353781,0|2,0:0|0:0,0:0:0:0:
140,148,46832,2,0,B|196:184,1,52.4999984353781,0|2,0:0|0:0,0:0:0:0:
256,140,47105,2,0,B|328:160|372:132,1,104.999996870756,8|4,0:0|0:0,0:0:0:0:
408,76,47514,1,8,0:0:0:0:
408,76,47582,1,0,0:0:0:0:
408,76,47650,2,0,B|456:112|428:192,1,104.999996870756,2|2,0:0|0:0,0:0:0:0:
360,264,48059,6,0,B|360:224|380:200,1,52.4999984353781,4|8,0:0|0:0,0:0:0:0:
440,252,48332,1,8,0:0:0:0:
444,268,48400,1,0,0:0:0:0:
448,284,48468,1,4,0:0:0:0:
452,300,48537,1,2,0:0:0:0:
456,316,48605,1,2,0:0:0:0:
380,340,48741,5,0,0:0:0:0:
328,340,49014,1,0,0:0:0:0:
276,332,49287,2,0,B|232:308|172:320,1,104.999996870756,12|0,0:0|0:0,0:0:0:0:
132,44,49832,5,0,0:0:0:0:
184,44,50105,1,0,0:0:0:0:
236,52,50377,2,0,B|280:76|340:64,1,104.999996870756,12|0,0:0|0:0,0:0:0:0:
144,108,50923,6,0,B|112:136|112:136|124:208,1,104.999996870756
192,232,51332,1,0,0:0:0:0:
124,268,51468,2,0,B|96:336,1,52.4999984353781,4|0,0:0|0:0,0:0:0:0:
188,304,51741,2,0,B|204:364,1,52.4999984353781
260,272,52014,6,0,B|320:340,1,70,0|2,0:0|0:0,0:0:0:0:
316,220,52286,2,0,B|400:232,1,70,4|2,0:0|0:0,0:0:0:0:
324,144,52559,1,8,0:0:0:0:
360,132,52627,1,8,0:0:0:0:
396,120,52695,1,2,0:0:0:0:
432,108,52763,1,4,0:0:0:0:
468,96,52832,1,4,0:0:0:0:
256,60,53104,6,0,B|200:76,1,52.4999984353781
52,104,53513,2,0,B|104:116,1,52.4999984353781,2|8,0:0|0:0,0:0:0:0:
180,132,53786,1,2,0:0:0:0:
244,180,53922,2,0,B|272:224|272:224|252:288,1,104.999996870756,4|0,0:0|0:0,0:0:0:0:
100,284,54332,6,0,B|140:208,1,70,2|0,0:0|0:0,0:0:0:0:
180,304,54604,2,0,B|140:376,1,70,2|8,0:0|0:0,0:0:0:0:
64,364,54877,1,0,0:0:0:0:
252,344,55013,2,0,B|320:360|392:328,1,140,2|4,0:0|0:0,0:0:0:0:
468,332,55422,6,0,B|496:272,1,52.4999984353781
444,220,55695,2,0,B|472:164,1,52.4999984353781,2|8,0:0|0:0,0:0:0:0:
416,112,55968,2,0,B|360:136|296:112,1,104.999996870756,4|2,0:0|0:0,0:0:0:0:
248,76,56377,1,0,0:0:0:0:
252,156,56513,2,0,B|240:216,1,52.4999984353781,4|2,0:0|0:0,0:0:0:0:
76,224,56786,2,0,B|88:164,1,52.4999984353781,4|2,0:0|0:0,0:0:0:0:
272,184,57059,2,0,B|260:244,1,52.4999984353781
96,252,57331,6,0,B|108:192,1,52.4999984353781
112,164,57740,1,0,0:0:0:0:
116,124,58013,2,0,B|168:140|224:124,1,104.999996870756,12|0,0:0|0:0,0:0:0:0:
404,176,58558,5,0,0:0:0:0:
400,220,58831,1,0,0:0:0:0:
396,260,59104,2,0,B|344:244|288:260,1,104.999996870756,12|0,0:0|0:0,0:0:0:0:
256,104,59649,5,0,0:0:0:0:
256,164,59922,1,0,0:0:0:0:
256,224,60195,2,0,B|256:280,1,52.4999984353781,12|0,0:0|0:0,0:0:0:0:
316,380,60467,2,0,B|316:328,1,52.4999984353781,8|0,0:0|0:0,0:0:0:0:
180,280,60740,6,0,B|180:364,1,70
100,328,61013,2,8,B|76:368|80:360,2,35
36,272,61285,2,0,B|12:236|12:204,1,70
116,224,61558,2,0,B|144:172|128:144,1,70,8|0,0:0|0:0,0:0:0:0:
84,88,61831,6,0,B|164:120|232:80,1,140,4|0,0:0|0:0,0:0:0:0:
428,296,62376,2,0,B|348:264|280:304,1,140,8|0,0:0|0:0,0:0:0:0:
60,240,62922,6,0,B|140:206|159:129,1,140,8|0,0:0|0:0,0:0:0:0:
451,143,63467,2,0,B|371:177|352:254,1,140,8|0,0:0|0:0,0:0:0:0:
256,192,64012,5,8,0:0:0:0:
368,108,64285,5,2,0:0:0:0:
336,64,64422,1,0,0:0:0:0:
288,36,64558,1,2,0:0:0:0:
224,36,64694,1,0,0:0:0:0:
176,64,64831,1,2,0:0:0:0:
144,108,64967,1,0,0:0:0:0:
256,192,65103,6,0,B|256:264,1,70,4|0,0:0|0:0,0:0:0:0:
256,292,65512,1,0,0:0:0:0:
256,320,65649,1,2,0:0:0:0:
456,52,66194,6,0,B|416:104|416:104|324:128,1,140,4|8,0:0|0:0,0:0:0:0:
220,60,66603,2,0,B|292:72,1,70
176,124,66876,2,0,B|104:136,2,70,0|8|0,0:0|0:0|0:0,0:0:0:0:
248,172,67285,6,0,B|312:196|312:196|340:268,1,140,0|8,0:0|0:0,0:0:0:0:
200,336,67694,2,0,B|168:252,2,70
276,316,68103,2,0,B|304:384,1,70,8|2,0:0|0:0,0:0:0:0:
360,316,68376,6,0,B|380:360|380:360|444:368|472:324,1,140,0|8,0:0|0:0,0:0:0:0:
400,192,68785,1,2,0:0:0:0:
400,192,68921,2,0,B|380:148|380:148|316:140|296:173,1,140,0|8,0:0|0:0,0:0:0:0:
252,244,69330,5,0,0:0:0:0:
176,284,69467,1,0,0:0:0:0:
112,232,69603,1,0,0:0:0:0:
148,156,69739,1,8,0:0:0:0:
232,168,69876,1,0,0:0:0:0:
128,280,70012,5,0,0:0:0:0:
104,184,70148,1,0,0:0:0:0:
192,136,70285,1,8,0:0:0:0:
272,200,70421,1,8,0:0:0:0:
228,288,70557,6,0,B|236:336|296:340|296:340|348:308,1,140,0|8,0:0|0:0,0:0:0:0:
364,236,70966,1,0,0:0:0:0:
424,296,71103,2,0,B|484:252,2,70,0|0|8,0:0|0:0|0:0,0:0:0:0:
452,180,71512,1,0,0:0:0:0:
416,104,71648,6,0,B|344:124|344:124|268:100,1,140,0|8,0:0|0:0,0:0:0:0:
220,48,72057,2,0,B|140:72,1,70
24,100,72330,2,0,B|92:120,1,70,0|8,0:0|0:0,0:0:0:0:
108,200,72603,1,0,0:0:0:0:
168,140,72739,6,0,B|228:188|320:160,1,140,0|8,0:0|0:0,0:0:0:0:
356,100,73148,2,0,B|392:136|384:168,1,70
368,244,73421,2,0,B|400:320,2,70,0|8|2,0:0|0:0|0:0,0:0:0:0:
348,368,73830,6,0,B|284:344|200:368,1,140,0|8,0:0|0:0,0:0:0:0:
160,296,74239,2,0,B|88:316,1,70,2|0,0:0|0:0,0:0:0:0:
184,220,74512,2,0,B|264:196,2,70,0|8|8,0:0|0:0|0:0,0:0:0:0:
104,232,74921,6,0,B|44:204|64:128,1,104.999996870756,4|8,0:0|0:0,0:0:0:0:
60,145,75466,1,8,0:0:0:0:
60,145,75602,1,0,0:0:0:0:
60,145,75739,1,0,0:0:0:0:
408,152,76011,6,0,B|468:180|448:256,1,104.999996870756,0|8,0:0|0:0,0:0:0:0:
451,238,76557,1,8,0:0:0:0:
451,238,76693,1,0,0:0:0:0:
372,228,76829,2,0,B|336:252|336:252|328:328,1,104.999996870756
388,364,77239,1,0,0:0:0:0:
256,328,77375,6,0,B|206:362,1,52.4999984353781
80,320,77648,2,0,B|129:285,1,52.4999984353781,8|0,0:0|0:0,0:0:0:0:
144,216,77920,2,0,B|148:152|80:140,2,104.999996870756
64,220,78602,1,0,0:0:0:0:
144,216,78738,2,0,B|216:252|312:212,1,157.499995306134,8|2,0:0|0:0,0:0:0:0:
364,180,79284,6,0,B|400:136|388:72,1,104.999996870756
148,180,79829,2,0,B|112:136|124:72,1,104.999996870756,8|0,0:0|0:0,0:0:0:0:
256,88,80238,5,0,0:0:0:0:
256,168,80375,1,0,0:0:0:0:
256,168,80647,2,0,B|256:188|256:188|264:196|264:196|248:196|248:196|256:196|256:196|256:260,1,104.999996870756,0|8,0:0|0:0,0:0:0:0:
256,245,81193,1,0,0:0:0:0:
400,312,81465,2,0,B|328:324|288:308,1,104.999996870756,8|0,0:0|0:0,0:0:0:0:
112,312,82011,2,0,B|184:324|224:308,1,104.999996870756,8|0,0:0|0:0,0:0:0:0:
256,48,82556,5,8,0:0:0:0:
256,60,82624,1,8,0:0:0:0:
256,72,82693,1,8,0:0:0:0:
256,84,82761,1,8,0:0:0:0:
256,96,82829,1,4,0:0:0:0:
256,108,82897,1,4,0:0:0:0:
256,120,82965,1,2,0:0:0:0:
256,132,83033,1,2,0:0:0:0:
256,144,83102,2,8,B|256:224,1,70
332,312,83374,2,0,B|332:232,1,70
172,192,83647,6,0,B|136:280|188:356,1,140,4|10,0:0|0:0,0:0:0:0:
252,356,84056,1,0,0:0:0:0:
248,272,84192,2,0,B|272:240|308:232,1,70
344,156,84465,2,0,B|400:172|440:144,1,70,10|0,0:0|0:0,0:0:0:0:
384,80,84738,6,0,B|364:152|408:236,1,140,0|10,0:0|0:0,0:0:0:0:
464,268,85147,2,0,B|480:232|472:192,1,70
272,204,85420,2,0,B|256:168|264:128,1,70,0|10,0:0|0:0,0:0:0:0:
280,52,85692,1,0,0:0:0:0:
200,80,85829,6,0,B|180:144|180:144|92:192,1,140,0|10,0:0|0:0,0:0:0:0:
28,128,86238,2,0,B|100:92,1,70
40,204,86510,1,0,0:0:0:0:
100,264,86647,6,0,B|24:304,1,70,10|0,0:0|0:0,0:0:0:0:
156,320,86919,6,0,B|184:348|224:352|224:352|260:336|288:292,1,140,0|10,0:0|0:0,0:0:0:0:
212,256,87329,1,0,0:0:0:0:
292,232,87465,2,0,B|368:244,1,70
492,184,87738,2,0,B|420:200,1,70,10|8,0:0|0:0,0:0:0:0:
352,160,88010,6,0,B|316:112|316:112|336:20,1,140,0|10,0:0|0:0,0:0:0:0:
400,96,88419,1,0,0:0:0:0:
248,64,88556,2,0,B|224:144,1,70
144,144,88828,2,0,B|116:228,1,70,10|0,0:0|0:0,0:0:0:0:
140,292,89101,6,0,B|216:276|272:328,1,140,0|10,0:0|0:0,0:0:0:0:
269,326,89510,1,0,0:0:0:0:
196,368,89647,2,0,B|180:292|232:236,1,140,0|10,0:0|0:0,0:0:0:0:
300,188,90056,1,0,0:0:0:0:
368,140,90192,6,0,B|392:184|368:236,1,70
224,164,90465,2,0,B|236:120|292:104,1,70,10|0,0:0|0:0,0:0:0:0:
300,188,90737,2,0,B|280:264,2,70,0|0|10,0:0|0:0|0:0,0:0:0:0:
208,288,91146,5,0,0:0:0:0:
200,304,91215,1,0,0:0:0:0:
192,320,91283,2,0,B|112:352|36:328,1,140,0|10,0:0|0:0,0:0:0:0:
54,333,91692,1,0,0:0:0:0:
88,168,91964,2,8,B|120:212|108:256,1,70
28,228,92237,1,8,0:0:0:0:
184,128,92374,6,0,B|208:188|188:248,1,104.999996870756,4|8,0:0|0:0,0:0:0:0:
192,230,92919,1,8,0:0:0:0:
192,230,93055,1,0,0:0:0:0:
192,230,93192,1,0,0:0:0:0:
412,312,93464,6,0,B|388:252|408:192,1,104.999996870756,0|8,0:0|0:0,0:0:0:0:
403,209,94010,1,8,0:0:0:0:
403,209,94146,1,0,0:0:0:0:
468,160,94282,2,0,B|428:112,1,52.4999984353781
356,136,94555,2,0,B|316:172|232:152,1,104.999996870756,0|0,0:0|0:0,0:0:0:0:
112,44,94964,6,0,B|172:76|192:124,1,104.999996870756
192,192,95373,1,0,0:0:0:0:
260,332,95646,2,0,B|284:296|236:256|272:220,2,104.999996870756,0|0|10,0:0|0:0|0:0,0:0:0:0:
376,124,96737,6,0,B|308:120|296:52,1,104.999996870756,8|0,0:0|0:0,0:0:0:0:
136,124,97282,2,0,B|204:120|216:52,1,104.999996870756,8|0,0:0|0:0,0:0:0:0:
256,132,97691,1,0,0:0:0:0:
256,212,97828,2,0,B|280:248|232:288|268:324,3,104.999996870756,0|0|8|0,0:0|0:0|0:0|0:0,0:0:0:0:
104,152,98918,6,0,B|64:188|72:260,1,104.999996870756,10|0,0:0|0:0,0:0:0:0:
408,232,99464,2,0,B|448:196|440:124,1,104.999996870756,10|0,0:0|0:0,0:0:0:0:
296,92,100009,6,0,B|260:52|188:60,1,104.999996870756,10|0,0:0|0:0,0:0:0:0:
216,292,100555,2,0,B|252:332|324:324,1,104.999996870756,10|0,0:0|0:0,0:0:0:0:
392,72,101100,5,4,0:0:0:0:
424,136,101236,1,4,0:0:0:0:
428,204,101373,1,2,0:0:0:0:
400,268,101509,1,2,0:0:0:0:
348,316,101645,2,0,B|276:296|196:320,1,140,8|0,0:0|0:0,0:0:0:0:
176,380,102054,6,0,B|108:344|116:256,1,140,4|2,0:0|0:0,0:0:0:0:
196,232,102464,2,0,B|236:156|188:76,1,140,8|2,0:0|0:0,0:0:0:0:
60,104,102873,1,2,0:0:0:0:
176,24,103009,1,2,0:0:0:0:
128,156,103145,1,2,0:0:0:0:
84,24,103282,5,4,0:0:0:0:
128,80,103418,1,4,0:0:0:0:
196,104,103554,1,2,0:0:0:0:
264,96,103691,1,2,0:0:0:0:
328,68,103827,2,0,B|408:96|392:188,1,140,8|0,0:0|0:0,0:0:0:0:
324,160,104236,2,0,B|352:80|444:96,1,140
433,94,104645,1,8,0:0:0:0:
252,208,104918,5,8,0:0:0:0:
280,288,105054,1,8,0:0:0:0:
372,288,105191,1,8,0:0:0:0:
396,208,105327,1,8,0:0:0:0:
324,228,105463,5,4,0:0:0:0:
280,288,105600,1,4,0:0:0:0:
216,320,105736,1,2,0:0:0:0:
148,328,105872,1,2,0:0:0:0:
80,312,106009,2,0,B|36:280|36:280|24:224|80:180,1,140,8|0,0:0|0:0,0:0:0:0:
196,136,106418,2,0,B|240:168|240:168|252:224|196:268,1,140
60,200,106827,1,8,0:0:0:0:
188,52,107099,6,0,B|256:24|332:52,1,140,4|4,0:0|0:0,0:0:0:0:
388,80,107781,1,4,0:0:0:0:
432,132,107918,1,2,0:0:0:0:
452,200,108054,1,2,0:0:0:0:
444,268,108190,2,0,B|376:296,1,70,8|0,0:0|0:0,0:0:0:0:
88,304,108463,6,8,L|164:328,1,70
56,240,108736,1,8,0:0:0:0:
44,172,108872,1,8,0:0:0:0:
56,104,109008,1,8,0:0:0:0:
108,56,109145,1,8,0:0:0:0:
256,100,109417,6,2,B|264:124|248:140|260:172,2,70
424,56,109826,6,0,B|464:96|464:96|456:188,1,140,4|0,0:0|0:0,0:0:0:0:
308,256,110372,2,0,B|320:188,1,70,8|0,0:0|0:0,0:0:0:0:
320,187,110645,1,0,0:0:0:0:
320,187,110781,1,2,0:0:0:0:
236,276,110917,6,0,B|164:304|80:260,1,140
116,100,111463,2,0,B|188:72|272:116,1,140,8|0,0:0|0:0,0:0:0:0:
88,328,112008,6,0,B|48:288|48:288|56:196,1,140
204,128,112554,2,0,B|192:196,1,70,8|0,0:0|0:0,0:0:0:0:
191,196,112826,1,0,0:0:0:0:
192,197,112963,1,2,0:0:0:0:
276,108,113099,6,0,B|348:80|432:124,1,140
396,284,113644,2,0,B|324:312|240:268,1,140,8|0,0:0|0:0,0:0:0:0:
112,200,114190,5,0,0:0:0:0:
192,197,114326,1,2,0:0:0:0:
148,124,114462,2,0,B|232:92|272:176,1,140,0|8,0:0|0:0,0:0:0:0:
192,196,114871,1,2,0:0:0:0:
266,165,115008,2,0,B|280:204|264:240,1,70,0|2,0:0|0:0,0:0:0:0:
196,280,115281,2,0,B|184:328|204:360,1,70,0|2,0:0|0:0,0:0:0:0:
272,308,115553,2,0,B|320:340|408:328,2,140,0|8|0,0:0|0:0|0:0,0:0:0:0:
320,236,116235,5,0,0:0:0:0:
400,212,116371,2,0,B|448:196|448:196|476:96,1,140
400,24,116780,2,0,B|384:96,1,70,2|8,0:0|0:0,0:0:0:0:
284,180,117053,2,0,B|300:108,2,70,2|0|2,0:0|0:0|0:0,0:0:0:0:
204,212,117462,2,0,B|136:244|56:200,1,140,0|2,0:0|0:0,0:0:0:0:
272,264,118008,2,0,B|340:232|420:276,1,140,8|0,0:0|0:0,0:0:0:0:
96,292,118553,6,0,B|132:196,1,70,2|2,0:0|0:0,0:0:0:0:
204,212,118826,2,0,B|236:132,1,70,0|2,0:0|0:0,0:0:0:0:
300,104,119098,2,0,B|368:144|460:88,1,140,8|2,0:0|0:0,0:0:0:0:
256,32,119644,5,4,0:0:0:0:
212,84,119780,1,2,0:0:0:0:
144,92,119916,1,0,0:0:0:0:
88,52,120053,1,2,0:0:0:0:
128,108,120189,1,8,0:0:0:0:
120,176,120326,1,2,0:0:0:0:
60,212,120462,1,0,0:0:0:0:
416,92,120735,6,0,B|380:188,1,70,2|2,0:0|0:0,0:0:0:0:
308,172,121007,2,0,B|276:252,1,70,0|2,0:0|0:0,0:0:0:0:
212,280,121280,2,0,B|144:240|52:296,1,140,8|2,0:0|0:0,0:0:0:0:
256,352,121825,5,4,0:0:0:0:
300,300,121962,1,2,0:0:0:0:
368,292,122098,1,0,0:0:0:0:
424,332,122234,1,2,0:0:0:0:
384,276,122371,1,8,0:0:0:0:
392,208,122507,1,2,0:0:0:0:
452,172,122644,1,0,0:0:0:0:
388,48,122916,6,0,B|364:84|324:96,1,70,0|2,0:0|0:0,0:0:0:0:
124,48,123189,2,0,B|148:84|188:96,1,70,0|2,0:0|0:0,0:0:0:0:
256,140,123462,2,0,B|244:160|264:180|252:216,2,70,8|2|0,0:0|0:0|0:0,0:0:0:0:
180,268,124007,1,0,0:0:0:0:
256,308,124143,1,2,0:0:0:0:
332,268,124280,1,0,0:0:0:0:
460,156,124552,6,0,B|404:100|324:124,1,140,8|0,0:0|0:0,0:0:0:0:
272,180,124961,2,0,B|200:208,2,70,2|0|2,0:0|0:0|0:0,0:0:0:0:
216,120,125371,2,0,B|132:128,2,70,0|2|8,0:0|0:0|0:0,0:0:0:0:
176,48,125780,2,0,B|104:36,2,70,2|0|2,0:0|0:0|0:0,0:0:0:0:
256,48,126189,6,0,B|296:64|296:108,1,70
296,144,126598,1,2,0:0:0:0:
276,184,126734,2,0,B|212:212,1,70,0|4,0:0|0:0,0:0:0:0:
204,216,127279,5,4,0:0:0:0:
256,192,144732,12,4,146914,0:0:0:0:
68,80,147187,5,4,0:0:0:0:
132,136,147323,1,4,0:0:0:0:
212,160,147459,2,0,B|296:180|352:136,1,140,8|2,0:0|0:0,0:0:0:0:
392,68,147868,2,0,B|448:104|444:196,1,140,4|2,0:0|0:0,0:0:0:0:
408,372,148278,2,0,B|352:336|356:244,1,140,8|0,0:0|0:0,0:0:0:0:
384,168,148687,5,8,0:0:0:0:
332,236,148823,1,4,0:0:0:0:
256,272,148959,1,2,0:0:0:0:
180,236,149096,2,0,B|131:214|131:214|119:146|165:123,1,140,4|0,0:0|0:0,0:0:0:0:
304,156,149505,2,0,B|350:130|350:130|356:61|308:42,1,140,8|2,0:0|0:0,0:0:0:0:
256,4,149914,6,0,B|209:29|209:29|203:98|251:117,1,140,8|8,0:0|0:0,0:0:0:0:
392,168,150323,2,8,B|408:128|388:100,1,70
120,216,150596,2,8,B|104:256|124:284,1,70
192,332,150868,5,8,0:0:0:0:
272,352,151005,1,8,0:0:0:0:
356,348,151141,1,8,0:0:0:0:
432,320,151277,6,0,B|448:240,1,70,4|0,0:0|0:0,0:0:0:0:
364,240,151823,2,0,B|348:160,1,70,8|0,0:0|0:0,0:0:0:0:
456,168,152368,2,0,B|472:88,1,70,8|0,0:0|0:0,0:0:0:0:
368,84,152913,2,0,B|352:4,1,70,8|8,0:0|0:0,0:0:0:0:
256,44,153323,5,8,0:0:0:0:
157,15,153459,6,0,B|144:84,1,70,8|0,0:0|0:0,0:0:0:0:
42,99,154004,2,0,B|56:168,1,70,8|0,0:0|0:0,0:0:0:0:
161,171,154550,2,0,B|148:240,1,70,8|0,0:0|0:0,0:0:0:0:
66,251,155095,2,0,B|80:320,1,70,8|8,0:0|0:0,0:0:0:0:
160,336,155504,5,8,0:0:0:0:
160,336,155641,2,0,B|208:316|280:328,1,104.999996870756,8|0,0:0|0:0,0:0:0:0:
340,352,156050,1,0,0:0:0:0:
324,276,156186,2,0,B|360:224,1,52.4999984353781,8|0,0:0|0:0,0:0:0:0:
280,208,156459,2,0,B|260:160,1,52.4999984353781
336,144,156731,2,0,B|388:156|448:132,1,104.999996870756,8|0,0:0|0:0,0:0:0:0:
168,88,157277,6,0,B|116:100|56:76,1,104.999996870756,8|0,0:0|0:0,0:0:0:0:
8,24,157686,1,0,0:0:0:0:
36,96,157822,2,0,B|56:164,1,52.4999984353781,8|0,0:0|0:0,0:0:0:0:
28,224,158095,2,0,B|52:288,1,52.4999984353781
112,204,158368,2,0,B|152:244|212:248,1,104.999996870756,8|0,0:0|0:0,0:0:0:0:
400,180,158913,2,0,B|360:140|300:136,1,104.999996870756,8|0,0:0|0:0,0:0:0:0:
228,136,159322,5,0,0:0:0:0:
272,204,159458,2,0,B|288:244|276:272,1,52.4999984353781,8|0,0:0|0:0,0:0:0:0:
360,260,159731,2,0,B|344:304|352:328,1,52.4999984353781,8|8,0:0|0:0,0:0:0:0:
428,308,160004,2,0,B|480:272|464:208,1,104.999996870756,10|0,0:0|0:0,0:0:0:0:
465,217,160413,1,0,0:0:0:0:
465,217,160549,1,10,0:0:0:0:
256,48,160822,5,0,0:0:0:0:
84,76,161095,2,0,B|32:112|48:176,1,104.999996870756,10|0,0:0|0:0,0:0:0:0:
46,166,161504,1,0,0:0:0:0:
46,166,161640,1,10,0:0:0:0:
256,336,161913,5,0,0:0:0:0:
328,152,162185,2,0,B|344:188|336:224,1,52.4999984353781,8|0,0:0|0:0,0:0:0:0:
184,232,162458,2,0,B|168:196|176:160,1,52.4999984353781
339,204,162731,2,0,B|344:218|328:254,1,52.4999984353781,8|0,0:0|0:0,0:0:0:0:
173,180,163003,2,0,B|167:165|183:129,1,52.4999984353781
256,192,163276,6,0,B|256:80,2,104.999996870756,0|0|8,0:0|0:0|0:0,0:0:0:0:
104,48,164367,6,0,B|56:92|60:144,1,104.999996870756,8|0,0:0|0:0,0:0:0:0:
408,336,164912,2,0,B|456:292|452:240,1,104.999996870756,8|0,0:0|0:0,0:0:0:0:
59,244,165458,6,0,B|56:292|104:336,1,104.999996870756,8|0,0:0|0:0,0:0:0:0:
452,139,166003,2,0,B|456:92|408:48,1,104.999996870756,8|0,0:0|0:0,0:0:0:0:
256,44,166549,5,8,0:0:0:0:
220,100,166685,1,0,0:0:0:0:
296,108,166821,1,8,0:0:0:0:
188,156,166958,1,2,0:0:0:0:
332,168,167094,1,8,0:0:0:0:
160,212,167230,1,4,0:0:0:0:
368,236,167367,1,8,0:0:0:0:
132,272,167503,1,2,0:0:0:0:
412,300,167639,1,8,0:0:0:0:
256,344,167776,5,8,0:0:0:0:
256,324,167844,1,8,0:0:0:0:
256,304,167912,1,8,0:0:0:0:
256,284,167980,1,8,0:0:0:0:
256,264,168048,1,2,0:0:0:0:
256,244,168117,1,2,0:0:0:0:
256,224,168185,2,8,B|256:164,1,52.4999984353781
288,76,168458,2,8,B|348:116,1,52.4999984353781
412,72,168730,6,0,B|468:112|468:112|464:192,1,140,4|10,0:0|0:0,0:0:0:0:
380,220,169139,2,0,B|384:136,1,70
300,192,169412,2,0,B|296:261,2,70,0|10|0,0:0|0:0|0:0,0:0:0:0:
224,296,169821,6,0,B|160:328|60:296,1,140,0|10,0:0|0:0,0:0:0:0:
136,224,170230,2,0,B|164:184|156:140,1,70
68,164,170503,2,0,B|40:124|48:80,1,70,0|10,0:0|0:0,0:0:0:0:
228,68,170775,5,0,0:0:0:0:
316,96,170912,2,0,B|364:84|364:84|408:116|392:176,1,140,0|10,0:0|0:0,0:0:0:0:
308,188,171321,1,0,0:0:0:0:
216,156,171457,2,0,B|168:144|168:144|124:176|140:236,1,140,0|10,0:0|0:0,0:0:0:0:
228,244,171866,1,0,0:0:0:0:
164,308,172003,6,0,B|224:352,1,70
352,252,172275,2,0,B|292:296,1,70,10|0,0:0|0:0,0:0:0:0:
76,200,172548,2,0,B|147:219,1,70
456,160,172821,2,8,B|384:179,1,70,10|8,0:0|0:0,0:0:0:0:
308,136,173093,6,0,B|240:120|240:120|212:32,1,140,0|10,0:0|0:0,0:0:0:0:
308,44,173503,1,0,0:0:0:0:
152,168,173639,2,0,B|232:192,1,70
264,264,173912,2,0,B|336:284,1,70,10|0,0:0|0:0,0:0:0:0:
400,236,174184,6,0,B|456:252|456:252|476:296|424:344,1,140,0|10,0:0|0:0,0:0:0:0:
224,332,174593,1,0,0:0:0:0:
224,332,174730,2,0,B|168:316|168:316|148:272|200:224,1,140,0|10,0:0|0:0,0:0:0:0:
260,184,175139,5,0,0:0:0:0:
272,96,175275,2,0,B|304:80|344:92|344:92|360:124|336:180,1,140,0|10,0:0|0:0,0:0:0:0:
192,128,175684,1,0,0:0:0:0:
180,40,175820,2,0,B|148:24|108:36|108:36|92:68|116:124,1,140,0|10,0:0|0:0,0:0:0:0:
192,128,176230,5,0,0:0:0:0:
120,184,176366,2,0,B|92:224|104:272,1,70
260,300,176639,2,0,B|288:260|276:212,1,70,10|0,0:0|0:0,0:0:0:0:
96,144,176911,2,0,B|68:184|80:232,1,70
296,328,177184,2,8,B|324:288|312:240,1,70,10|8,0:0|0:0,0:0:0:0:
324,172,177457,6,0,B|348:120|348:120|336:76|384:16,1,140,4|10,0:0|0:0,0:0:0:0:
440,96,177866,1,0,0:0:0:0:
416,184,178002,2,0,B|380:248,1,70
440,316,178275,2,0,B|474:254,1,70,10|0,0:0|0:0,0:0:0:0:
188,172,178548,6,0,B|164:120|164:120|176:76|128:16,1,140,4|10,0:0|0:0,0:0:0:0:
72,96,178957,1,0,0:0:0:0:
96,184,179093,2,0,B|132:248,1,70
72,316,179366,2,0,B|37:254,1,70,10|8,0:0|0:0,0:0:0:0:
160,328,179638,5,0,0:0:0:0:
232,272,179775,2,0,B|260:312|248:356,2,70,0|10|0,0:0|0:0|0:0,0:0:0:0:
320,176,180184,2,0,B|304:222|327:261,2,70,0|0|10,0:0|0:0|0:0,0:0:0:0:
404,212,180593,1,0,0:0:0:0:
472,272,180729,6,0,B|512:212|468:136,1,140,0|10,0:0|0:0,0:0:0:0:
40,112,181275,2,0,B|0:172|44:248,1,140,0|10,0:0|0:0,0:0:0:0:
108,180,181684,1,0,0:0:0:0:
132,268,181820,6,0,B|184:324,1,70,10|0,0:0|0:0,0:0:0:0:
304,324,182093,2,0,B|240:260,1,70,10|0,0:0|0:0,0:0:0:0:
296,188,182365,2,0,B|345:237,1,70,10|0,0:0|0:0,0:0:0:0:
468,244,182638,2,0,B|420:192,1,70,10|0,0:0|0:0,0:0:0:0:
380,116,182911,6,0,B|328:60,1,70,10|0,0:0|0:0,0:0:0:0:
208,60,183183,2,0,B|272:124,1,70,10|0,0:0|0:0,0:0:0:0:
216,196,183456,2,0,B|166:146,1,70,10|0,0:0|0:0,0:0:0:0:
44,140,183729,2,0,B|91:191,1,70,10|0,0:0|0:0,0:0:0:0:
56,276,184002,6,0,B|112:328|208:308,1,140,8|0,0:0|0:0,0:0:0:0:
456,108,184547,2,0,B|400:56|304:76,1,140,8|0,0:0|0:0,0:0:0:0:
256,328,185092,5,8,0:0:0:0:
256,316,185161,1,8,0:0:0:0:
256,304,185229,1,8,0:0:0:0:
256,292,185297,1,8,0:0:0:0:
256,280,185365,1,4,0:0:0:0:
256,268,185433,1,4,0:0:0:0:
256,256,185501,1,4,0:0:0:0:
256,244,185570,1,4,0:0:0:0:
256,232,185638,1,2,0:0:0:0:
256,220,185706,1,2,0:0:0:0:
256,208,185774,2,8,B|256:136,1,70,0|0,0:0|0:0,0:0:0:0:
360,56,186047,2,0,L|360:144,1,70,0|0,0:0|0:0,0:0:0:0:
256,192,186251,12,0,190001,0:0:0:0:
