osu file format v12

[General]
AudioFilename: Wonderful World.mp3
AudioLeadIn: 2000
PreviewTime: 73957
Countdown: 0
SampleSet: Normal
StackLeniency: 0.7
Mode: 0
LetterboxInBreaks: 1

[Editor]
Bookmarks: 14851,31662,47955,62696,74076,91662,99420,116231,130972,267911
DistanceSpacing: 1.2
BeatDivisor: 4
GridSize: 4

[Metadata]
Title:Wonderful World
TitleUnicode:Wonderful World
Artist:Shintani Ryoko
ArtistUnicode:新谷良子
Creator:wring
Version:Hello, Good-bye
Source:
Tags:lantis frostmourne
BeatmapID:188411
BeatmapSetID:50371

[Difficulty]
HPDrainRate:6
CircleSize:4
OverallDifficulty:8
ApproachRate:9
SliderMultiplier:1.5
SliderTickRate:1

[Events]
//Background and Video events
0,0,"0801.jpg",0,0
//Break Periods
2,91861,98820
2,172551,188302
//Storyboard Layer 0 (Background)
//Storyboard Layer 1 (Fail)
//Storyboard Layer 2 (Pass)
//Storyboard Layer 3 (Foreground)
//Storyboard Sound Samples
//Background Colour Transformations
3,100,163,162,255

[TimingPoints]
627,258.620689655172,4,2,0,30,1,0
627,-200,4,2,0,30,0,0
15109,-133.333333333333,4,1,1,50,0,0
23385,-100,4,1,1,70,0,0
61014,-100,4,1,1,50,0,0
61790,-100,4,1,1,60,0,0
62114,-100,4,2,0,70,0,0
62243,-100,4,1,1,60,0,0
62695,-100,4,1,1,70,0,0
66833,-200,4,1,1,20,0,0
74075,-200,4,1,1,50,0,0
75109,-100,4,1,1,70,0,1
90109,-100,4,1,1,50,0,0
91661,-100,4,1,1,70,0,0
99290,-100,4,1,2,70,0,0
99549,-100,4,1,1,70,0,0
108471,-100,4,1,2,20,0,0
108601,-100,4,1,1,70,0,0
110540,-100,4,1,2,40,0,0
110670,-100,4,1,1,70,0,0
129290,-100,4,1,1,60,0,0
129808,-100,4,1,1,50,0,0
130325,-100,4,1,1,40,0,0
130971,-100,4,1,1,70,0,0
135109,-200,4,1,1,20,0,0
151596,-181.818181818182,4,1,1,35,0,0
152114,-166.666666666667,4,1,1,40,0,0
152631,-153.846153846154,4,1,1,45,0,0
153148,-142.857142857143,4,1,1,50,0,0
153730,-133.333333333333,4,1,1,50,0,0
153989,-133.333333333333,4,1,1,60,0,0
154247,-133.333333333333,4,1,1,70,0,0
154506,-133.333333333333,4,1,1,80,0,0
155282,-133.333333333333,4,1,1,40,0,0
155799,-100,4,1,1,70,0,1
172351,-100,4,1,1,70,0,0
188644,-100,4,1,2,70,0,0
208558,-100,4,1,1,70,0,0
209333,-100,4,1,2,70,0,0
212178,-100,4,1,1,70,0,0
212308,-100,4,1,2,70,0,0
217027,-100,4,1,3,70,0,0
217221,-100,4,1,2,70,0,0
220971,-133.333333333333,4,1,1,70,0,0
221489,-133.333333333333,4,1,1,30,0,0
222006,-83.3333333333333,4,1,1,70,0,1
229247,-83.3333333333333,4,1,1,70,0,0
230282,-83.3333333333333,4,1,1,70,0,1
238558,-83.3333333333333,4,1,2,75,0,1
251424,-83.3333333333333,4,1,1,75,0,1
253040,-100,4,1,2,70,0,0
259247,-100,4,1,2,60,0,0
261316,-100,4,1,2,50,0,0
263320,-100,4,1,2,20,0,0
263385,-100,4,1,2,45,0,0
265454,-100,4,1,2,40,0,0
267523,-100,4,1,2,65,0,0

[Colours]
Combo1 : 255,128,192
Combo2 : 128,255,255
Combo3 : 255,128,128

[HitObjects]
224,96,627,2,2,B|274:116|330:86|339:34,2,150,2|2|2,0:0|0:0|0:0,0:0:0:0:
88,160,2178,2,0,B|64:192|64:248|96:272,1,112.5,2|0,0:0|0:0,0:0:0:0:
116,292,2695,1,2,0:0:0:0:
184,324,2954,1,2,0:0:0:0:
256,312,3213,2,0,B|336:296,1,75,2|0,0:0|0:0,0:0:0:0:
440,184,3730,6,2,B|320:208,1,112.5
293,197,4247,2,0,B|242:180|226:116|261:69,1,150,2|2,0:0|0:0,0:0:0:0:
464,312,5282,1,2,0:0:0:0:
331,175,5540,1,2,0:0:0:0:
448,208,5799,1,2,0:0:0:0:
272,268,6058,1,2,0:0:0:0:
344,360,6316,2,2,B|376:288,1,75
376,72,6833,6,2,B|328:184,1,112.5
304,204,7351,2,0,P|264:200|232:176,1,75
160,120,7868,2,2,P|208:176|192:248,1,150
160,120,8902,6,2,P|124:184|52:192,1,150
240,48,9937,2,0,P|312:52|352:88,1,112.5,2|0,0:0|0:0,0:0:0:0:
364,108,10454,2,0,P|400:120|436:112,2,75,2|0|2,0:0|0:0|0:0,0:0:0:0:
308,160,11230,1,2,0:0:0:0:
328,232,11489,2,2,B|272:296|184:264,1,150
224,48,12523,5,2,0:0:0:0:
288,88,12782,1,2,0:0:0:0:
304,160,13040,2,0,B|336:240|424:232,1,150,2|0,0:0|0:0,0:0:0:0:
488,200,13816,5,2,0:0:0:0:
424,312,14075,1,2,0:0:0:0:
400,144,14333,1,2,0:0:0:0:
328,280,14592,2,2,B|288:328|216:312,1,112.5
172,300,15109,6,0,B|116:284,3,56.2499983236194,4|0|0|0,0:0|0:0|0:0|0:0,0:0:0:0:
320,216,18730,5,0,0:0:0:0:
264,200,18859,1,0,0:0:0:0:
208,184,18989,1,0,0:0:0:0:
152,168,19118,1,0,0:0:0:0:
96,152,19247,2,0,B|40:136,3,56.2499983236194,4|0|0|0,0:0|0:0|0:0|0:0,0:0:0:0:
392,64,21704,6,0,B|448:56,1,56.2499983236194,0|8,0:0|0:0,0:0:0:0:
232,128,22092,2,0,B|176:136,1,56.2499983236194,8|0,0:0|0:0,0:0:0:0:
112,192,22351,6,0,B|88:212|88:244,3,56.2500021457673
160,248,22868,2,0,B|160:280|188:304,3,56.2500021457673
232,240,23385,6,0,B|312:216|368:280,1,150,6|8,0:0|0:0,0:0:0:0:
432,240,23773,1,0,0:0:0:0:
440,168,23902,2,0,B|352:176|312:104,1,150,2|8,0:0|0:0,0:0:0:0:
280,40,24290,1,0,0:0:0:0:
208,64,24420,6,0,B|144:104|216:152|140:196,1,150,2|8,0:0|0:0,0:0:0:0:
112,260,24808,1,0,0:0:0:0:
72,196,24937,2,0,P|152:192|188:248,1,150,2|8,0:0|0:0,0:0:0:0:
228,308,25325,1,0,0:0:0:0:
304,312,25454,6,0,B|360:256|336:168,1,150,2|8,0:0|0:0,0:0:0:0:
388,116,25842,1,0,0:0:0:0:
456,88,25971,2,0,B|400:144|424:232,1,150,2|8,0:0|0:0,0:0:0:0:
456,296,26359,1,0,0:0:0:0:
408,352,26489,6,0,B|384:384|336:384,1,75,8|0,0:0|0:0,0:0:0:0:
272,344,26747,2,0,B|240:328|200:336,1,75,8|0,0:0|0:0,0:0:0:0:
129,307,27006,1,2,0:0:0:0:
94,240,27135,1,10,0:0:0:0:
91,165,27264,1,2,0:0:0:0:
121,96,27394,1,10,0:0:0:0:
179,49,27523,6,0,B|243:105|323:73,1,150,2|8,0:0|0:0,0:0:0:0:
390,98,27911,1,0,0:0:0:0:
416,168,28040,2,0,B|336:208|272:152,1,150,2|8,0:0|0:0,0:0:0:0:
24,240,28558,6,0,B|88:184|168:216,1,150,2|8,0:0|0:0,0:0:0:0:
224,256,28945,1,0,0:0:0:0:
256,328,29075,2,0,B|176:288|112:344,1,150,2|8,0:0|0:0,0:0:0:0:
32,96,29592,6,0,B|104:72,1,75,4|0,0:0|0:0,0:0:0:0:
256,64,29851,2,0,B|184:88,1,75,8|0,0:0|0:0,0:0:0:0:
240,288,30368,2,0,B|232:208,1,75,8|0,0:0|0:0,0:0:0:0:
256,64,30627,2,0,B|264:144,1,75,0|0,0:0|0:0,0:0:0:0:
448,184,31144,2,0,B|376:152,1,75,0|0,0:0|0:0,0:0:0:0:
256,64,31402,1,8,0:0:0:0:
24,208,31661,6,0,B|104:240|168:176,1,150,6|8,0:0|0:0,0:0:0:0:
128,104,32049,2,0,B|200:64|272:104,1,150,2|0,0:0|0:0,0:0:0:0:
344,144,32437,1,8,0:0:0:0:
376,224,32566,1,0,0:0:0:0:
320,288,32695,2,0,B|240:304,1,75,2|0,0:0|0:0,0:0:0:0:
404,308,32954,2,0,B|484:292,1,75,10|0,0:0|0:0,0:0:0:0:
344,368,33213,2,0,B|256:384,1,75,2|0,0:0|0:0,0:0:0:0:
192,360,33471,5,8,0:0:0:0:
136,304,33601,1,0,0:0:0:0:
160,224,33730,2,0,B|200:152|160:72,1,150,2|8,0:0|0:0,0:0:0:0:
240,56,34118,1,0,0:0:0:0:
216,136,34247,2,0,B|160:200|72:184,1,150,2|8,0:0|0:0,0:0:0:0:
40,112,34635,1,0,0:0:0:0:
96,56,34764,2,0,B|136:48|176:64,1,75,2|0,0:0|0:0,0:0:0:0:
264,88,35023,1,8,0:0:0:0:
352,56,35152,2,2,B|376:104|336:176|288:176,1,150,2|0,0:0|0:0,0:0:0:0:
232,232,35540,5,8,0:0:0:0:
224,312,35670,1,0,0:0:0:0:
288,368,35799,1,2,0:0:0:0:
368,360,35928,1,0,0:0:0:0:
408,288,36058,2,0,B|440:264|488:272,2,75,8|2|2,0:0|0:0|0:0,0:0:0:0:
336,248,36445,2,0,B|304:280|264:272,2,75,0|10|2,0:0|0:0|0:0,0:0:0:0:
392,184,36833,2,0,B|408:96|488:80,1,150,2|8,0:0|0:0,0:0:0:0:
376,56,37221,2,0,B|320:112|232:88,1,150,2|0,0:0|0:0,0:0:0:0:
160,56,37609,1,8,0:0:0:0:
40,96,37739,6,0,B|36:136|64:164,1,75,8|2,0:0|0:0,0:0:0:0:
148,168,37997,1,0,0:0:0:0:
256,252,38126,6,0,B|256:212|224:180,1,75,8|0,0:0|0:0,0:0:0:0:
148,168,38385,1,2,0:0:0:0:
80,216,38514,1,0,0:0:0:0:
76,300,38644,2,0,B|44:324|4:320,1,75,8|0,0:0|0:0,0:0:0:0:
144,340,38902,6,0,B|176:368|220:360,3,75,10|0|8|0,0:0|0:0|0:0|0:0,0:0:0:0:
348,364,39420,2,0,B|316:336|276:332,3,75,10|0|8|0,0:0|0:0|0:0|0:0,0:0:0:0:
408,312,39937,6,0,B|368:280|368:208|416:176,1,150,2|8,0:0|0:0,0:0:0:0:
475,128,40325,2,0,B|451:176|383:180|345:146,1,150,2|0,0:0|0:0,0:0:0:0:
296,79,40713,1,8,0:0:0:0:
225,36,40842,1,0,0:0:0:0:
143,46,40971,2,0,B|103:62|87:102,1,75,2|0,0:0|0:0,0:0:0:0:
87,178,41230,1,8,0:0:0:0:
140,240,41359,2,0,B|176:228|216:240,2,75,2|0|2,0:0|0:0|0:0,0:0:0:0:
58,254,41747,5,8,0:0:0:0:
83,332,41876,1,0,0:0:0:0:
157,367,42006,2,0,B|191:389|229:375,1,75,2|0,0:0|0:0,0:0:0:0:
289,320,42264,1,8,0:0:0:0:
366,291,42394,1,0,0:0:0:0:
433,338,42523,2,0,B|352:352|312:272,1,150,2|8,0:0|0:0,0:0:0:0:
316,188,42911,2,0,B|346:110|294:37,1,150,2|0,0:0|0:0,0:0:0:0:
220,20,43299,1,8,0:0:0:0:
140,40,43428,1,0,0:0:0:0:
92,108,43558,1,2,0:0:0:0:
104,188,43687,1,2,0:0:0:0:
76,264,43816,6,0,B|60:296|76:344,1,75,10|0,0:0|0:0,0:0:0:0:
184,304,44075,2,0,B|208:344|248:344,1,75,2|0,0:0|0:0,0:0:0:0:
352,320,44333,2,0,B|328:280|288:280,1,75,10|0,0:0|0:0,0:0:0:0:
288,168,44592,2,0,B|248:168|224:208,1,75,2|0,0:0|0:0,0:0:0:0:
392,208,44851,2,0,B|408:176|392:128,1,75,10|0,0:0|0:0,0:0:0:0:
256,40,45109,2,2,B|224:80|240:152|288:168,1,150,2|8,0:0|0:0,0:0:0:0:
136,336,45626,6,2,B|168:376|224:384|272:352,1,150,2|8,0:0|0:0,0:0:0:0:
336,296,46014,1,2,0:0:0:0:
360,216,46144,1,8,0:0:0:0:
336,136,46273,1,2,0:0:0:0:
272,80,46402,2,0,B|192:104,1,75,8|0,0:0|0:0,0:0:0:0:
128,64,46661,2,0,B|112:144,1,75,10|0,0:0|0:0,0:0:0:0:
32,128,46920,2,0,B|56:216,1,75,10|0,0:0|0:0,0:0:0:0:
32,280,47178,6,0,B|96:224|176:264,1,150,2|8,0:0|0:0,0:0:0:0:
232,320,47566,1,0,0:0:0:0:
312,352,47695,1,2,0:0:0:0:
392,320,47825,1,2,0:0:0:0:
408,240,47954,1,8,0:0:0:0:
368,168,48083,1,8,0:0:0:0:
288,160,48213,6,2,B|208:184|148:120,1,150,6|8,0:0|0:0,0:0:0:0:
416,96,48730,2,0,B|352:44|272:72,1,150,2|8,0:0|0:0,0:0:0:0:
192,80,49118,1,0,0:0:0:0:
112,104,49247,2,0,B|24:64,1,75,2|0,0:0|0:0,0:0:0:0:
104,184,49506,2,0,B|16:144,1,75,10|0,0:0|0:0,0:0:0:0:
176,152,49764,2,2,B|224:176,2,37.5,2|0|2,0:0|0:0|0:0,0:0:0:0:
168,232,50023,2,0,B|256:272,1,75,8|0,0:0|0:0,0:0:0:0:
400,168,50282,6,0,B|240:96,1,150,2|8,0:0|0:0,0:0:0:0:
432,312,50799,2,0,B|272:240,1,150,2|8,0:0|0:0,0:0:0:0:
152,296,51187,2,0,B|184:272|232:272,2,75,2|2|0,0:0|0:0|0:0,0:0:0:0:
40,248,51575,2,0,B|80:232|112:240,2,75,10|0|2,0:0|0:0|0:0,0:0:0:0:
80,176,51963,1,0,0:0:0:0:
152,136,52092,1,8,0:0:0:0:
232,128,52221,1,0,0:0:0:0:
232,128,52351,2,0,B|160:136|88:88,1,150,2|8,0:0|0:0,0:0:0:0:
12,56,52739,1,0,0:0:0:0:
24,256,52868,6,0,P|12:292|12:340,1,75,2|0,0:0|0:0,0:0:0:0:
104,312,53126,2,0,B|144:392,1,75,10|0,0:0|0:0,0:0:0:0:
216,320,53385,2,0,B|280:376,1,75,2|0,0:0|0:0,0:0:0:0:
328,288,53644,2,0,B|400:304,1,75,10|0,0:0|0:0,0:0:0:0:
384,208,53902,1,8,0:0:0:0:
384,208,54032,1,8,0:0:0:0:
488,128,54161,6,0,B|408:112,1,75,10|0,0:0|0:0,0:0:0:0:
384,24,54420,2,0,B|312:72,1,75,2|0,0:0|0:0,0:0:0:0:
240,16,54678,2,0,B|216:96,1,75,10|0,0:0|0:0,0:0:0:0:
120,88,54937,2,0,B|136:168,1,75,10|0,0:0|0:0,0:0:0:0:
48,208,55195,2,0,B|64:248|96:264,1,75,10|0,0:0|0:0,0:0:0:0:
296,336,55454,6,0,B|360:280|360:200,1,150,2|8,0:0|0:0,0:0:0:0:
344,128,55842,1,0,0:0:0:0:
400,72,55971,1,2,0:0:0:0:
424,152,56101,1,2,0:0:0:0:
344,128,56230,2,0,B|304:136|272:112,1,75,8|0,0:0|0:0,0:0:0:0:
120,40,56489,6,2,B|200:64|208:160,1,150,6|8,0:0|0:0,0:0:0:0:
8,128,57006,2,2,B|88:120|120:40,1,150,2|8,0:0|0:0,0:0:0:0:
200,16,57394,1,0,0:0:0:0:
280,48,57523,1,2,0:0:0:0:
304,128,57652,2,0,B|292:164|304:208,1,75,2|8,0:0|0:0,0:0:0:0:
360,64,57911,1,0,0:0:0:0:
384,144,58040,1,0,0:0:0:0:
376,228,58170,2,0,B|372:264|344:300,2,75,2|8|0,0:0|0:0|0:0,0:0:0:0:
452,192,58558,6,2,B|464:240|452:292|420:336,1,150,2|8,0:0|0:0,0:0:0:0:
217,255,59075,2,2,B|264:233|320:249|348:297,1,150,2|8,0:0|0:0,0:0:0:0:
296,364,59463,2,0,B|256:380|216:364,1,75,0|2,0:0|0:0,0:0:0:0:
160,312,59721,2,0,B|120:328|80:312,1,75,0|8,0:0|0:0,0:0:0:0:
32,248,59980,1,2,0:0:0:0:
40,168,60109,1,2,0:0:0:0:
120,144,60239,1,8,0:0:0:0:
96,64,60368,1,8,0:0:0:0:
168,16,60497,1,0,0:0:0:0:
224,80,60626,6,0,B|240:160|200:224,1,150,2|8,0:0|0:0,0:0:0:0:
280,384,61144,2,0,B|264:304|304:240,1,150,0|8,0:0|0:0,0:0:0:0:
416,56,61661,2,0,B|464:120|448:208,1,150,2|8,0:0|0:0,0:0:0:0:
192,232,62178,2,0,B|144:168|160:80,2,150,4|8|8,0:0|0:0|0:0,0:0:0:0:
264,280,62825,1,8,0:0:0:0:
264,280,62954,1,8,0:0:0:0:
264,280,63083,1,8,0:0:0:0:
488,248,63989,5,8,0:0:0:0:
488,248,64118,1,8,0:0:0:0:
488,248,64247,1,0,0:0:0:0:
432,312,64376,2,0,B|368:360|288:336,1,150,0|0,0:0|0:0,0:0:0:0:
216,296,64764,5,0,0:0:0:0:
48,304,64894,1,0,0:0:0:0:
128,344,65023,5,8,0:0:0:0:
40,208,65152,1,0,0:0:0:0:
120,184,65282,6,0,B|144:152|144:112,1,75,8|0,0:0|0:0,0:0:0:0:
104,104,65476,2,0,B|160:128|208:88,1,112.5,8|0,0:0|0:0,0:0:0:0:
200,48,65734,2,0,B|248:88|312:64,1,112.5,8|0,0:0|0:0,0:0:0:0:
392,56,66058,1,8,0:0:0:0:
440,124,66187,1,0,0:0:0:0:
392,192,66316,1,8,0:0:0:0:
392,192,66445,1,12,0:0:0:0:
120,184,66833,6,0,B|168:152|232:160,2,112.5,4|0|0,1:2|0:0|0:0,0:0:0:0:
256,232,67868,2,0,B|288:256|328:256,1,75,2|2,1:2|1:2,0:0:0:0:
464,288,68385,2,0,B|404:280|356:312,1,112.5,2|0,1:2|0:0,0:0:0:0:
292,344,68902,2,0,B|216:368|152:312,1,150,2|0,1:2|0:0,0:0:0:0:
48,80,69678,6,0,B|108:76|153:118,1,112.5,2|0,1:2|0:0,0:0:0:0:
216,80,70195,2,0,B|240:112|232:160,1,75,2|0,1:2|0:0,0:0:0:0:
336,200,70583,2,0,B|312:168|320:120,1,75,2|0,1:2|0:0,0:0:0:0:
376,72,70971,2,0,B|336:32|264:32,3,112.5,0|2|2|2,0:0|1:2|1:2|1:2,0:0:0:0:
80,312,72523,2,0,B|148:348|232:320,2,150,0|2|0,0:0|1:2|0:0,0:0:0:0:
424,152,74075,5,0,0:0:0:0:
424,152,74204,1,0,0:0:0:0:
424,152,74333,1,8,0:0:0:0:
424,152,74463,1,8,0:0:0:0:
424,152,74592,1,0,0:0:0:0:
424,152,74721,1,0,0:0:0:0:
424,152,74851,1,8,0:0:0:0:
424,152,74980,1,8,0:0:0:0:
368,216,75109,6,2,B|304:264|216:240,1,150,6|8,0:0|0:0,0:0:0:0:
88,176,75497,2,0,B|152:136|232:152,1,150,2|0,0:0|0:0,0:0:0:0:
296,200,75885,1,8,0:0:0:0:
272,320,76014,6,0,B|184:328|136:256,1,150,2|0,0:0|0:0,0:0:0:0:
160,80,76402,2,0,B|216:136|200:224,1,150,10|0,0:0|0:0,0:0:0:0:
88,176,76790,1,0,0:0:0:0:
80,96,76920,6,0,B|64:56|72:16,1,75,8|0,0:0|0:0,0:0:0:0:
160,80,77178,2,0,B|168:40|200:16,1,75,10|0,0:0|0:0,0:0:0:0:
224,128,77437,2,0,B|248:160|296:152,1,75,8|0,0:0|0:0,0:0:0:0:
280,64,77695,2,0,B|312:40|352:40,1,75,10|0,0:0|0:0,0:0:0:0:
432,24,77954,2,0,B|432:64|408:96,1,75,8|0,0:0|0:0,0:0:0:0:
368,168,78213,5,2,0:0:0:0:
416,240,78342,1,2,0:0:0:0:
344,280,78471,2,0,B|368:360|456:368,1,150,10|0,0:0|0:0,0:0:0:0:
488,288,78859,1,0,0:0:0:0:
416,240,78989,2,0,B|360:176|272:192,1,150,10|2,0:0|0:0,0:0:0:0:
216,240,79376,6,0,B|240:272|232:312,1,75,0|8,0:0|0:0,0:0:0:0:
208,160,79635,1,0,0:0:0:0:
144,208,79764,2,0,B|104:216|64:184,1,75,2|0,0:0|0:0,0:0:0:0:
136,128,80023,2,0,B|136:88|112:56,1,75,8|0,0:0|0:0,0:0:0:0:
40,32,80282,2,0,B|32:67|56:112,1,75,2|0,0:0|0:0,0:0:0:0:
200,80,80540,2,0,B|224:48|264:40,1,75,8|0,0:0|0:0,0:0:0:0:
280,192,80799,2,0,B|291:153|272:112,1,75,2|0,0:0|0:0,0:0:0:0:
144,208,81058,2,0,B|112:232|72:228,1,75,10|0,0:0|0:0,0:0:0:0:
240,312,81445,5,8,0:0:0:0:
240,312,81575,2,0,B|160:288|144:208,1,150,10|0,0:0|0:0,0:0:0:0:
184,136,81963,1,0,0:0:0:0:
104,136,82092,2,2,B|64:128|16:160,1,75,8|0,0:0|0:0,0:0:0:0:
144,64,82351,2,2,B|224:72|280:16,1,150,2|8,0:0|0:0,0:0:0:0:
288,224,82739,2,0,B|232:168|256:80,1,150,2|0,0:0|0:0,0:0:0:0:
400,48,83126,2,0,B|368:80|328:72,1,75,8|0,0:0|0:0,0:0:0:0:
456,112,83385,5,6,0:0:0:0:
472,192,83514,1,2,0:0:0:0:
448,272,83644,1,10,0:0:0:0:
392,328,83773,1,8,0:0:0:0:
312,360,83902,2,0,B|288:312|224:352|184:288,1,150,2|8,0:0|0:0,0:0:0:0:
72,320,84290,2,0,B|120:312|153:255|136:200,1,150,2|0,0:0|0:0,0:0:0:0:
96,128,84678,1,8,0:0:0:0:
48,64,84808,2,0,B|56:24|96:8,2,75,2|2|0,0:0|0:0|0:0,0:0:0:0:
64,208,85195,6,0,B|88:240|128:240,1,75,8|0,0:0|0:0,0:0:0:0:
256,272,85454,2,2,B|184:232|192:144,1,150,2|8,0:0|0:0,0:0:0:0:
272,120,85842,2,0,B|320:104|360:168|416:144,1,150,2|0,0:0|0:0,0:0:0:0:
480,88,86230,1,8,0:0:0:0:
376,24,86359,6,0,B|360:56|360:96,1,75,0|2,0:0|0:0,0:0:0:0:
272,120,86618,1,2,0:0:0:0:
312,200,86747,2,0,B|288:232|240:240,1,75,8|0,0:0|0:0,0:0:0:0:
212,320,87006,1,2,0:0:0:0:
136,272,87135,2,0,B|96:280|72:312,2,75,0|8|10,0:0|0:0|0:0,0:0:0:0:
184,160,87523,2,0,B|104:168|52:100,1,150,6|8,0:0|0:0,0:0:0:0:
48,368,88040,6,0,B|128:384|184:312,1,150,2|8,0:0|0:0,0:0:0:0:
208,240,88428,1,0,0:0:0:0:
184,160,88558,2,0,B|168:120|176:80,1,75,2|0,0:0|0:0,0:0:0:0:
272,296,88816,2,0,B|312:312|352:296,1,75,8|0,0:0|0:0,0:0:0:0:
288,136,89075,2,0,B|312:168|312:208,1,75,10|0,0:0|0:0,0:0:0:0:
407,222,89333,2,0,B|440:216|464:176,1,75,2|0,0:0|0:0,0:0:0:0:
272,296,89592,6,0,B|264:336|280:376,1,75,8|0,0:0|0:0,0:0:0:0:
288,136,89851,2,0,B|296:96|280:56,1,75,8|0,0:0|0:0,0:0:0:0:
120,88,90109,5,0,0:0:0:0:
392,296,90368,1,0,0:0:0:0:
56,328,90627,1,2,0:0:0:0:
456,56,90885,1,2,0:0:0:0:
224,232,91144,1,8,0:0:0:0:
304,216,91273,1,8,0:0:0:0:
248,152,91402,1,8,0:0:0:0:
248,152,91661,5,4,0:0:0:0:
176,200,99420,5,8,0:0:0:0:
176,200,99678,1,8,0:0:0:0:
192,280,99808,1,0,0:0:0:0:
272,296,99937,2,0,B|328:360|408:320,1,150,4|8,0:0|0:0,0:0:0:0:
456,256,100325,1,0,0:0:0:0:
432,176,100454,2,0,B|368:120|288:160,1,150,0|8,0:0|0:0,0:0:0:0:
248,88,100842,1,0,0:0:0:0:
168,112,100971,6,0,B|152:144|168:192,1,75,0|0,0:0|0:0,0:0:0:0:
136,320,101230,2,0,B|144:280|120:248,1,75,8|0,0:0|0:0,0:0:0:0:
216,248,101489,2,0,B|248:232|288:248,1,75,8|0,0:0|0:0,0:0:0:0:
88,176,101747,2,0,B|48:192|8:168,1,75,8|0,0:0|0:0,0:0:0:0:
168,112,102006,5,0,0:0:0:0:
200,40,102135,1,8,0:0:0:0:
280,32,102264,1,8,0:0:0:0:
336,96,102394,1,0,0:0:0:0:
328,176,102523,2,0,B|408:216|464:144,1,150,8|8,0:0|0:0,0:0:0:0:
416,80,102911,1,0,0:0:0:0:
320,264,103040,2,0,B|232:288|192:208,1,150,8|8,0:0|0:0,0:0:0:0:
144,64,103428,2,0,B|184:64|208:104,1,75,0|8,0:0|0:0,0:0:0:0:
248,168,103687,5,0,0:0:0:0:
312,112,103816,1,8,0:0:0:0:
392,128,103945,2,0,B|456:176|448:264,1,150
376,304,104333,2,0,B|296:288|240:352,1,150,8|0,0:0|0:0,0:0:0:0:
160,344,104721,1,0,0:0:0:0:
136,264,104851,1,8,0:0:0:0:
56,248,104980,6,0,B|16:328,2,75,8|0|0,0:0|0:0|0:0,0:0:0:0:
112,184,105368,2,0,B|144:112,1,75,8|0,0:0|0:0,0:0:0:0:
64,96,105627,2,0,B|32:168,1,75,8|0,0:0|0:0,0:0:0:0:
192,200,105885,2,0,B|224:128,1,75,8|0,0:0|0:0,0:0:0:0:
392,80,106144,5,0,0:0:0:0:
336,208,106273,2,0,B|360:240|408:240,2,75,0|8|8,0:0|0:0|0:0,0:0:0:0:
280,112,106661,2,0,B|248:136|240:176,2,75,0|0|8,0:0|0:0|0:0,0:0:0:0:
240,272,107049,1,0,0:0:0:0:
144,288,107178,2,0,B|104:280|80:240,1,75,8|0,0:0|0:0,0:0:0:0:
48,136,107437,5,8,0:0:0:0:
48,136,107566,1,8,0:0:0:0:
48,136,107695,1,0,0:0:0:0:
48,136,107825,1,0,0:0:0:0:
48,136,107954,1,8,0:0:0:0:
48,136,108083,1,8,0:0:0:0:
48,136,108213,2,0,B|128:168|192:104,1,150,0|8,0:0|0:0,0:0:0:0:
440,64,108730,1,4,0:0:0:0:
424,344,108989,5,8,0:0:0:0:
440,264,109118,2,0,B|440:224|416:192,1,75,0|0,0:0|0:0,0:0:0:0:
328,200,109377,1,8,0:0:0:0:
280,272,109506,2,0,B|240:272|208:304,1,75,8|0,0:0|0:0,0:0:0:0:
144,344,109764,2,0,B|104:360|64:352,1,75,0|0,0:0|0:0,0:0:0:0:
24,280,110023,2,0,B|64:264|104:272,1,75,8|0,0:0|0:0,0:0:0:0:
168,224,110282,6,0,B|184:136|104:96,1,150,0|8,0:0|0:0,0:0:0:0:
32,344,110799,1,4,0:0:0:0:
416,280,111058,1,8,0:0:0:0:
416,280,111187,2,0,B|352:336,1,75,8|0,0:0|0:0,0:0:0:0:
312,264,111445,1,8,0:0:0:0:
312,264,111575,2,0,B|248:320,1,75,8|0,0:0|0:0,0:0:0:0:
176,312,111833,2,0,B|112:248,1,75,0|8,0:0|0:0,0:0:0:0:
80,328,112092,2,0,B|16:264,1,75,8|0,0:0|0:0,0:0:0:0:
56,192,112351,6,0,B|120:152|200:176,1,150,0|8,0:0|0:0,0:0:0:0:
472,120,112868,2,0,B|392:136|336:72,1,150,0|8,0:0|0:0,0:0:0:0:
272,24,113256,1,8,0:0:0:0:
192,24,113385,1,0,0:0:0:0:
128,72,113514,1,0,0:0:0:0:
120,152,113644,1,8,0:0:0:0:
144,232,113773,2,0,B|120:264|72:272,2,75,0|0|8,0:0|0:0|0:0,0:0:0:0:
200,168,114161,2,0,B|248:232|208:312,1,150,8|4,0:0|0:0,0:0:0:0:
488,304,114678,6,0,B|408:332|352:264,1,150,8|0,0:0|0:0,0:0:0:0:
296,208,115066,1,8,0:0:0:0:
336,128,115195,2,0,B|352:96|344:48,1,75,8|0,0:0|0:0,0:0:0:0:
416,144,115454,2,0,B|456:128|472:80,1,75,0|8,0:0|0:0,0:0:0:0:
504,224,115713,2,0,B|464:240|416:216,1,75,8|0,0:0|0:0,0:0:0:0:
400,328,115971,2,0,B|368:312|360:264,1,75,0|8,0:0|0:0,0:0:0:0:
296,208,116230,5,8,0:0:0:0:
322,285,116359,1,8,0:0:0:0:
278,354,116489,2,2,B|200:384|128:320,1,150,6|8,0:0|0:0,0:0:0:0:
16,112,117006,6,0,B|88:144|160:96,1,150,2|8,0:0|0:0,0:0:0:0:
240,120,117394,1,0,0:0:0:0:
256,40,117523,1,2,0:0:0:0:
176,8,117652,1,2,0:0:0:0:
104,56,117782,2,0,B|80:96|88:144,1,75,8|0,0:0|0:0,0:0:0:0:
96,208,118040,2,0,B|56:224|16:208,2,75,2|0|8,0:0|0:0|0:0,0:0:0:0:
176,216,118428,1,0,0:0:0:0:
176,296,118558,6,0,B|224:360|308:352,1,150,2|8,0:0|0:0,0:0:0:0:
496,264,119075,2,0,B|416:248|400:160,1,150,2|8,0:0|0:0,0:0:0:0:
416,80,119463,1,0,0:0:0:0:
352,24,119592,1,2,0:0:0:0:
272,40,119721,1,0,0:0:0:0:
216,104,119851,2,0,B|176:112|136:96,2,75,10|8|0,0:0|0:0|0:0,0:0:0:0:
240,184,120239,1,0,0:0:0:0:
184,248,120368,2,0,B|160:288|112:288,1,75,8|0,0:0|0:0,0:0:0:0:
296,352,120627,6,0,B|256:280|304:208,1,150,2|8,0:0|0:0,0:0:0:0:
384,128,121014,1,0,0:0:0:0:
440,232,121144,2,0,B|480:304|432:376,1,150,2|8,0:0|0:0,0:0:0:0:
296,352,121532,1,0,0:0:0:0:
128,152,121661,2,0,B|200:120|272:168,1,150,2|8,0:0|0:0,0:0:0:0:
160,344,122049,1,0,0:0:0:0:
160,344,122178,2,0,B|88:376|16:328,1,150,2|8,0:0|0:0,0:0:0:0:
128,96,122695,6,0,B|104:184|168:240,1,150,2|8,0:0|0:0,0:0:0:0:
392,144,123213,2,0,B|416:56|352:0,1,150,2|8,0:0|0:0,0:0:0:0:
280,96,123601,1,2,0:0:0:0:
272,176,123730,1,2,0:0:0:0:
320,240,123859,1,2,0:0:0:0:
320,320,123989,2,0,B|296:352|248:352,1,75,8|0,0:0|0:0,0:0:0:0:
120,336,124247,2,0,B|152:312|152:264,1,75,8|0,0:0|0:0,0:0:0:0:
72,136,124506,5,8,0:0:0:0:
136,80,124635,1,0,0:0:0:0:
208,120,124764,2,0,B|176:208|248:256,1,150,2|8,0:0|0:0,0:0:0:0:
464,336,125282,6,0,B|496:248|424:200,1,150,2|8,0:0|0:0,0:0:0:0:
368,264,125670,2,0,B|344:304|304:304,2,75,2|2|0,0:0|0:0|0:0,0:0:0:0:
320,192,126058,1,8,0:0:0:0:
240,224,126187,1,0,0:0:0:0:
168,176,126316,1,2,0:0:0:0:
88,200,126445,1,0,0:0:0:0:
40,128,126575,2,0,B|16:88|32:48,1,75,8|0,0:0|0:0,0:0:0:0:
120,104,126833,2,2,B|200:88|232:8,1,150,2|8,0:0|0:0,0:0:0:0:
216,280,127351,6,0,B|136:296|104:376,1,150,2|8,0:0|0:0,0:0:0:0:
88,248,127739,1,0,0:0:0:0:
176,160,127868,2,0,B|256:144|312:208,1,150,2|8,0:0|0:0,0:0:0:0:
300,292,128256,1,0,0:0:0:0:
368,344,128385,2,0,B|400:368|448:352,2,75,2|0|8,0:0|0:0|0:0,0:0:0:0:
300,292,128773,1,0,0:0:0:0:
216,280,128902,6,0,B|161:266|144:200|178:157,1,150,2|8,0:0|0:0,0:0:0:0:
416,80,129420,2,0,B|376:120|312:112|280:72,1,150,0|8,0:0|0:0,0:0:0:0:
84,276,129937,2,0,B|124:236|188:244|220:284,1,150,0|8,0:0|0:0,0:0:0:0:
400,192,130454,2,0,B|455:206|472:272|438:315,2,150,0|8|8,0:0|0:0|0:0,0:0:0:0:
368,272,131101,5,8,0:0:0:0:
312,208,131230,1,8,0:0:0:0:
344,128,131359,1,4,0:0:0:0:
120,48,132264,5,8,0:0:0:0:
176,112,132394,1,8,0:0:0:0:
136,184,132523,1,8,0:0:0:0:
80,120,132652,6,0,B|160:112|200:192,1,150,4|0,0:0|0:0,0:0:0:0:
176,272,133040,1,8,0:0:0:0:
280,192,133170,1,0,0:0:0:0:
240,328,133299,1,8,0:0:0:0:
344,248,133428,1,0,0:0:0:0:
304,384,133558,6,0,B|328:352|376:352,1,75,8|0,0:0|0:0,0:0:0:0:
408,360,133752,2,0,B|456:320|440:256,1,112.5,8|0,0:0|0:0,0:0:0:0:
472,232,134010,2,0,B|408:224|392:152,1,112.5,8|0,0:0|0:0,0:0:0:0:
400,80,134333,1,8,0:0:0:0:
336,32,134463,1,8,0:0:0:0:
256,56,134592,1,0,0:0:0:0:
224,136,134721,2,0,B|192:216|104:224,1,150
16,56,135109,6,0,B|104:56|136:136,1,150,4|0,1:2|0:0,0:0:0:0:
168,280,135885,2,0,B|248:320|312:256,1,150,2|0,1:2|0:0,0:0:0:0:
408,128,136661,2,0,B|328:96|264:152,2,150,0|2|2,0:0|1:2|1:2,0:0:0:0:
168,80,137954,6,0,B|144:112|152:152,1,75,2|0,1:2|2:0,0:0:0:0:
151,150,138342,2,0,B|184:200|160:264,1,112.5,2|0,1:2|0:0,0:0:0:0:
96,352,138989,1,2,1:2:0:0:
240,344,139247,2,0,B|392:360,3,150,2|2|2|2,1:2|1:2|1:2|1:2,0:0:0:0:
272,40,141316,2,0,B|120:24,1,150,2|0,1:2|0:0,0:0:0:0:
176,192,142351,6,0,B|224:168|280:216|328:192,2,150,6|2|4,1:2|1:2|0:0,0:0:0:0:
256,192,143514,12,0,147006,0:0:0:0:
56,128,147523,6,2,B|208:120,1,150,2|0,0:0|0:0,0:0:0:0:
108,272,148299,2,2,B|260:264,1,150,2|0,0:0|0:0,0:0:0:0:
456,128,149075,2,2,B|304:120,2,150,2|2|0,0:0|0:0|0:0,0:0:0:0:
404,272,150368,2,2,B|252:264,1,150,2|0,0:0|0:0,0:0:0:0:
296,32,151144,6,2,B|340:72|336:132,1,112.5,2|0,0:0|0:0,0:0:0:0:
224,72,151661,2,2,B|220:140|152:172,1,123.749996311963,2|0,0:0|0:0,0:0:0:0:
376,236,152178,2,2,B|300:248|260:184,1,135.000003218651,2|0,0:0|0:0,0:0:0:0:
76,312,152695,2,2,B|160:316|204:256,1,146.249997384846,2|0,0:0|0:0,0:0:0:0:
420,320,153213,2,2,B|344:360|268:316,1,157.499996244907,2|0,0:0|0:0,0:0:0:0:
128,192,153730,5,0,0:0:0:0:
128,192,153859,1,0,0:0:0:0:
128,192,153989,1,8,0:0:0:0:
128,192,154118,1,8,0:0:0:0:
128,192,154247,1,0,0:0:0:0:
128,192,154377,1,0,0:0:0:0:
128,192,154506,1,8,0:0:0:0:
128,192,154635,1,8,0:0:0:0:
168,112,154764,2,2,B|208:120|240:104|240:104|264:88|304:88|320:128|304:160|280:168|248:160,1,224.999993294478
249,160,155799,6,0,B|336:176|384:112,1,150,6|8,0:0|0:0,0:0:0:0:
448,16,156187,2,0,B|432:64|464:104,1,75,0|2,0:0|0:0,0:0:0:0:
504,152,156445,1,0,0:0:0:0:
460,224,156575,1,8,0:0:0:0:
384,196,156704,2,0,B|372:280|436:336,1,150,2|0,0:0|0:0,0:0:0:0:
304,212,157092,2,0,B|376:188|400:104,1,150,10|0,0:0|0:0,0:0:0:0:
344,44,157480,1,0,0:0:0:0:
288,104,157609,6,0,B|248:32,1,75,10|0,0:0|0:0,0:0:0:0:
192,96,157868,2,0,B|104:88,1,75,2|0,0:0|0:0,0:0:0:0:
120,168,158127,2,0,B|24:192,1,75,10|0,0:0|0:0,0:0:0:0:
120,256,158385,2,0,B|72:320,1,75,2|0,0:0|0:0,0:0:0:0:
168,328,158644,2,0,B|216:384,1,75,10|0,0:0|0:0,0:0:0:0:
264,320,158902,5,0,0:0:0:0:
320,264,159032,1,0,0:0:0:0:
344,184,159161,2,0,B|272:224|192:184,1,150,10|0,0:0|0:0,0:0:0:0:
240,112,159549,1,0,0:0:0:0:
320,96,159678,2,0,B|400:88|456:160,1,150,10|0,0:0|0:0,0:0:0:0:
416,312,160066,6,0,B|400:272|416:232,1,75,2|8,0:0|0:0,0:0:0:0:
344,184,160325,1,0,0:0:0:0:
320,96,160454,2,0,B|320:56|280:32,1,75,2|0,0:0|0:0,0:0:0:0:
168,96,160713,2,0,B|200:120|248:112,1,75,8|0,0:0|0:0,0:0:0:0:
472,88,160971,2,0,B|440:64|392:72,1,75
256,192,161230,2,0,B|232:224|232:272,1,75,8|0,0:0|0:0,0:0:0:0:
416,312,161489,2,0,B|440:280|440:232,1,75
333,111,161747,2,0,B|325:151|344:184,1,75,10|0,0:0|0:0,0:0:0:0:
152,344,162135,5,8,0:0:0:0:
152,344,162264,2,0,B|216:288|176:200,1,150,10|0,0:0|0:0,0:0:0:0:
256,168,162652,1,0,0:0:0:0:
269,57,162782,2,0,B|300:76|320:112,1,75,10|0,0:0|0:0,0:0:0:0:
176,112,163040,6,0,B|248:152|328:108,1,150,2|8,0:0|0:0,0:0:0:0:
400,24,163428,2,0,B|480:56|480:144,1,150,2|0,0:0|0:0,0:0:0:0:
376,232,163816,2,2,B|368:192|392:160,1,75,8|0,0:0|0:0,0:0:0:0:
456,280,164075,5,4,0:0:0:0:
392,336,164204,1,0,0:0:0:0:
312,360,164333,1,8,0:0:0:0:
232,344,164463,1,0,0:0:0:0:
168,288,164592,2,0,B|136:208|184:144,1,150,2|8,0:0|0:0,0:0:0:0:
32,248,164980,2,0,B|88:312|176:288,1,150,2|0,0:0|0:0,0:0:0:0:
248,256,165368,1,8,0:0:0:0:
328,272,165497,2,0,B|352:304|352:352,2,75,2|0|0,0:0|0:0|0:0,0:0:0:0:
304,192,165885,6,0,B|280:160|288:112,1,75,10|0,0:0|0:0,0:0:0:0:
304,40,166144,2,0,B|224:8|160:56,1,150,2|0,0:0|0:0,0:0:0:0:
80,64,166532,2,0,B|144:120|112:200,1,150,2|0,0:0|0:0,0:0:0:0:
64,272,166920,1,8,0:0:0:0:
216,320,167049,6,0,B|176:312|152:280,1,75,2|0,0:0|0:0,0:0:0:0:
296,288,167308,1,0,0:0:0:0:
350,353,167437,2,0,B|392:360|424:344,1,75,10|0,0:0|0:0,0:0:0:0:
456,264,167695,1,0,0:0:0:0:
448,184,167825,2,0,B|440:144|464:104,2,75,2|8|0,0:0|0:0|0:0,0:0:0:0:
368,208,168213,2,2,B|280:216|248:128,1,150,2|8,0:0|0:0,0:0:0:0:
32,216,168730,6,2,B|120:224|136:312,1,150,2|8,0:0|0:0,0:0:0:0:
272,320,169118,1,0,0:0:0:0:
272,240,169247,2,0,B|232:240|200:272,1,75,8|0,0:0|0:0,0:0:0:0:
184,144,169506,2,0,B|184:104|200:72,1,75,8|0,0:0|0:0,0:0:0:0:
335,162,169764,2,0,B|304:137|265:138,1,75,2|0,0:0|0:0,0:0:0:0:
64,136,170023,2,0,B|80:176|128:192,1,75,10|0,0:0|0:0,0:0:0:0:
266,138,170282,6,2,B|352:136|380:56,1,150,2|8,0:0|0:0,0:0:0:0:
304,24,170670,1,2,0:0:0:0:
304,24,170799,5,6,0:0:0:0:
488,296,171058,1,8,0:0:0:0:
488,96,171316,1,2,0:0:0:0:
192,368,171575,1,8,0:0:0:0:
64,56,171833,1,8,0:0:0:0:
128,112,171963,1,8,0:0:0:0:
48,136,172092,1,8,0:0:0:0:
48,136,172351,5,4,0:0:0:0:
40,64,188902,6,0,B|120:40|184:80,1,150,4|8,0:0|0:0,0:0:0:0:
40,232,189420,2,0,B|91:166|167:162,1,150,0|8,0:0|0:0,0:0:0:0:
168,352,189937,2,0,B|172:268|232:222,1,150,0|8,0:0|0:0,0:0:0:0:
344,368,190454,2,0,B|300:296|322:224,1,150,0|8,0:0|0:0,0:0:0:0:
488,272,190971,2,0,B|411:238|387:167,1,150
488,272,191489,5,0,0:0:0:0:
344,368,191747,1,0,0:0:0:0:
168,352,192006,1,4,0:0:0:0:
168,16,192523,5,0,0:0:0:0:
344,32,192782,1,0,0:0:0:0:
488,112,193040,2,0,B|408:96|360:168,1,150,4|8,1:2|0:0,0:0:0:0:
416,312,193558,2,0,B|376:240|290:249,1,150,0|8,0:0|0:0,0:0:0:0:
216,368,194075,2,0,B|245:291|183:232,1,150,0|8,0:0|0:0,0:0:0:0:
104,32,194592,5,0,0:0:0:0:
24,176,194851,1,0,0:0:0:0:
152,288,195109,1,4,0:0:0:0:
152,288,195627,1,0,0:0:0:0:
296,200,195885,1,8,0:0:0:0:
264,32,196144,2,0,B|304:40|328:80,1,75,4|0,0:0|0:0,0:0:0:0:
408,56,196402,2,0,B|424:96|392:144,1,75,8|0,0:0|0:0,0:0:0:0:
480,152,196661,2,0,B|464:240|376:264,1,150,0|0,0:0|0:0,0:0:0:0:
256,360,197178,5,4,1:2:0:0:
256,360,197437,1,8,0:0:0:0:
192,208,197695,1,0,0:0:0:0:
192,208,197954,1,8,0:0:0:0:
56,304,198213,1,0,0:0:0:0:
56,304,198471,1,8,0:0:0:0:
352,232,198730,1,0,0:0:0:0:
352,232,198989,1,8,0:0:0:0:
56,104,199247,5,4,0:0:0:0:
360,328,199764,1,0,0:0:0:0:
448,184,200023,1,8,0:0:0:0:
312,88,200282,1,4,0:0:0:0:
464,312,200799,5,0,0:0:0:0:
336,208,201058,1,0,0:0:0:0:
184,264,201316,5,4,0:0:0:0:
184,264,201575,1,8,0:0:0:0:
32,96,201833,1,0,0:0:0:0:
32,96,202092,1,8,0:0:0:0:
240,32,202351,1,0,0:0:0:0:
240,32,202609,1,8,0:0:0:0:
288,344,202868,5,0,0:0:0:0:
120,328,203127,1,0,0:0:0:0:
104,168,203385,2,0,B|24:144,1,75,4|0,0:0|0:0,0:0:0:0:
152,240,203644,2,0,B|80:256,1,75,8|0,0:0|0:0,0:0:0:0:
232,144,203902,2,0,B|168:104,1,75,8|0,0:0|0:0,0:0:0:0:
288,216,204161,2,0,B|224:272,1,75,8|0,0:0|0:0,0:0:0:0:
320,96,204420,2,0,B|368:168,1,75,4|0,0:0|0:0,0:0:0:0:
408,228,204678,1,8,0:0:0:0:
192,336,204937,5,0,0:0:0:0:
360,344,205195,1,8,0:0:0:0:
448,208,205454,2,0,B|368:192|320:272,1,150,4|8,0:0|0:0,0:0:0:0:
88,216,205971,2,0,B|168:248|232:184,1,150,12|0,0:0|0:0,0:0:0:0:
184,120,206359,2,0,B|176:208|80:216,1,150,0|0,0:0|0:0,0:0:0:0:
40,144,206747,2,0,B|120:168|184:120,1,150,8|0,0:0|0:0,0:0:0:0:
440,64,207264,5,8,0:0:0:0:
312,168,207523,1,8,0:0:0:0:
432,352,207782,2,0,B|440:312|424:272,1,75
352,248,208040,2,0,B|296:304|208:280,1,150,2|8,1:3|0:0,0:0:0:0:
88,176,208428,6,0,B|80:136|96:104,2,75,0|8|0,0:0|0:0|0:0,0:0:0:0:
168,208,208816,2,0,B|200:176|248:184,1,75,8|0,0:0|0:0,0:0:0:0:
212,280,209075,2,0,B|248:296|256:336,1,75,8|0,0:0|0:0,0:0:0:0:
352,248,209333,6,0,B|288:200|312:112,2,150,0|12|12,0:0|0:0|0:0,0:0:0:0:
136,272,210109,1,8,0:0:0:0:
136,272,210239,2,0,B|56:232|0:304,1,150,8|0,0:0|0:0,0:0:0:0:
248,240,210627,2,0,B|184:304|248:376,1,150,8|0,0:0|0:0,0:0:0:0:
168,168,211144,1,8,0:0:0:0:
168,168,211402,5,8,0:0:0:0:
192,88,211532,1,8,0:0:0:0:
272,112,211661,2,0,B|312:120|344:88,1,75
395,13,211920,2,0,B|350:83|400:162,1,150,8|8,0:0|0:0,0:0:0:0:
192,88,212437,6,0,B|224:176|144:224,1,150,8|0,0:0|0:0,0:0:0:0:
72,248,212825,1,0,0:0:0:0:
88,168,212954,2,0,B|112:96,1,75,8|0,0:0|0:0,0:0:0:0:
296,40,213213,2,0,B|272:112,1,75,8|0,0:0|0:0,0:0:0:0:
80,104,213471,2,0,B|104:32,1,75,8|0,0:0|0:0,0:0:0:0:
256,8,213730,5,4,0:0:0:0:
408,72,213989,1,8,0:0:0:0:
408,240,214247,1,0,0:0:0:0:
256,184,214506,1,8,0:0:0:0:
184,336,214764,1,8,0:0:0:0:
256,296,214894,1,8,0:0:0:0:
328,336,215023,1,8,0:0:0:0:
104,240,215282,1,8,0:0:0:0:
232,140,215540,5,0,0:0:0:0:
300,92,215670,1,0,0:0:0:0:
232,140,215799,2,0,B|168:196|88:156,1,150,8|0,0:0|0:0,0:0:0:0:
224,56,216316,1,8,0:0:0:0:
248,224,216575,1,8,0:0:0:0:
312,276,216704,2,0,B|400:332|488:268,2,187.5,0|0|8,0:0|0:0|0:0,0:0:0:0:
144,344,217609,1,8,0:0:0:0:
88,120,217868,5,0,0:0:0:0:
144,184,217997,1,8,0:0:0:0:
64,200,218127,1,8,0:0:0:0:
216,272,218385,1,0,0:0:0:0:
344,112,218644,1,8,0:0:0:0:
168,112,218902,1,0,0:0:0:0:
296,272,219161,1,8,0:0:0:0:
424,120,219420,1,0,0:0:0:0:
448,200,219549,1,8,0:0:0:0:
368,184,219678,1,8,0:0:0:0:
256,304,219937,5,8,0:0:0:0:
256,200,220195,21,8,0:0:0:0:
256,120,220454,5,8,0:0:0:0:
256,72,220713,21,8,0:0:0:0:
256,48,220971,22,2,B|208:104|304:208|256:264,1,224.999993294478
464,152,222006,6,0,B|376:216|280:160,1,180.000004291535,4|8,0:0|0:0,0:0:0:0:
208,112,222394,2,0,B|320:128|304:264,1,180.000004291535
264,328,222782,1,8,0:0:0:0:
208,248,222911,2,0,B|104:224|64:336,1,180.000004291535
168,336,223299,2,0,B|80:288|104:184,1,180.000004291535,8|0,0:0|0:0,0:0:0:0:
64,96,223687,1,0,0:0:0:0:
160,64,223816,6,0,B|208:56|232:8,1,90.0000021457673,8|0,0:0|0:0,0:0:0:0:
248,112,224075,2,0,B|296:128|336:96,1,90.0000021457673
312,192,224333,2,0,B|408:192,1,90.0000021457673,8|0,0:0|0:0,0:0:0:0:
248,272,224592,2,0,B|296:256|336:288,1,90.0000021457673
160,320,224851,2,0,B|208:328|232:376,1,90.0000021457673,8|0,0:0|0:0,0:0:0:0:
128,232,225109,5,0,0:0:0:0:
224,192,225239,1,0,0:0:0:0:
296,264,225368,2,0,B|352:352|456:304,1,180.000004291535,8|0,0:0|0:0,0:0:0:0:
408,216,225756,1,0,0:0:0:0:
328,160,225885,2,0,B|224:144|184:240,1,180.000004291535,8|0,0:0|0:0,0:0:0:0:
160,336,226273,2,0,B|88:272,1,90.0000021457673,0|8,0:0|0:0,0:0:0:0:
96,176,226532,1,0,0:0:0:0:
176,40,226661,6,0,B|192:88|168:136,1,90.0000021457673
272,96,226920,2,0,B|320:104|360:56,1,90.0000021457673,8|0,0:0|0:0,0:0:0:0:
480,96,227178,2,0,B|432:96|400:144,1,90.0000021457673
312,184,227437,2,0,B|336:232|392:232,1,90.0000021457673,8|0,0:0|0:0,0:0:0:0:
472,280,227695,2,0,B|456:232|480:184,1,90.0000021457673
236,337,227954,2,0,B|288:340|316:296,1,90.0000021457673,8|0,0:0|0:0,0:0:0:0:
40,352,228342,5,8,0:0:0:0:
72,256,228471,2,0,B|136:176|240:216,1,180.000004291535,8|0,0:0|0:0,0:0:0:0:
296,136,228859,1,0,0:0:0:0:
368,64,228989,2,0,B|328:32|264:40,1,90.0000021457673,8|0,0:0|0:0,0:0:0:0:
160,216,229247,6,0,B|256:168|208:64,1,180.000004291535,0|0,0:0|0:0,0:0:0:0:
120,24,229635,2,0,B|64:200,1,180.000004291535
32,288,230023,1,8,0:0:0:0:
32,288,230282,5,4,0:0:0:0:
120,336,230411,1,0,0:0:0:0:
216,312,230540,1,8,0:0:0:0:
280,232,230670,1,0,0:0:0:0:
368,192,230799,2,0,B|360:80|480:80,1,180.000004291535,0|8,0:0|0:0,0:0:0:0:
392,24,231187,2,0,B|360:136|464:168,1,180.000004291535,4|0,0:0|0:0,0:0:0:0:
456,264,231575,1,8,0:0:0:0:
360,296,231704,1,0,0:0:0:0:
280,232,231833,2,0,B|240:256|192:244,1,90.0000021457673
320,96,232092,6,0,B|284:128|236:120,1,90.0000021457673,8|0,0:0|0:0,0:0:0:0:
144,80,232351,1,0,0:0:0:0:
80,160,232480,1,0,0:0:0:0:
96,256,232609,1,8,0:0:0:0:
176,320,232739,1,0,0:0:0:0:
276,312,232868,1,0,0:0:0:0:
336,232,232997,1,0,0:0:0:0:
336,132,233127,1,8,0:0:0:0:
252,72,233256,1,0,0:0:0:0:
200,160,233385,6,0,B|184:208|136:216,1,90.0000021457673
176,320,233644,2,0,B|80:304,1,90.0000021457673,8|0,0:0|0:0,0:0:0:0:
264,232,233902,2,0,B|360:248,1,90.0000021457673
384,360,234161,2,0,B|400:312|448:304,1,90.0000021457673
432,192,234420,2,0,B|456:80|360:40,1,180.000004291535,0|8,0:0|0:0,0:0:0:0:
88,208,234937,6,0,B|176:264|256:184,1,180.000004291535,0|8,0:0|0:0,0:0:0:0:
336,232,235325,1,0,0:0:0:0:
264,296,235454,2,0,B|216:312|200:360,1,90.0000021457673
112,304,235713,1,8,0:0:0:0:
88,208,235842,2,0,B|112:160|80:112,1,90.0000021457673
184,168,236101,1,0,0:0:0:0:
256,104,236230,2,0,B|304:80|312:32,1,90.0000021457673,8|0,0:0|0:0,0:0:0:0:
384,168,236489,5,2,0:0:0:0:
184,168,236747,1,8,0:0:0:0:
16,32,237006,5,2,0:0:0:0:
216,32,237264,1,8,0:0:0:0:
440,104,237523,6,0,B|488:208|400:272,1,180.000004291535,2|8,0:0|0:0,0:0:0:0:
232,256,237911,1,0,0:0:0:0:
344,240,238040,2,0,B|336:344|232:368,1,180.000004291535,2|8,0:0|0:0,0:0:0:0:
88,272,238428,1,0,0:0:0:0:
80,368,238558,6,0,B|128:376|160:336,1,90.0000021457673,4|0,0:0|0:0,0:0:0:0:
232,256,238816,2,0,B|280:256|304:304,1,90.0000021457673,8|0,0:0|0:0,0:0:0:0:
360,184,239075,2,0,B|408:192|440:144,1,90.0000021457673
280,56,239333,2,0,B|248:104|272:168,1,90.0000021457673,8|0,0:0|0:0,0:0:0:0:
136,112,239592,2,0,B|112:152|56:160,1,90.0000021457673
64,272,239851,2,0,B|48:320|80:360,1,90.0000021457673,8|0,0:0|0:0,0:0:0:0:
240,280,240109,2,0,B|192:272|168:228,1,89.9999972534181
352,248,240368,2,0,B|376:288|368:336,1,90.0000021457673,8|0,0:0|0:0,0:0:0:0:
272,168,240627,6,0,B|312:144|360:144,1,90.0000021457673
168,112,240885,2,0,B|152:72|96:64,1,90.0000021457673,8|0,0:0|0:0,0:0:0:0:
312,16,241144,2,0,B|304:64|256:88,1,90.0000021457673
152,208,241402,2,0,B|120:248|136:304,1,90.0000021457673,8|0,0:0|0:0,0:0:0:0:
288,280,241661,2,0,B|304:336|352:344,1,90.0000021457673
400,200,241920,2,0,B|448:184|496:200,1,90.0000021457673,8|0,0:0|0:0,0:0:0:0:
296,144,242178,2,0,B|288:200|232:224,1,90.0000021457673
112,64,242437,2,0,B|96:120|136:168,1,90.0000021457673,8|0,0:0|0:0,0:0:0:0:
80,288,242695,5,0,0:0:0:0:
128,376,242825,1,8,0:0:0:0:
160,280,242954,1,0,0:0:0:0:
208,368,243083,1,8,0:0:0:0:
240,272,243213,1,0,0:0:0:0:
288,360,243342,1,8,0:0:0:0:
320,264,243471,1,0,0:0:0:0:
368,352,243601,1,8,0:0:0:0:
400,272,243730,5,0,0:0:0:0:
384,152,243859,1,8,0:0:0:0:
320,264,243989,1,0,0:0:0:0:
304,144,244118,1,8,0:0:0:0:
240,256,244247,1,0,0:0:0:0:
224,136,244377,1,8,0:0:0:0:
160,248,244506,1,0,0:0:0:0:
144,128,244635,1,8,0:0:0:0:
104,216,244764,5,0,0:0:0:0:
112,80,244894,1,8,0:0:0:0:
184,192,245023,1,0,0:0:0:0:
192,56,245152,1,8,0:0:0:0:
264,168,245282,1,0,0:0:0:0:
272,32,245411,1,8,0:0:0:0:
344,144,245540,1,0,0:0:0:0:
352,8,245670,1,8,0:0:0:0:
432,88,245799,6,0,B|480:176|416:256,1,180.000004291535,0|8,0:0|0:0,0:0:0:0:
344,328,246187,1,0,0:0:0:0:
312,232,246316,2,0,B|232:168|144:212,1,180.000004291535,0|8,0:0|0:0,0:0:0:0:
32,48,246833,6,0,B|128:48,1,90.0000021457673,4|8,0:0|0:0,0:0:0:0:
144,144,247092,2,0,B|240:144,1,90.0000021457673,8|8,0:0|0:0,0:0:0:0:
400,96,247351,2,0,B|304:96,1,90.0000021457673,0|8,0:0|0:0,0:0:0:0:
160,232,247609,2,0,B|64:232,1,90.0000021457673,8|8,0:0|0:0,0:0:0:0:
32,328,247868,6,0,B|128:328,1,90.0000021457673,0|8,0:0|0:0,0:0:0:0:
224,328,248127,1,8,0:0:0:0:
160,232,248256,2,0,B|256:232,1,90.0000021457673,8|0,0:0|0:0,0:0:0:0:
352,232,248514,1,8,0:0:0:0:
272,136,248644,2,0,B|368:136,1,90.0000021457673,8|8,0:0|0:0,0:0:0:0:
480,328,248902,6,0,B|384:328,1,90.0000021457673,0|8,0:0|0:0,0:0:0:0:
288,328,249161,1,8,0:0:0:0:
352,232,249290,2,0,B|256:232,1,90.0000021457673,8|0,0:0|0:0,0:0:0:0:
160,232,249548,1,8,0:0:0:0:
240,136,249678,2,0,B|144:136,1,90.0000021457673,8|8,0:0|0:0,0:0:0:0:
32,56,249937,2,0,B|96:56|96:56|136:32|136:32|208:32,1,180.000004291535,4|8,0:0|0:0,0:0:0:0:
480,328,250454,6,0,B|416:328|416:328|376:352|376:352|304:352,1,180.000004291535,4|8,0:0|0:0,0:0:0:0:
184,352,250842,1,0,0:0:0:0:
160,232,250971,2,0,B|224:232|224:232|264:256|264:256|336:256,1,180.000004291535,0|8,0:0|0:0,0:0:0:0:
456,232,251359,1,8,0:0:0:0:
344,160,251489,6,8,B|408:168,2,60.0000014305115,8|8|0,0:0|0:0|0:0,0:0:0:0:
176,120,251747,2,8,B|112:112,2,60.0000014305115,8|8|0,0:0|0:0|0:0,0:0:0:0:
280,216,252006,2,8,B|272:288,2,60.0000014305115,8|8|0,0:0|0:0|0:0,0:0:0:0:
240,64,252264,2,8,B|248:0,2,60.0000014305115,8|8|0,0:0|0:0|0:0,0:0:0:0:
200,200,252523,2,8,B|144:240,2,60.0000014305115,8|8|0,0:0|0:0|0:0,0:0:0:0:
320,80,252782,2,8,B|408:16,1,90.0000021457673,8|0,0:0|0:0,0:0:0:0:
460,72,253040,5,8,0:0:0:0:
468,152,253170,1,8,0:0:0:0:
428,224,253299,1,8,0:0:0:0:
428,304,253428,1,8,0:0:0:0:
224,48,254075,6,0,B|144:80|144:184,1,150,0|8,0:0|0:0,0:0:0:0:
288,336,254592,2,0,B|368:304|368:200,1,150,0|8,0:0|0:0,0:0:0:0:
56,312,255109,5,8,0:0:0:0:
48,232,255239,1,8,0:0:0:0:
88,160,255368,1,8,0:0:0:0:
88,80,255497,1,8,0:0:0:0:
168,48,255627,6,0,B|216:120|168:192,1,150,2|8,0:0|0:0,0:0:0:0:
128,264,256014,1,0,0:0:0:0:
192,320,256144,2,0,B|256:376|336:344,1,150,2|8,0:0|0:0,0:0:0:0:
344,184,256661,2,0,B|424:152|488:200,1,150,2|8,0:0|0:0,0:0:0:0:
416,48,257178,5,8,0:0:0:0:
336,80,257308,1,8,0:0:0:0:
256,64,257437,1,8,0:0:0:0:
176,80,257566,1,8,0:0:0:0:
52,184,257695,6,0,B|140:176|172:264,1,150,2|8,0:0|0:0,0:0:0:0:
256,312,258083,1,0,0:0:0:0:
256,312,258213,2,0,B|336:280|344:200,1,150,2|8,0:0|0:0,0:0:0:0:
448,152,258601,2,0,B|456:112|496:88,2,75,8|10|0,0:0|0:0|0:0,0:0:0:0:
496,304,258989,2,0,B|456:296|432:256,1,75,8|8,0:0|0:0,0:0:0:0:
344,200,259247,6,0,B|312:224|264:208,1,75,2|0,0:0|0:0,0:0:0:0:
144,216,259506,2,0,B|184:216|216:256,1,75,8|0,0:0|0:0,0:0:0:0:
312,304,259764,2,0,B|224:296|176:368,1,150,2|8,0:0|0:0,0:0:0:0:
96,296,260152,2,0,B|32:240|56:152,1,150,2|0,0:0|0:0,0:0:0:0:
176,56,260540,2,0,B|200:144|136:200,1,150,10|0,0:0|0:0,0:0:0:0:
272,152,260928,2,0,B|352:176|416:112,1,150,2|0,0:0|0:0,0:0:0:0:
400,240,261316,6,4,B|392:288|424:312,1,75,12|8,0:0|0:0,1:2:0:0:
320,296,261575,2,0,B|304:336|328:384,2,75,8|8|0,0:0|0:0|0:0,0:0:0:0:
256,32,262092,1,8,0:0:0:0:
216,104,262221,2,0,B|168:176|72:160,1,150,2|0,0:0|0:0,0:0:0:0:
88,80,262609,2,0,B|168:48,1,75,8|0,0:0|0:0,0:0:0:0:
296,104,262868,2,0,B|376:72,1,75,10|0,0:0|0:0,0:0:0:0:
264,200,263127,2,0,B|160:240,1,112.5,10|0,0:0|0:0,0:0:0:0:
120,256,263385,5,8,0:0:0:0:
40,240,263514,1,8,0:0:0:0:
64,320,263644,1,8,0:0:0:0:
144,336,263773,2,0,B|176:352|216:344,1,75,8|0,0:0|0:0,0:0:0:0:
296,368,264032,2,0,B|288:280|352:232,1,150,2|0,0:0|0:0,0:0:0:0:
424,200,264420,2,0,B|352:176|344:80,1,150,2|8,0:0|0:0,0:0:0:0:
424,72,264808,1,0,0:0:0:0:
424,72,264937,2,0,B|472:144,1,75,8|8,0:0|0:0,0:0:0:0:
224,160,265325,5,8,0:0:0:0:
197,82,265454,2,0,B|120:23,1,75,6|0,1:2|0:0,0:0:0:0:
143,141,265713,2,0,B|66:82,1,75,8|8,0:0|0:0,0:0:0:0:
13,142,265971,2,0,B|40:231|124:221,1,150,2|8,0:0|0:0,0:0:0:0:
248,248,266359,2,0,B|336:232|376:312,1,150,2|0,0:0|0:0,0:0:0:0:
312,368,266747,6,8,B|240:336,3,75,12|8|8|8,0:0|0:0|0:0|0:0,0:0:0:0:
272,88,267522,5,12,0:0:0:0:
348,124,267652,1,8,0:0:0:0:
272,88,267782,1,8,0:0:0:0:
348,124,267911,1,12,0:0:0:0:
