osu file format v14

[General]
AudioFilename: Wonderful World.mp3
AudioLeadIn: 2000
PreviewTime: 74147
Countdown: 0
SampleSet: Soft
StackLeniency: 0.4
Mode: 0
LetterboxInBreaks: 0
WidescreenStoryboard: 1

[Editor]
DistanceSpacing: 1
BeatDivisor: 4
GridSize: 4
TimelineZoom: 1

[Metadata]
Title:Wonderful World
TitleUnicode:Wonderful World
Artist:Shintani Ryoko
ArtistUnicode:新谷良子
Creator:HanzeR
Version:Normal
Source:
Tags:hatsune miku laurier silynn lantis
BeatmapID:346822
BeatmapSetID:128604

[Difficulty]
HPDrainRate:4
CircleSize:2.8
OverallDifficulty:4
ApproachRate:5
SliderMultiplier:0.9
SliderTickRate:1

[Events]
//Background and Video events
0,0,"39695030.jpg",0,0
//Break Periods
2,66954,72833
2,91623,98680
2,135254,142127
2,213885,218681
//Storyboard Layer 0 (Background)
//Storyboard Layer 1 (Fail)
//Storyboard Layer 2 (Pass)
//Storyboard Layer 3 (Foreground)
//Storyboard Sound Samples

[TimingPoints]
591,517.241379310345,4,2,2,40,1,0
2659,508.474576271186,4,2,2,40,1,0
4184,526.315789473684,4,2,2,40,1,0
4710,508.474576271186,4,2,2,40,1,0
5726,517.241379310345,4,2,2,40,1,0
7794,530.973451327434,4,2,2,40,1,0
8855,521.739130434783,4,2,2,40,1,0
9898,512.820512820513,4,2,2,40,1,0
11949,526.315789473684,4,2,2,40,1,0
13001,517.241379310345,4,2,2,40,1,0
14035,512.820512820513,4,2,2,40,1,0
14547,495.867768595041,4,2,2,40,1,0
15042,259.74025974026,4,2,1,60,1,0
17119,263.157894736842,4,2,1,60,1,0
17645,258.620689655172,4,2,1,60,1,0
18679,260.869565217391,4,2,1,60,1,0
19722,257.510729613734,4,2,1,60,1,0
21267,250,4,2,1,60,1,0
21767,260.869565217391,4,2,1,70,1,0
22288,263.157894736842,4,2,1,70,1,0
22814,260.869565217391,4,2,1,70,1,0
23074,-100,4,2,4,70,0,0
23335,258.620689655172,4,2,1,70,1,0
23335,-100,4,2,1,70,0,0
46093,257.510729613734,4,2,1,70,1,0
51243,275.229357798165,4,2,1,70,1,0
51793,263.157894736842,4,2,1,70,1,0
52319,258.620689655172,4,2,1,70,1,0
53353,255.31914893617,4,2,1,70,1,0
55395,276.497695852535,4,2,1,70,1,0
55671,257.510729613734,4,2,1,70,1,0
56421,257.510729613734,4,2,1,70,1,0
57451,280.373831775701,4,2,1,70,1,0
57731,258.620689655172,4,2,1,70,1,0
59541,256.410256410256,4,2,1,70,1,0
60566,253.164556962025,4,2,1,70,1,0
61388,-100,4,2,4,70,0,0
61578,258.620689655172,4,2,4,70,1,0
61707,-100,4,2,4,70,0,0
61965,-100,4,2,1,70,0,0
62095,267.857142857143,4,2,1,70,1,0
62362,281.69014084507,4,2,2,40,1,0
62643,258.620689655172,4,2,1,70,1,0
65746,252.100840336134,4,2,1,70,1,0
66250,-100,4,2,4,70,0,0
66754,273.972602739726,4,2,2,40,1,0
67575,259.74025974026,4,2,2,40,1,0
69652,256.410256410256,4,2,2,40,1,0
71446,259.74025974026,4,2,2,40,1,0
73523,255.31914893617,4,2,2,40,1,0
74033,258.064516129032,4,2,1,60,1,0
75065,258.620689655172,4,2,1,70,1,1
75065,-100,4,2,1,70,0,1
79202,258.175559380379,4,2,1,70,1,1
82041,-100,4,2,1,70,0,1
82300,-100,4,2,1,70,0,0
82558,-100,4,2,4,70,0,0
82751,-100,4,2,1,70,0,0
82881,-100,4,2,4,70,0,0
83332,-100,4,2,1,70,0,1
86689,-100,4,2,1,70,0,1
87205,-100,4,2,1,70,0,1
87463,263.157894736842,4,2,1,70,1,1
89568,250.521920668058,4,2,1,40,1,0
89942,-100,4,2,1,70,0,0
90069,258.620689655172,4,2,1,70,1,0
91620,258.620689655172,4,2,1,70,1,0
91620,-100,4,2,1,70,0,0
93688,264.31718061674,4,2,1,70,1,0
94216,255.31914893617,4,2,1,70,1,0
94726,258.620689655172,4,2,1,70,1,0
96794,252.100840336134,4,2,1,70,1,0
97298,258.620689655172,4,2,1,70,1,0
98332,254.237288135593,4,2,1,70,1,0
98840,262.582056892779,4,2,2,40,1,0
99365,257.510729613734,4,2,1,40,1,0
99622,-100,4,2,1,50,0,0
99880,258.620689655172,4,2,1,50,1,0
101431,265.486725663717,4,2,1,50,1,0
102492,252.100840336134,4,2,1,50,1,0
102744,258.620689655172,4,2,1,50,1,0
103519,253.164556962025,4,2,1,50,1,0
104025,258.620689655172,4,2,1,50,1,0
104800,250,4,2,1,50,1,0
105050,243.90243902439,4,2,1,50,1,0
105537,278.422273781903,4,2,1,50,1,0
106093,258.620689655172,4,2,1,50,1,0
108680,254.237288135593,4,2,1,50,1,0
108680,-100,4,2,1,70,0,0
108807,-100,4,2,4,50,0,0
109061,-100,4,2,1,50,0,0
109187,-100,4,2,1,50,0,0
109188,262.008733624454,4,2,1,50,1,0
109450,-100,4,2,1,70,0,0
109712,-100,4,2,1,70,0,0
109843,-100,4,2,1,70,0,0
110236,260.869565217391,4,2,1,70,1,0
111149,-100,4,2,1,70,0,0
111279,252.100840336134,4,2,1,70,1,0
111783,259.74025974026,4,2,1,70,1,0
111783,-100,4,2,1,70,0,0
112302,262.008733624454,4,2,1,70,1,0
112826,-100,4,2,1,70,0,0
113350,247.933884297521,4,2,1,70,1,0
113845,263.157894736842,4,2,1,70,1,0
114371,256.410256410256,4,2,1,70,1,0
115909,267.857142857143,4,2,1,70,1,0
115909,-100,4,2,4,70,0,0
116444,262.008733624454,4,2,1,60,1,0
116444,-100,4,2,1,60,0,0
117492,246.913580246914,4,2,1,60,1,0
117985,270.880361173815,4,2,1,60,1,0
118526,258.620689655172,4,2,1,60,1,0
120595,256.410256410256,4,2,1,60,1,0
123992,-100,4,2,4,60,0,0
124120,-100,4,2,1,60,0,0
124184,258.620689655172,4,2,1,60,1,0
124701,260.869565217391,4,2,1,60,1,0
125744,259.74025974026,4,2,1,60,1,0
126782,265.486725663717,4,2,1,60,1,0
127843,248.96265560166,4,2,1,60,1,0
128340,257.510729613734,4,2,1,60,1,0
128855,256.410256410256,4,2,1,60,1,0
129880,254.237288135593,4,2,1,60,1,0
130197,-100,4,2,4,60,0,0
130388,264.900662251656,4,2,4,60,1,0
130917,258.620689655172,4,2,1,60,1,0
130917,-100,4,2,1,60,0,0
133826,-100,4,2,4,70,0,0
133955,-100,4,2,1,70,0,0
134279,-100,4,2,4,70,0,0
134473,-100,4,2,1,70,0,0
134602,-100,4,2,4,70,0,0
135054,273.972602739726,4,2,2,40,1,0
135054,-100,4,2,1,40,0,0
135875,247.933884297521,4,2,2,40,1,0
136618,259.74025974026,4,2,2,40,1,0
140254,252.100840336134,4,2,2,40,1,0
141766,260.869565217391,4,2,2,40,1,0
143070,-100,4,2,2,70,0,0
143331,259.179265658747,4,2,2,70,1,0
148514,260.303687635575,4,2,2,70,1,0
149553,258.620689655172,4,2,2,70,1,0
154725,263.157894736842,4,2,2,60,1,0
155777,256.410256410256,4,2,1,70,1,1
156289,-100,4,2,1,70,0,1
157828,252.100840336134,4,2,1,70,1,1
158332,258.620689655172,4,2,1,70,1,1
161952,254.237288135593,4,2,1,70,1,1
162714,-100,4,2,1,70,0,1
162968,264.31718061674,4,2,1,70,1,1
162968,-100,4,2,1,70,0,0
163034,-100,4,2,4,70,0,0
163166,-100,4,2,1,70,0,0
163496,-100,4,2,4,70,0,0
164025,262.008733624454,4,2,1,70,1,1
164025,-100,4,2,1,70,0,1
165073,259.74025974026,4,2,1,70,1,1
166111,253.164556962025,4,2,1,70,1,1
167123,247.933884297521,4,2,1,70,1,1
167618,267.857142857143,4,2,1,70,1,1
167885,258.620689655172,4,2,1,70,1,1
169178,262.008733624454,4,2,1,70,1,1
170750,252.100840336134,4,2,1,70,1,1
171254,262.008733624454,4,2,1,70,1,1
171254,-100,4,2,1,70,0,1
171516,-100,4,2,1,70,0,1
171778,269.058295964126,4,2,1,70,1,0
171778,-100,4,2,1,70,0,1
172316,258.620689655172,4,2,1,70,1,0
172316,-100,4,2,1,70,0,0
172833,-100,4,2,1,50,0,0
173350,255.31914893617,4,2,1,50,1,0
175264,-100,4,2,4,50,0,0
175392,260.869565217391,4,2,4,50,1,0
176435,-100,4,2,1,50,0,0
176957,255.31914893617,4,2,1,50,1,0
177978,254.237288135593,4,2,1,50,1,0
178994,256.959314775161,4,2,1,50,1,0
180535,266.666666666667,4,2,1,50,1,0
181601,259.74025974026,4,2,1,50,1,0
183678,258.620689655172,4,2,1,50,1,0
184195,-100,4,2,4,50,0,0
184389,-100,4,2,1,50,0,0
184518,-100,4,2,4,50,0,0
184712,257.510729613734,4,2,1,50,1,0
184712,-100,4,2,1,50,0,0
188832,260.869565217391,4,2,1,50,1,0
189875,257.510729613734,4,2,1,50,1,0
192965,263.157894736842,4,2,1,50,1,0
193491,266.666666666667,4,2,1,50,1,0
194024,258.620689655172,4,2,1,50,1,0
194541,267.857142857143,4,2,1,50,1,0
194808,245.901639344262,4,2,1,50,1,0
195053,262.008733624454,4,2,1,50,1,0
195573,250,4,2,1,50,1,0
196073,263.157894736842,4,2,1,50,1,0
196599,253.164556962025,4,2,1,50,1,0
197105,263.157894736842,4,2,1,50,1,0
198157,250,4,2,1,50,1,0
198657,260.869565217391,4,2,1,50,1,0
200222,251.046025104603,4,2,1,50,1,0
201226,297.029702970297,4,2,1,50,1,0
201523,254.237288135593,4,2,1,50,1,0
201777,266.666666666667,4,2,1,50,1,0
202310,258.620689655172,4,2,1,50,1,0
203344,256.410256410256,4,2,1,50,1,0
204882,263.157894736842,4,2,1,20,1,0
204882,-100,4,2,1,20,0,0
205408,-100,4,2,1,70,0,0
206987,244.897959183673,4,2,1,70,1,0
207476,254.237288135593,4,2,1,70,1,0
209001,266.666666666667,4,2,1,70,1,0
209534,270.27027027027,4,2,1,70,1,0
210074,252.100840336134,4,2,1,70,1,0
210578,262.008733624454,4,2,1,70,1,0
211102,257.510729613734,4,2,1,70,1,0
211617,258.620689655172,4,2,1,70,1,0
213685,263.157894736842,4,2,1,70,1,0
214737,256.959314775161,4,2,1,70,1,0
216792,259.74025974026,4,2,1,70,1,0
217830,256.410256410256,4,2,1,70,1,0
219881,257.510729613734,4,2,1,70,1,0
219881,-100,4,2,1,70,0,0
220911,259.74025974026,4,2,1,70,1,0
220911,-100,4,2,2,100,0,0
221949,258.620689655172,4,2,1,70,1,1
221949,-100,4,2,1,70,0,1
228155,260.869565217391,4,2,1,70,1,1
229198,-100,4,2,1,70,0,0
229720,252.100840336134,4,2,4,70,1,0
229720,-100,4,2,4,70,0,0
230098,-100,4,2,1,70,0,0
230224,260.869565217391,4,2,1,70,1,1
230224,-100,4,2,1,70,0,1
230484,-100,4,2,1,70,0,1
230810,-100,4,2,1,70,0,1
231137,-100,4,2,1,70,0,1
232310,258.620689655172,4,2,1,70,1,1
232827,255.31914893617,4,2,1,70,1,1
233337,258.620689655172,4,2,1,70,1,1
238444,-100,4,2,1,70,0,0
238509,256.410256410256,4,2,1,70,1,1
238509,-100,4,2,1,70,0,1
239021,263.157894736842,4,2,1,70,1,1
240073,257.510729613734,4,2,1,70,1,1
241103,258.620689655172,4,2,1,70,1,1
243171,257.510729613734,4,2,1,70,1,1
246003,-100,4,2,4,70,0,0
246711,-100,4,2,1,70,0,0
246776,-100,4,2,1,70,0,1
247806,260.869565217391,4,2,1,70,1,1
249892,254.237288135593,4,2,1,70,1,1
250908,258.620689655172,4,2,1,70,1,1
250908,-100,4,2,1,70,0,0
253494,-100,4,2,0,70,0,0
254011,-100,4,2,1,70,0,0
255045,256.410256410256,4,2,1,70,1,0
257122,258.620689655172,4,2,1,70,1,0
257122,-100,4,2,1,70,0,0
257380,-100,4,2,1,70,0,0
259190,-100,4,2,1,70,0,0
260225,254.237288135593,4,2,1,70,1,0
260733,264.31718061674,4,2,1,70,1,0
261790,257.510729613734,4,2,1,70,1,0
264622,256.410256410256,4,2,1,70,1,0
265391,259.74025974026,4,2,1,70,1,0
266689,266.666666666667,4,2,1,70,1,0
267222,250,4,2,1,70,1,0

[Colours]
Combo1 : 183,183,219
Combo2 : 151,203,255
Combo3 : 128,128,255
Combo4 : 83,169,255

[HitObjects]
60,132,591,6,0,P|96:108|152:116,1,90,4|4,0:0|0:0,0:0:0:0:
228,140,1625,2,0,P|272:142|309:118,1,90,0|0,0:0|0:0,0:0:0:0:
396,92,2659,2,0,L|383:198,1,90
488,32,4184,1,0,0:0:0:0:
480,124,4710,6,0,L|468:228,1,90
452,300,5726,2,0,P|392:336|300:284,1,180
469,213,7789,1,0,0:0:0:0:
272,256,8865,6,0,P|232:236|184:248,1,90
124,308,9898,2,0,P|80:317|41:297,1,90,0|0,0:0|0:0,0:0:0:0:
92,224,10923,2,0,L|104:72,2,135,0|0|0,0:0|0:0|0:0,0:0:0:0:
176,192,13001,6,0,L|184:84,1,90
268,68,14035,2,0,L|260:176,1,90,0|0,0:0|0:0,0:0:0:0:
412,228,15042,6,0,L|416:176,3,45,8|8|8|8,0:0|0:0|0:0|0:0,0:0:0:0:
136,172,18679,6,0,L|84:176,3,45,8|8|8|8,0:0|0:0|0:0|0:0,0:0:0:0:
180,184,19200,2,0,L|232:180,3,45,8|8|8|8,0:0|0:0|0:0|0:0,0:0:0:0:
80,64,21642,6,0,P|140:52|196:104,1,135,2|8,0:0|0:0,0:0:0:0:
132,172,22288,2,0,L|125:216,3,45,4|0|8|0,0:0|0:0|0:0|0:0,0:0:0:0:
136,260,22810,2,0,L|129:304,3,45,4|0|8|0,0:0|0:0|0:0|0:0,0:0:0:0:
136,260,23335,6,0,P|176:236|236:248,1,90,4|8,0:0|0:0,0:0:0:0:
304,216,23852,2,0,P|346:235|371:291,1,90,2|8,0:0|0:0,0:0:0:0:
284,300,24369,2,0,P|244:324|184:312,3,90,2|8|2|8,0:0|0:0|0:0|0:0,0:0:0:0:
116,300,25403,6,0,L|104:196,1,90,2|8,0:0|0:0,0:0:0:0:
188,172,25921,2,0,L|176:68,1,90,2|8,0:0|0:0,0:0:0:0:
264,52,26438,2,0,L|272:100,3,45,2|0|8|0,0:0|0:0|0:0|0:0,0:0:0:0:
316,88,26955,2,0,L|324:136,3,45,2|0|8|0,0:0|0:0|0:0|0:0,0:0:0:0:
368,124,27472,6,0,L|384:220,3,90,4|8|2|8,0:0|0:0|0:0|0:0,0:0:0:0:
472,224,28507,2,0,L|488:320,3,90,2|8|2|8,0:0|0:0|0:0|0:0,0:0:0:0:
400,340,29541,6,0,P|348:300|280:324,1,135,6|0,0:0|0:0,0:0:0:0:
156,260,30317,2,0,P|96:272|36:228,1,135,8|8,0:0|0:0,0:0:0:0:
64,100,31093,2,0,L|51:56,2,45,0|0|0,0:0|0:0|0:0,0:0:0:0:
152,128,31610,6,0,B|240:104|240:104|328:152,1,180,4|2,0:0|0:0,0:0:0:0:
492,196,32645,2,0,P|492:116|448:80,2,135,2|2|8,0:0|0:0|0:0,0:0:0:0:
452,276,33679,2,0,P|392:252|432:152,1,180,2|2,0:0|0:0,0:0:0:0:
288,312,34714,2,0,L|144:332,2,135,2|2|8,0:0|0:0|0:0,0:0:0:0:
232,240,35748,6,0,B|144:252|144:252|116:200|64:208,1,180,2|2,0:0|0:0,0:0:0:0:
64,296,36524,1,8,0:0:0:0:
56,208,36783,2,0,L|40:16,1,180,2|2,0:0|0:0,0:0:0:0:
216,68,37817,6,0,P|268:104|348:80,2,135,2|2|8,0:0|0:0|0:0,0:0:0:0:
128,64,38852,2,0,L|148:248,1,180,0|2,0:0|0:0,0:0:0:0:
224,292,39628,1,8,0:0:0:0:
312,320,39886,6,0,B|352:312|384:340|384:340|436:360|482:334,1,180,2|2,0:0|0:0,0:0:0:0:
324,230,40921,2,0,P|261:236|224:308,2,135,2|2|8,0:0|0:0|0:0,0:0:0:0:
420,248,41955,2,0,L|432:152,3,90,2|8|2|8,0:0|0:0|0:0|0:0,0:0:0:0:
444,68,42990,2,0,P|376:48|308:88,1,135,2|0,0:0|0:0,0:0:0:0:
224,168,43766,6,0,L|200:264,3,90,8|2|8|2,0:0|0:0|0:0|0:0,0:0:0:0:
144,324,44800,2,0,P|116:292|120:236,2,90,8|0|8,0:0|0:0|0:0,0:0:0:0:
232,344,45576,1,2,0:0:0:0:
256,192,45641,12,8,47128,0:0:0:0:
60,128,48153,6,0,P|112:80|212:120,1,180,4|2,0:0|0:0,0:0:0:0:
384,140,49183,2,0,P|344:128|288:148,3,90,2|8|2|8,0:0|0:0|0:0|0:0,0:0:0:0:
344,220,50213,2,0,P|408:228|472:132,1,180,2|2,0:0|0:0,0:0:0:0:
488,324,51243,6,0,P|452:340|396:332,1,90,2|8,0:0|0:0,0:0:0:0:
316,312,51793,2,0,P|271:306|230:323,1,90,2|8,0:0|0:0,0:0:0:0:
152,368,52319,1,2,0:0:0:0:
60,212,52836,6,0,L|112:300,2,90,2|8|2,0:0|0:0|0:0,0:0:0:0:
76,124,53608,1,8,0:0:0:0:
164,136,53863,2,0,P|164:92|132:56,1,90,0|8,0:0|0:0,0:0:0:0:
224,36,54374,6,0,L|324:40,1,90,2|8,0:0|0:0,0:0:0:0:
288,128,54884,2,0,L|388:132,1,90,2|8,0:0|0:0,0:0:0:0:
352,220,55395,2,0,L|452:224,1,90,2|8,0:0|0:0,0:0:0:0:
284,312,56186,5,8,0:0:0:0:
196,308,56421,2,0,L|8:300,1,180,4|2,0:0|0:0,0:0:0:0:
60,124,57451,2,0,B|80:160|80:160|76:220,3,90,2|8|2|8,0:0|0:0|0:0|0:0,0:0:0:0:
168,204,58506,2,0,B|172:128|172:128|100:28,1,180,2|2,0:0|0:0,0:0:0:0:
288,56,59541,6,0,L|356:128,3,90,2|8|2|8,0:0|0:0|0:0|0:0,0:0:0:0:
440,100,60566,2,0,P|436:164|340:212,1,180,2|8,0:0|0:0,0:0:0:0:
256,184,61325,1,2,0:0:0:0:
204,256,61578,2,0,L|216:352,2,90,8|2|4,0:0|0:0|0:0,0:0:0:0:
64,144,62643,6,0,L|44:92,3,45,8|8|8|8,0:0|0:0|0:0|0:0,0:0:0:0:
364,96,63936,2,0,L|384:148,3,45,8|8|8|8,0:0|0:0|0:0|0:0,0:0:0:0:
324,260,64711,2,0,L|304:208,3,45,8|8|8|8,0:0|0:0|0:0|0:0,0:0:0:0:
256,192,65229,12,4,66754,0:0:0:0:
100,0,74033,6,8,P|136:47|107:118,1,135
158,106,74549,2,8,L|102:241,1,135
60,228,75065,6,0,P|100:220|176:324,1,180,4|2,0:0|0:0,0:0:0:0:
356,324,75970,2,0,P|304:312|260:232,1,135,2|8,0:0|0:0,0:0:0:0:
332,80,76875,2,0,L|340:184,2,90,8|2|8,0:0|0:0|0:0,0:0:0:0:
420,108,77651,2,0,L|432:256,1,135,2|2,0:0|0:0,0:0:0:0:
296,248,78427,2,0,P|256:224|200:232,1,90,8|2,0:0|0:0,0:0:0:0:
136,268,78944,1,8,0:0:0:0:
24,56,79718,6,0,B|56:36|88:60|88:60|140:88|208:56,1,180,2|0,0:0|0:0,0:0:0:0:
284,44,80492,2,0,P|312:88|304:144,1,90,8|2,0:0|0:0,0:0:0:0:
272,204,81009,1,8,0:0:0:0:
432,288,81525,6,0,L|444:184,1,90,8|2,0:0|0:0,0:0:0:0:
456,108,82041,1,8,0:0:0:0:
452,16,82300,2,0,P|396:32|376:152,1,180,2|2,0:0|0:0,0:0:0:0:
288,300,83332,6,0,L|268:116,1,180,4|2,0:0|0:0,0:0:0:0:
164,36,84236,2,0,P|116:60|108:152,1,135,2|8,0:0|0:0,0:0:0:0:
48,308,85140,6,0,L|32:216,1,90,8|2,0:0|0:0,0:0:0:0:
16,132,85656,1,8,0:0:0:0:
80,68,85914,2,0,P|104:116|68:204,2,135,2|2|8,0:0|0:0|0:0,0:0:0:0:
168,52,86947,2,0,L|276:56,1,90,2|8,0:0|0:0,0:0:0:0:
348,56,87463,1,4,0:0:0:0:
480,180,87989,6,0,B|388:176|388:176|312:220,1,180,2|0,0:0|0:0,0:0:0:0:
264,300,88778,2,0,P|304:312|364:296,2,90,8|2|8,0:0|0:0|0:0,0:0:0:0:
192,240,89568,2,0,L|172:188,3,45,10|8|8|8,0:0|0:0|0:0|0:0,0:0:0:0:
80,88,99880,6,0,L|104:188,1,90,4|0,0:0|0:0,0:0:0:0:
136,260,100397,2,0,B|176:224|176:224|264:208,1,135,8|8,0:0|0:0,0:0:0:0:
388,188,101173,1,0,0:0:0:0:
464,236,101431,2,0,L|460:336,1,90,8|0,0:0|0:0,0:0:0:0:
364,304,101961,6,0,P|276:296|196:344,1,180,2|8,0:0|0:0,0:0:0:0:
116,312,102744,1,8,0:0:0:0:
92,224,103002,2,0,L|72:128,1,90,0|2,0:0|0:0,0:0:0:0:
144,80,103519,2,0,B|160:136|160:136|224:112|280:152,1,180
352,188,104283,5,0,0:0:0:0:
440,172,104542,2,0,L|432:276,1,90,8|0,0:0|0:0,0:0:0:0:
380,332,105050,2,0,P|344:308|292:308,1,90,0|2,0:0|0:0,0:0:0:0:
212,328,105537,2,0,P|167:326|130:302,1,90,8|0,0:0|0:0,0:0:0:0:
88,224,106093,5,2,0:0:0:0:
76,136,106351,2,0,L|68:44,2,90,0|8|0,0:0|0:0|0:0,0:0:0:0:
160,168,107127,1,2,0:0:0:0:
240,124,107386,2,0,L|284:96,4,45,8|0|8|0|4,0:0|0:0|0:0|0:0|0:0,0:0:0:0:
320,80,108161,6,0,B|344:140|344:140|312:252,1,180,0|8,0:0|0:0,0:0:0:0:
156,340,109188,2,0,B|144:308|144:308|172:244,1,90,8|2,0:0|0:0,0:0:0:0:
196,172,109712,2,0,P|152:168|104:200,1,90,8|0,0:0|0:0,0:0:0:0:
64,264,110236,5,2,0:0:0:0:
48,84,110757,2,0,P|88:56|176:68,1,135,8|8,0:0|0:0,0:0:0:0:
268,156,111531,1,2,0:0:0:0:
352,120,111783,2,0,P|360:168|340:220,1,90,0|0,0:0|0:0,0:0:0:0:
416,268,112302,6,0,P|368:228|256:260,1,180,2|8,0:0|0:0,0:0:0:0:
164,352,113219,2,0,B|124:324|124:324|120:224,1,135,8|2,0:0|0:0,0:0:0:0:
120,148,113845,1,8,0:0:0:0:
120,56,114108,1,0,0:0:0:0:
304,64,114627,6,0,P|336:88|396:96,1,90,0|8,0:0|0:0,0:0:0:0:
472,80,115140,1,8,0:0:0:0:
464,168,115396,2,0,L|460:220,3,45,2|2|8|8,0:0|0:0|0:0|0:0,0:0:0:0:
456,256,115909,2,0,L|452:308,3,45,2|2|8|8,0:0|0:0|0:0|0:0,0:0:0:0:
456,256,116444,6,0,P|412:284|292:248,1,180,4|2,0:0|0:0,0:0:0:0:
116,240,117492,2,0,P|140:284|128:336,3,90,0|8|2|8,0:0|0:0|0:0|0:0,0:0:0:0:
48,300,118526,2,0,P|28:264|88:152,1,180,2|2,0:0|0:0,0:0:0:0:
232,48,119560,2,0,L|324:48,3,90,2|8|2|8,0:0|0:0|0:0|0:0,0:0:0:0:
412,60,120594,6,0,B|408:116|408:116|420:164|420:164|412:244,1,180,0|2,0:0|0:0,0:0:0:0:
392,324,121364,1,8,0:0:0:0:
304,340,121620,2,0,P|304:296|336:256,3,90,2|8|2|8,0:0|0:0|0:0|0:0,0:0:0:0:
252,216,122646,2,0,P|212:232|164:224,1,90,2|8,0:0|0:0,0:0:0:0:
84,188,123159,1,2,0:0:0:0:
32,116,123415,2,0,P|60:100|120:108,2,90,8|8|2,0:0|0:0|0:0,0:0:0:0:
212,96,124442,6,0,L|316:84,1,90,8|4,0:0|0:0,0:0:0:0:
480,68,125222,1,2,0:0:0:0:
416,236,125744,2,0,P|332:244|272:320,1,180,2|2,0:0|0:0,0:0:0:0:
208,252,126523,1,8,0:0:0:0:
208,252,126782,2,0,L|24:272,1,180,2|2,0:0|0:0,0:0:0:0:
96,104,127777,6,0,B|132:124|132:124|116:152|120:188,3,90,0|8|2|8,0:0|0:0|0:0|0:0,0:0:0:0:
208,168,128855,2,0,L|316:152,1,90,2|8,0:0|0:0,0:0:0:0:
388,148,129367,6,0,L|376:256,1,90,2|8,0:0|0:0,0:0:0:0:
360,324,129880,1,2,0:0:0:0:
292,264,130134,2,0,P|244:264|204:296,2,90,2|10|10,0:0|0:0|0:0,0:0:0:0:
360,324,130917,6,0,L|424:336,3,45,12|8|12|8,0:0|0:0|0:0|0:0,0:0:0:0:
188,100,132210,2,0,L|124:88,3,45,8|8|8|8,0:0|0:0|0:0|0:0,0:0:0:0:
256,164,132985,2,0,L|256:216,3,45,8|8|8|0,0:0|0:0|0:0|0:0,0:0:0:0:
256,192,133503,12,4,135054,0:0:0:0:
64,76,143327,6,0,P|104:56|160:72,1,90,2|0,0:0|0:0,0:0:0:0:
188,84,143719,2,0,P|248:104|324:68,1,135,0|0,0:0|0:0,0:0:0:0:
344,48,144238,2,0,L|356:152,1,90,0|0,0:0|0:0,0:0:0:0:
364,180,144626,2,0,P|408:184|444:216,2,90,0|0|0,0:0|0:0|0:0,0:0:0:0:
376,268,145404,6,0,L|272:276,1,90,0|0,0:0|0:0,0:0:0:0:
312,312,145793,2,0,P|256:280|176:296,1,135,0|0,0:0|0:0,0:0:0:0:
172,332,146311,2,0,L|152:228,1,90,0|0,0:0|0:0,0:0:0:0:
136,200,146700,2,0,P|104:172|92:120,2,90,0|0|0,0:0|0:0|0:0,0:0:0:0:
184,116,147477,6,0,P|264:124|352:56,1,180,0|0,0:0|0:0,0:0:0:0:
384,152,148255,2,0,L|372:340,1,180,0|0,0:0|0:0,0:0:0:0:
288,296,149034,1,0,0:0:0:0:
112,332,149555,6,0,B|72:300|72:300|60:160,1,180
60,80,150328,2,0,P|96:84|144:208,1,180,0|0,0:0|0:0,0:0:0:0:
236,208,151104,2,0,L|312:256,1,90,0|0,0:0|0:0,0:0:0:0:
256,192,151621,12,0,154725,0:0:0:0:
120,60,155777,6,0,B|80:104|80:104|100:244,1,180,4|2,0:0|0:0,0:0:0:0:
188,320,156674,2,0,B|200:264|200:264|188:176,1,135,2|8,0:0|0:0,0:0:0:0:
296,40,157571,2,0,L|316:140,2,90,8|0|0,0:0|0:0|0:0,0:0:0:0:
376,32,158332,6,0,B|396:120|396:120|392:168,1,135,2|2,0:0|0:0,0:0:0:0:
364,296,159107,2,0,B|408:304|408:304|452:276,2,90,8|2|8,0:0|0:0|0:0,0:0:0:0:
276,272,159883,6,0,B|220:256|220:256|116:328,1,180,2|2,0:0|0:0,0:0:0:0:
44,372,160659,1,8,0:0:0:0:
36,284,160918,2,0,L|28:180,1,90,2|8,0:0|0:0,0:0:0:0:
28,104,161435,2,0,P|76:112|104:148,1,90,2|8,0:0|0:0,0:0:0:0:
152,72,161952,6,0,P|224:88|332:52,1,180,2|2,0:0|0:0,0:0:0:0:
404,20,162714,1,8,0:0:0:0:
396,108,162968,2,0,L|388:208,1,90,2|2,0:0|0:0,0:0:0:0:
472,228,163496,2,0,P|500:204|504:192,3,45,8|8|8|2,0:0|0:0|0:0|0:0,0:0:0:0:
472,228,164025,6,0,P|420:200|320:252,1,180,4|2,0:0|0:0,0:0:0:0:
224,348,164942,2,0,B|196:368|196:368|180:256,1,135,2|8,0:0|0:0,0:0:0:0:
72,128,165852,2,0,B|100:136|100:136|112:208,2,90,8|2|8,0:0|0:0|0:0,0:0:0:0:
48,40,166617,2,0,L|192:56,1,135,2|2,0:0|0:0,0:0:0:0:
316,76,167370,2,0,B|296:116|296:116|308:172,2,90,8|2|8,0:0|0:0|0:0,0:0:0:0:
388,132,168143,6,0,L|416:232,1,90,2|8,0:0|0:0,0:0:0:0:
460,296,168660,2,0,P|388:248|296:284,1,180,2|2,0:0|0:0,0:0:0:0:
236,332,169440,1,8,0:0:0:0:
236,332,169702,2,0,L|196:244,1,90,2|8,0:0|0:0,0:0:0:0:
124,300,170226,6,0,L|104:252,1,45,2|8,0:0|0:0,0:0:0:0:
80,172,170619,1,0,0:0:0:0:
80,172,170750,2,0,P|124:164|160:128,1,90,4|8,0:0|0:0,0:0:0:0:
164,44,171254,2,0,P|204:52|240:104,1,90,2|8,0:0|0:0,0:0:0:0:
292,156,171778,2,0,L|276:256,1,90,2|8,0:0|0:0,0:0:0:0:
252,332,172316,5,2,0:0:0:0:
164,312,172574,1,0,0:0:0:0:
120,232,172833,2,0,L|113:187,3,45,8|0|0|8,0:0|0:0|0:0|0:0,0:0:0:0:
180,128,173477,2,0,L|172:72,2,45,2|0|0,0:0|0:0|0:0,0:0:0:0:
224,140,173860,2,0,L|232:192,3,45,8|2|0|0,0:0|0:0|0:0|0:0,0:0:0:0:
320,172,174498,6,0,B|368:164|368:164|412:184,1,90,0|2,0:0|0:0,0:0:0:0:
444,204,174881,2,0,L|432:264,3,45,8|0|0|8,0:0|0:0|0:0|0:0,0:0:0:0:
476,232,175392,2,0,L|456:327,2,90,8|8|8,0:0|0:0|0:0,0:0:0:0:
492,144,176174,1,0,0:0:0:0:
408,168,176435,6,0,P|364:148|316:156,1,90,4|0,0:0|0:0,0:0:0:0:
276,228,176957,2,0,L|280:280,3,45,8|0|0|8,0:0|0:0|0:0|0:0,0:0:0:0:
188,280,177595,2,0,L|184:228,2,45,0|2|0,0:0|0:0|0:0,0:0:0:0:
152,308,177978,2,0,L|156:360,3,45,8|2|0|0,0:0|0:0|0:0|0:0,0:0:0:0:
68,332,178613,6,0,B|48:292|48:292|56:240,1,90,0|2,0:0|0:0,0:0:0:0:
64,204,178994,2,0,L|76:148,3,45,8|0|0|0,0:0|0:0|0:0|0:0,0:0:0:0:
32,144,179507,2,0,L|52:49,1,90,8|0,0:0|0:0,0:0:0:0:
136,28,180021,2,0,L|230:48,1,90,8|0,0:0|0:0,0:0:0:0:
224,136,180535,6,0,P|268:128|308:88,1,90,6|0,0:0|0:0,0:0:0:0:
368,160,181068,2,0,L|412:152,3,45,8|0|0|8,0:0|0:0|0:0|0:0,0:0:0:0:
448,236,181730,2,0,L|460:292,2,45,0|2|0,0:0|0:0|0:0,0:0:0:0:
476,200,182120,2,0,L|492:260,3,45,8|2|0|0,0:0|0:0|0:0|0:0,0:0:0:0:
460,332,182769,6,0,B|416:320|416:320|360:340,1,90,0|2,0:0|0:0,0:0:0:0:
356,296,183159,2,0,L|308:272,3,45,8|0|0|0,0:0|0:0|0:0|0:0,0:0:0:0:
288,312,183678,2,0,P|244:312|204:276,1,90,10|8,0:0|0:0,0:0:0:0:
136,232,184195,2,0,L|124:322,1,90,8|8,0:0|0:0,0:0:0:0:
36,340,184712,1,6,0:0:0:0:
44,156,185227,6,0,L|32:108,3,45,8|0|0|8,0:0|0:0|0:0|0:0,0:0:0:0:
108,60,185870,2,0,L|118:103,2,45,0|2|0,0:0|0:0|0:0,0:0:0:0:
152,72,186257,2,0,L|162:115,3,45,8|2|0|0,0:0|0:0|0:0|0:0,0:0:0:0:
248,88,186900,2,0,B|288:108|288:108|340:100,1,90,0|2,0:0|0:0,0:0:0:0:
376,92,187287,6,0,L|424:84,3,45,8|2|8|0,0:0|0:0|0:0|0:0,0:0:0:0:
408,128,187802,2,0,L|456:120,3,45,8|2|8|4,0:0|0:0|0:0|0:0,0:0:0:0:
440,164,188317,2,0,L|488:156,3,45,8|2|8|4,0:0|0:0|0:0|0:0,0:0:0:0:
504,200,188832,6,0,B|472:236|472:236|332:208,1,180,6|2,0:0|0:0,0:0:0:0:
204,324,189875,2,0,B|236:288|236:288|376:316,1,180,2|2,0:0|0:0,0:0:0:0:
244,180,190905,2,0,P|192:172|128:284,1,180,0|2,0:0|0:0,0:0:0:0:
144,352,191677,1,8,0:0:0:0:
56,332,191935,2,0,L|12:236,2,90,2|2|2,0:0|0:0|0:0,0:0:0:0:
104,160,192965,6,0,B|132:144|172:168|172:168|228:188|284:152,1,180,4|2,0:0|0:0,0:0:0:0:
424,56,194024,2,0,P|380:84|380:204,1,180,2|2,0:0|0:0,0:0:0:0:
452,144,194808,1,8,0:0:0:0:
460,232,195053,6,0,P|420:276|300:244,1,180,2|0,0:0|0:0,0:0:0:0:
212,108,196073,2,0,L|192:56,2,45,2|2|8,0:0|0:0|0:0,0:0:0:0:
144,168,196599,2,0,L|124:116,3,45,8|0|2|0,0:0|0:0|0:0|0:0,0:0:0:0:
112,84,197105,6,0,B|80:124|80:124|128:248,1,180,4|2,0:0|0:0,0:0:0:0:
288,320,198157,2,0,P|228:304|128:364,1,180,2|2,0:0|0:0,0:0:0:0:
232,212,199178,2,0,P|292:228|392:168,1,180,2|2,0:0|0:0,0:0:0:0:
396,84,199961,1,8,0:0:0:0:
308,108,200222,2,0,P|264:116|208:88,1,90,2|2,0:0|0:0,0:0:0:0:
140,64,200724,6,0,P|98:48|54:56,1,90,2|2,0:0|0:0,0:0:0:0:
12,76,201100,1,2,0:0:0:0:
44,108,201226,2,0,P|64:140|16:272,1,180,4|2,0:0|0:0,0:0:0:0:
112,292,202043,2,0,L|276:192,1,180
256,108,202827,2,0,P|292:136|344:140,1,90,0|2,0:0|0:0,0:0:0:0:
424,120,203344,6,0,L|440:12,5,90,6|6|6|6|6|6,0:0|0:0|0:0|0:0|0:0|0:0,0:0:0:0:
468,88,204882,1,0,0:0:0:0:
432,264,205408,1,4,0:0:0:0:
256,192,205474,12,2,207447,0:0:0:0:
256,192,207539,12,4,209534,0:0:0:0:
256,192,209601,12,6,213685,0:0:0:0:
256,172,219881,6,0,L|256:262,3,90,2|2|2|2,0:0|0:0|0:0|0:0,0:0:0:0:
256,352,220911,1,2,0:0:0:0:
60,56,221949,6,0,B|80:184|80:184|112:136,1,180,4|2,0:0|0:0,0:0:0:0:
272,64,222854,2,0,P|328:40|408:56,1,135,2|8,0:0|0:0,0:0:0:0:
480,212,223759,2,0,P|440:232|392:224,1,90,8|2,0:0|0:0,0:0:0:0:
312,200,224276,1,8,0:0:0:0:
240,144,224535,2,0,P|222:182|260:276,1,135,2|2,0:0|0:0,0:0:0:0:
372,324,225311,2,0,L|272:348,1,90,8|2,0:0|0:0,0:0:0:0:
196,336,225828,1,8,0:0:0:0:
108,312,226086,6,0,B|60:292|60:292|48:164,1,180,2|2,0:0|0:0,0:0:0:0:
188,48,227121,2,0,P|146:64|121:101,1,90,2|8,0:0|0:0,0:0:0:0:
136,192,227638,2,0,P|176:209|220:201,1,90,2|8,0:0|0:0,0:0:0:0:
304,172,228155,1,2,0:0:0:0:
380,120,228415,6,0,P|360:96|292:84,2,90,8|2|8,0:0|0:0|0:0,0:0:0:0:
468,136,229198,2,0,L|452:232,1,90,2|8,0:0|0:0,0:0:0:0:
432,312,229720,1,8,0:0:0:0:
252,292,230224,6,0,P|236:276|208:272,1,45,4|2,0:0|0:0,0:0:0:0:
172,280,230484,2,0,L|144:184,1,90
100,188,230876,2,0,L|112:144,1,45
128,100,231137,2,0,P|184:96|244:32,1,135,0|8,0:0|0:0,0:0:0:0:
328,40,231789,5,0,0:0:0:0:
328,40,232050,2,0,P|372:44|368:84,2,90,8|2|8,0:0|0:0|0:0,0:0:0:0:
292,120,232827,2,0,P|316:152|420:152,1,135,2|2,0:0|0:0,0:0:0:0:
468,288,233595,2,0,P|428:268|380:276,2,90,8|2|8,0:0|0:0|0:0,0:0:0:0:
412,364,234371,6,0,P|360:364|292:256,1,180,2|2,0:0|0:0,0:0:0:0:
116,308,235405,2,0,L|26:321,3,90,2|8|2|8,0:0|0:0|0:0|0:0,0:0:0:0:
44,232,236440,2,0,L|133:218,1,90,8|10,0:0|0:0,0:0:0:0:
224,204,236957,5,4,0:0:0:0:
168,136,237216,1,8,0:0:0:0:
228,68,237474,2,0,P|283:60|328:86,1,90,2|8,0:0|0:0,0:0:0:0:
392,116,237992,2,0,L|380:220,1,90,8|8,0:0|0:0,0:0:0:0:
364,292,238509,6,0,P|316:332|240:312,1,135,6|2,0:0|0:0,0:0:0:0:
208,296,239021,2,0,P|143:282|92:323,1,135,2|2,0:0|0:0,0:0:0:0:
76,364,239547,6,0,L|60:212,1,135,2|2,0:0|0:0,0:0:0:0:
60,184,240073,2,0,B|92:177|120:208|120:208|160:163|107:144,1,135,2|2,0:0|0:0,0:0:0:0:
88,132,240588,2,0,P|43:130|8:220,1,135,2|2,0:0|0:0,0:0:0:0:
32,236,241103,6,0,P|75:243|105:290,1,90,2|2,0:0|0:0,0:0:0:0:
180,324,241620,2,0,L|284:316,1,90,2|2,0:0|0:0,0:0:0:0:
352,308,242137,2,0,P|388:276|364:260,1,90,2|2,0:0|0:0,0:0:0:0:
281,220,242654,6,0,P|256:156|299:105,1,135,2|2,0:0|0:0,0:0:0:0:
248,80,243171,2,0,B|352:72|352:72|384:48,1,135,2|2,0:0|0:0,0:0:0:0:
420,40,243686,2,0,B|412:92|412:92|424:124|424:124|412:192,1,135,2|2,0:0|0:0,0:0:0:0:
408,216,244201,2,0,P|454:234|476:280,1,90,2|2,0:0|0:0,0:0:0:0:
396,300,244716,6,0,L|261:309,1,135,2|2,0:0|0:0,0:0:0:0:
232,276,245231,2,0,P|188:268|140:292,1,90,2|2,0:0|0:0,0:0:0:0:
116,320,245617,2,0,P|82:329|24:312,1,90,2|2,0:0|0:0,0:0:0:0:
44,272,246003,2,0,P|20:258|5:227,2,45,8|8|8,0:0|0:0|0:0,0:0:0:0:
88,196,246518,1,0,0:0:0:0:
88,196,246776,6,0,L|68:56,1,135,6|2,0:0|0:0,0:0:0:0:
104,72,247291,2,0,P|164:100|236:72,1,135,2|2,0:0|0:0,0:0:0:0:
264,56,247806,2,0,B|364:64|364:64|380:88|352:104,1,135,2|2,0:0|0:0,0:0:0:0:
324,120,248327,2,0,P|384:92|456:120,1,135,2|2,0:0|0:0,0:0:0:0:
492,100,248849,6,0,L|504:189,1,90,2|2,0:0|0:0,0:0:0:0:
464,272,249371,2,0,P|420:292|372:276,1,90,2|2,0:0|0:0,0:0:0:0:
300,244,249892,2,0,P|266:259|288:349,1,135,2|2,0:0|0:0,0:0:0:0:
220,340,250400,2,0,L|124:328,1,90,2|2,0:0|0:0,0:0:0:0:
64,268,250908,5,8,0:0:0:0:
256,192,250972,12,4,252976,0:0:0:0:
128,72,254011,6,0,L|153:168,1,90,2|2,0:0|0:0,0:0:0:0:
72,204,254528,2,0,L|83:247,3,45,2|0|2|2,0:0|0:0|0:0|0:0,0:0:0:0:
96,292,255045,6,0,P|132:260|268:272,1,180,4|8,0:0|0:0,0:0:0:0:
372,336,255942,1,0,0:0:0:0:
388,204,256327,2,0,L|400:100,1,90,2|8,0:0|0:0,0:0:0:0:
228,60,257122,6,0,P|176:60|88:144,1,180,2|8,0:0|0:0,0:0:0:0:
136,272,258027,1,8,0:0:0:0:
192,152,258415,2,0,P|216:188|216:240,1,90,2|8,0:0|0:0,0:0:0:0:
392,276,259190,6,0,P|328:272|248:352,1,180,2|8,0:0|0:0,0:0:0:0:
160,248,260096,1,8,0:0:0:0:
64,152,260479,2,0,L|116:60,1,90,2|2,0:0|0:0,0:0:0:0:
284,40,261261,6,0,B|236:68|236:68|176:180,1,180,4|8,0:0|0:0,0:0:0:0:
120,300,262176,1,8,0:0:0:0:
252,268,262562,2,0,L|300:172,1,90,0|8,0:0|0:0,0:0:0:0:
424,56,263335,6,0,P|456:104|436:220,1,180,2|8,0:0|0:0,0:0:0:0:
312,144,264236,1,8,0:0:0:0:
304,280,264622,2,0,P|260:296|208:288,1,90,2|8,0:0|0:0,0:0:0:0:
48,228,265391,6,0,P|108:180|200:212,1,180,4|8,0:0|0:0,0:0:0:0:
130,276,266300,1,8,0:0:0:0:
256,328,266689,2,8,L|256:268,3,45,2|0|2|0,0:0|0:0|0:0|0:0,0:0:0:0:
256,148,267472,6,0,L|256:196,3,45,8|8|8|12,0:0|0:0|0:0|0:0,0:0:0:0:
