osu file format v14

[General]
AudioFilename: Wonderful World.mp3
AudioLeadIn: 2000
PreviewTime: 74147
Countdown: 0
SampleSet: Soft
StackLeniency: 0.7
Mode: 0
LetterboxInBreaks: 0
WidescreenStoryboard: 1

[Editor]
DistanceSpacing: 1.4
BeatDivisor: 4
GridSize: 4
TimelineZoom: 1.2

[Metadata]
Title:Wonderful World
TitleUnicode:Wonderful World
Artist:Shintani Ryoko
ArtistUnicode:新谷良子
Creator:HanzeR
Version:Laurier's Insane
Source:
Tags:hatsune miku laurier silynn lantis
BeatmapID:439860
BeatmapSetID:128604

[Difficulty]
HPDrainRate:7
CircleSize:4
OverallDifficulty:7
ApproachRate:9
SliderMultiplier:1.8
SliderTickRate:1

[Events]
//Background and Video events
0,0,"39695030.jpg",0,0
//Break Periods
2,91820,98761
2,173033,188232
//Storyboard Layer 0 (Background)
//Storyboard Layer 1 (Fail)
//Storyboard Layer 2 (Pass)
//Storyboard Layer 3 (Foreground)
//Storyboard Sound Samples

[TimingPoints]
591,517.241379310345,4,2,2,40,1,0
591,-200,4,2,2,40,0,0
2659,508.474576271186,4,2,2,40,1,0
3167,-200,4,2,2,40,0,0
4184,526.315789473684,4,2,2,40,1,0
4184,-200,4,2,2,40,0,0
4710,508.474576271186,4,2,2,40,1,0
4710,-200,4,2,1,40,0,0
5726,517.241379310345,4,2,2,40,1,0
5726,-200,4,2,1,40,0,0
6760,-200,4,2,2,40,0,0
7794,530.973451327434,4,2,2,40,1,0
8855,521.739130434783,4,2,2,40,1,0
8855,-200,4,2,2,40,0,0
9898,512.820512820513,4,2,2,40,1,0
10667,-200,4,2,2,40,0,0
11949,526.315789473684,4,2,2,40,1,0
12475,-200,4,2,2,40,0,0
13001,517.241379310345,4,2,2,40,1,0
13001,-200,4,2,2,40,0,0
14035,512.820512820513,4,2,2,40,1,0
14547,495.867768595041,4,2,2,40,1,0
15042,259.74025974026,4,2,1,60,1,0
17119,263.157894736842,4,2,1,60,1,0
17645,258.620689655172,4,2,1,60,1,0
18679,260.869565217391,4,2,1,60,1,0
19722,257.510729613734,4,2,1,60,1,0
21267,250,4,2,1,60,1,0
21767,260.869565217391,4,2,1,70,1,0
22288,263.157894736842,4,2,1,70,1,0
22814,260.869565217391,4,2,1,70,1,0
23335,258.620689655172,4,2,1,70,1,0
46093,257.510729613734,4,2,1,70,1,0
51243,275.229357798165,4,2,1,70,1,0
51793,263.157894736842,4,2,1,70,1,0
52319,258.620689655172,4,2,1,70,1,0
53353,255.31914893617,4,2,1,70,1,0
55395,276.497695852535,4,2,1,70,1,0
55671,257.510729613734,4,2,1,70,1,0
56421,257.510729613734,4,2,1,70,1,0
57451,280.373831775701,4,2,1,70,1,0
57731,258.620689655172,4,2,1,70,1,0
59541,256.410256410256,4,2,1,70,1,0
60566,253.164556962025,4,2,1,70,1,0
61578,258.620689655172,4,2,4,70,1,0
62095,267.857142857143,4,2,1,70,1,0
62362,281.69014084507,4,2,2,40,1,0
62643,258.620689655172,4,2,1,70,1,0
65746,252.100840336134,4,2,1,70,1,0
66754,273.972602739726,4,2,2,40,1,0
66822,-200,4,2,2,40,0,0
67575,259.74025974026,4,2,2,40,1,0
68354,-200,4,2,2,40,0,0
69652,256.410256410256,4,2,2,40,1,0
69652,-200,4,2,2,40,0,0
71446,259.74025974026,4,2,2,40,1,0
71965,-200,4,2,2,40,0,0
73523,255.31914893617,4,2,2,40,1,0
74033,258.064516129032,4,2,1,60,1,0
74033,-200,4,2,1,60,0,0
74162,-200,4,2,1,60,0,0
75065,258.620689655172,4,2,1,70,1,1
75065,-100,4,2,1,70,0,1
79202,258.175559380379,4,2,1,70,1,1
87463,263.157894736842,4,2,1,70,1,1
89568,250.521920668058,4,2,1,40,1,0
90069,258.620689655172,4,2,1,70,1,0
91620,258.620689655172,4,2,1,70,1,0
91620,-100,4,2,1,70,0,0
93688,264.31718061674,4,2,1,70,1,0
94216,255.31914893617,4,2,1,70,1,0
94726,258.620689655172,4,2,1,70,1,0
96794,252.100840336134,4,2,1,70,1,0
97298,258.620689655172,4,2,1,70,1,0
98332,254.237288135593,4,2,1,70,1,0
98840,262.582056892779,4,2,2,40,1,0
99365,257.510729613734,4,2,1,40,1,0
99622,-133.333333333333,4,2,1,50,0,0
99880,258.620689655172,4,2,1,50,1,0
99880,-133.333333333333,4,2,1,50,0,0
101431,265.486725663717,4,2,1,50,1,0
101431,-133.333333333333,4,2,1,50,0,0
101961,-133.333333333333,4,2,1,50,0,0
102492,252.100840336134,4,2,1,50,1,0
102492,-133.333333333333,4,2,1,50,0,0
102744,258.620689655172,4,2,1,50,1,0
102744,-133.333333333333,4,2,1,50,0,0
103519,253.164556962025,4,2,1,50,1,0
103519,-133.333333333333,4,2,1,50,0,0
104025,258.620689655172,4,2,1,50,1,0
104025,-133.333333333333,4,2,1,50,0,0
104800,250,4,2,1,50,1,0
105050,243.90243902439,4,2,1,50,1,0
105050,-133.333333333333,4,2,1,50,0,0
105537,278.422273781903,4,2,1,50,1,0
105537,-133.333333333333,4,2,1,50,0,0
106093,258.620689655172,4,2,1,50,1,0
106093,-133.333333333333,4,2,1,50,0,0
108680,254.237288135593,4,2,1,50,1,0
109188,262.008733624454,4,2,1,50,1,0
109188,-133.333333333333,4,2,1,50,0,0
110236,260.869565217391,4,2,1,70,1,0
110236,-133.333333333333,4,2,1,70,0,0
111279,252.100840336134,4,2,1,70,1,0
111279,-133.333333333333,4,2,1,70,0,0
111783,259.74025974026,4,2,1,70,1,0
112042,-133.333333333333,4,2,1,70,0,0
112302,262.008733624454,4,2,1,70,1,0
112302,-133.333333333333,4,2,1,70,0,0
113350,247.933884297521,4,2,1,70,1,0
113350,-133.333333333333,4,2,1,70,0,0
113845,263.157894736842,4,2,1,70,1,0
114108,-133.333333333333,4,2,1,70,0,0
114371,256.410256410256,4,2,1,70,1,0
114371,-133.333333333333,4,2,1,70,0,0
115909,267.857142857143,4,2,1,70,1,0
115909,-133.333333333333,4,2,1,70,0,0
116444,262.008733624454,4,2,1,60,1,0
117492,246.913580246914,4,2,1,60,1,0
117985,270.880361173815,4,2,1,60,1,0
118526,258.620689655172,4,2,1,60,1,0
120595,256.410256410256,4,2,1,60,1,0
124184,258.620689655172,4,2,1,60,1,0
124701,260.869565217391,4,2,1,60,1,0
125744,259.74025974026,4,2,1,60,1,0
126782,265.486725663717,4,2,1,60,1,0
127843,248.96265560166,4,2,1,60,1,0
128340,257.510729613734,4,2,1,60,1,0
128855,256.410256410256,4,2,1,60,1,0
129880,254.237288135593,4,2,1,60,1,0
130388,264.900662251656,4,2,4,60,1,0
130917,258.620689655172,4,2,1,60,1,0
135054,273.972602739726,4,2,2,40,1,0
135054,-200,4,2,1,50,0,0
135875,247.933884297521,4,2,2,40,1,0
135875,-200,4,2,2,40,0,0
136618,259.74025974026,4,2,2,40,1,0
136618,-200,4,2,2,40,0,0
139215,-200,4,2,2,50,0,0
140254,252.100840336134,4,2,2,40,1,0
140254,-200,4,2,2,40,0,0
141766,260.869565217391,4,2,2,40,1,0
141766,-200,4,2,2,40,0,0
142287,-200,4,2,1,40,0,0
143331,259.179265658747,4,2,2,70,1,0
144367,-200,4,2,2,70,0,0
148514,260.303687635575,4,2,2,70,1,0
148514,-200,4,2,2,70,0,0
149553,258.620689655172,4,2,2,70,1,0
149553,-200,4,2,2,70,0,0
153820,-200,4,2,1,50,0,0
154208,-200,4,2,1,60,0,0
154725,263.157894736842,4,2,2,60,1,0
154725,-200,4,2,2,60,0,0
155777,256.410256410256,4,2,1,70,1,1
157828,252.100840336134,4,2,1,70,1,1
158332,258.620689655172,4,2,1,70,1,1
161952,254.237288135593,4,2,1,70,1,1
162968,264.31718061674,4,2,1,70,1,1
164025,262.008733624454,4,2,1,70,1,1
165073,259.74025974026,4,2,1,70,1,1
166111,253.164556962025,4,2,1,70,1,1
167123,247.933884297521,4,2,1,70,1,1
167618,267.857142857143,4,2,1,70,1,1
167885,258.620689655172,4,2,1,70,1,1
169178,262.008733624454,4,2,1,70,1,1
170750,252.100840336134,4,2,1,70,1,1
171254,262.008733624454,4,2,1,70,1,1
171778,269.058295964126,4,2,1,70,1,0
172316,258.620689655172,4,2,1,70,1,0
172316,-100,4,2,2,70,0,1
172445,-100,4,2,2,60,0,1
172574,-100,4,2,2,50,0,1
172703,-100,4,2,2,40,0,1
172833,-100,4,2,1,40,0,0
173350,255.31914893617,4,2,1,50,1,0
175392,260.869565217391,4,2,4,50,1,0
176957,255.31914893617,4,2,1,50,1,0
177978,254.237288135593,4,2,1,50,1,0
178994,256.959314775161,4,2,1,50,1,0
180535,266.666666666667,4,2,1,50,1,0
181601,259.74025974026,4,2,1,50,1,0
183678,258.620689655172,4,2,1,50,1,0
184712,257.510729613734,4,2,1,50,1,0
188832,260.869565217391,4,2,1,50,1,0
189875,257.510729613734,4,2,1,50,1,0
192965,263.157894736842,4,2,1,50,1,0
193491,266.666666666667,4,2,1,50,1,0
194024,258.620689655172,4,2,1,50,1,0
194541,267.857142857143,4,2,1,50,1,0
194808,245.901639344262,4,2,1,50,1,0
195053,262.008733624454,4,2,1,50,1,0
195573,250,4,2,1,50,1,0
196073,263.157894736842,4,2,1,50,1,0
196599,253.164556962025,4,2,1,50,1,0
197105,263.157894736842,4,2,1,50,1,0
198157,250,4,2,1,50,1,0
198657,260.869565217391,4,2,1,50,1,0
200222,251.046025104603,4,2,1,50,1,0
201226,297.029702970297,4,2,1,50,1,0
201523,254.237288135593,4,2,1,50,1,0
201777,266.666666666667,4,2,1,50,1,0
202310,258.620689655172,4,2,1,50,1,0
203344,256.410256410256,4,2,1,50,1,0
204882,263.157894736842,4,2,1,20,1,0
205408,-133.333333333333,4,2,1,40,0,0
206987,244.897959183673,4,2,1,70,1,0
206987,-133.333333333333,4,2,1,70,0,0
207476,254.237288135593,4,2,1,70,1,0
207476,-133.333333333333,4,2,1,70,0,0
209001,266.666666666667,4,2,1,70,1,0
209001,-133.333333333333,4,2,1,70,0,0
209534,270.27027027027,4,2,1,70,1,0
209534,-133.333333333333,4,2,1,70,0,0
210074,252.100840336134,4,2,1,70,1,0
210074,-133.333333333333,4,2,1,70,0,0
210578,262.008733624454,4,2,1,70,1,0
210578,-133.333333333333,4,2,1,70,0,0
211102,257.510729613734,4,2,1,70,1,0
211102,-133.333333333333,4,2,1,70,0,0
211617,258.620689655172,4,2,1,70,1,0
211617,-133.333333333333,4,2,1,70,0,0
213685,263.157894736842,4,2,1,70,1,0
213685,-133.333333333333,4,2,1,70,0,0
214737,256.959314775161,4,2,1,70,1,0
214737,-133.333333333333,4,2,1,70,0,0
216792,259.74025974026,4,2,1,70,1,0
216792,-133.333333333333,4,2,1,70,0,0
217830,256.410256410256,4,2,1,70,1,0
217830,-133.333333333333,4,2,1,70,0,0
219881,257.510729613734,4,2,1,70,1,0
220911,259.74025974026,4,2,1,70,1,0
220911,-200,4,2,2,50,0,0
220912,-133.333333333333,4,2,2,50,0,0
221949,258.620689655172,4,2,1,70,1,1
221949,-100,4,2,1,70,0,0
228155,260.869565217391,4,2,1,70,1,1
229720,252.100840336134,4,2,4,70,1,0
230224,260.869565217391,4,2,1,70,1,1
232310,258.620689655172,4,2,1,70,1,1
232827,255.31914893617,4,2,1,70,1,1
233337,258.620689655172,4,2,1,70,1,1
238509,256.410256410256,4,2,1,70,1,1
239021,263.157894736842,4,2,1,70,1,1
240073,257.510729613734,4,2,1,70,1,1
241103,258.620689655172,4,2,1,70,1,1
243171,257.510729613734,4,2,1,70,1,1
247806,260.869565217391,4,2,1,70,1,1
249892,254.237288135593,4,2,1,70,1,1
250908,258.620689655172,4,2,1,70,1,1
253235,-133.333333333333,4,2,1,70,0,0
255045,256.410256410256,4,2,1,70,1,0
255045,-133.333333333333,4,2,1,70,0,0
257122,258.620689655172,4,2,1,70,1,0
257122,-133.333333333333,4,2,1,70,0,0
260225,254.237288135593,4,2,1,70,1,0
260225,-133.333333333333,4,2,1,70,0,0
260733,264.31718061674,4,2,1,70,1,0
260733,-133.333333333333,4,2,1,70,0,0
261790,257.510729613734,4,2,1,70,1,0
261790,-133.333333333333,4,2,1,70,0,0
264622,256.410256410256,4,2,1,70,1,0
264622,-133.333333333333,4,2,1,70,0,0
265391,259.74025974026,4,2,1,70,1,0
265391,-133.333333333333,4,2,1,70,0,0
266689,266.666666666667,4,2,1,70,1,0
266689,-133.333333333333,4,2,1,70,0,0
267222,250,4,2,1,70,1,0
267222,-133.333333333333,4,2,1,70,0,0

[Colours]
Combo1 : 183,183,219
Combo2 : 151,203,255
Combo3 : 128,128,255
Combo4 : 83,169,255

[HitObjects]
424,192,591,5,4,0:0:0:0:
424,192,1108,2,0,L|332:180,2,90
472,308,2659,1,0,0:0:0:0:
472,308,2913,1,0,0:0:0:0:
472,308,3167,2,0,L|380:296,1,90
300,328,4184,6,0,L|288:280,1,45
256,212,4710,2,0,P|216:196|168:208,1,90
92,188,5472,2,0,L|88:244,1,45
152,340,5986,2,0,L|156:284,1,45
148,136,6762,6,0,P|108:112|60:120,2,90,0|0|4,0:0|0:0|0:0,0:0:0:0:
468,192,8865,1,0,0:0:0:0:
468,192,9382,6,0,P|426:196|386:172,1,90
324,340,10410,1,0,0:0:0:0:
324,252,10667,2,0,L|324:200,1,45
272,136,11180,1,0,0:0:0:0:
236,212,11436,2,0,L|236:308,1,90
68,190,12475,6,0,L|12:174,1,45
96,256,13001,2,0,P|132:228|139:184,1,90
100,76,13776,2,0,L|100:124,2,45
100,76,14547,1,0,0:0:0:0:
384,276,15042,6,0,P|340:288|296:272,1,90,8|8,0:0|0:0,0:0:0:0:
212,116,15301,2,0,P|256:104|300:120,1,90,8|8,0:0|0:0,0:0:0:0:
256,296,18679,5,8,0:0:0:0:
208,140,18809,1,8,0:0:0:0:
340,236,18939,1,8,0:0:0:0:
180,232,19070,1,8,0:0:0:0:
308,136,19200,6,0,L|308:40,1,90,8|8,0:0|0:0,0:0:0:0:
112,76,19461,2,0,L|112:172,1,90,8|8,0:0|0:0,0:0:0:0:
256,328,21624,5,2,0:0:0:0:
256,236,21767,1,8,0:0:0:0:
256,56,22027,1,8,0:0:0:0:
212,136,22158,1,2,0:0:0:0:
300,136,22288,6,0,L|344:120,2,45,4|0|0,0:0|0:0|0:0,0:0:0:0:
172,60,22551,1,8,0:0:0:0:
148,196,22680,2,0,P|104:208|56:200,1,90
28,116,22944,1,8,0:0:0:0:
24,208,23074,2,0,B|32:252|32:252|28:304,1,90,2|0,0:0|0:0,0:0:0:0:
172,296,23335,6,0,P|252:256|332:292,1,180,4|8,0:0|0:0,0:0:0:0:
388,360,23722,1,0,0:0:0:0:
488,188,23852,2,0,P|480:236|456:284,1,90,2|0,0:0|0:0,0:0:0:0:
368,68,24110,2,0,P|385:105|393:153,1,90,8|2,0:0|0:0,0:0:0:0:
176,132,24369,2,0,P|184:84|208:36,1,90,2|0,0:0|0:0,0:0:0:0:
296,252,24628,2,0,P|278:214|270:166,1,90,8|0,0:0|0:0,0:0:0:0:
455,25,24886,2,0,B|505:82|467:153|467:153|491:193,1,180,2|8,0:0|0:0,0:0:0:0:
460,292,25274,1,0,0:0:0:0:
380,220,25403,6,0,P|316:172|228:200,1,180,2|8,0:0|0:0,0:0:0:0:
228,308,25791,1,0,0:0:0:0:
176,132,25921,2,0,P|148:168|144:216,1,90,2|0,0:0|0:0,0:0:0:0:
296,252,26179,1,8,0:0:0:0:
324,356,26309,1,2,0:0:0:0:
228,308,26438,2,0,L|132:304,1,90,2|0,0:0|0:0,0:0:0:0:
16,192,26697,2,0,L|112:196,1,90,8|0,0:0|0:0,0:0:0:0:
352,144,26955,2,0,L|256:140,1,90,2|0,0:0|0:0,0:0:0:0:
160,104,27214,2,0,P|152:60|164:16,1,90,8|0,0:0|0:0,0:0:0:0:
220,204,27472,6,0,B|232:288|156:312|156:312|160:360,1,180,4|8,0:0|0:0,0:0:0:0:
268,364,27860,1,0,0:0:0:0:
140,232,27990,2,0,L|44:228,1,90,2|0,0:0|0:0,0:0:0:0:
52,120,28248,1,8,0:0:0:0:
52,120,28378,1,0,0:0:0:0:
236,56,28507,2,0,L|332:60,1,90,2|0,0:0|0:0,0:0:0:0:
404,136,28766,1,8,0:0:0:0:
404,136,28895,1,0,0:0:0:0:
328,280,29024,2,0,P|316:236|328:192,1,90,2|0,0:0|0:0,0:0:0:0:
448,244,29283,2,0,P|460:288|448:332,1,90,8|0,0:0|0:0,0:0:0:0:
268,364,29541,5,6,0:0:0:0:
328,280,29671,1,0,0:0:0:0:
444,360,29800,2,0,L|352:360,1,90,8|0,0:0|0:0,0:0:0:0:
212,296,30059,2,0,P|188:336|184:380,1,90,2|2,0:0|0:0,0:0:0:0:
328,280,30317,2,0,P|308:236|272:200,1,90,8|0,0:0|0:0,0:0:0:0:
108,208,30576,2,2,P|152:220|196:208,2,90,2|0|10,0:0|0:0|0:0,0:0:0:0:
60,112,30964,1,0,0:0:0:0:
172,48,31093,2,0,L|156:140,1,90,2|0,0:0|0:0,0:0:0:0:
28,364,31352,2,0,L|44:272,1,90,8|0,0:0|0:0,0:0:0:0:
196,208,31610,6,0,B|256:208|272:164|272:164|360:164,1,180,4|8,0:0|0:0,0:0:0:0:
444,232,31998,1,0,0:0:0:0:
372,336,32128,2,0,P|356:292|360:248,1,90,2|2,0:0|0:0,0:0:0:0:
424,60,32386,2,0,P|440:104|436:148,1,90,8|0,0:0|0:0,0:0:0:0:
288,16,32645,2,0,P|323:46|342:86,1,90,2|0,0:0|0:0,0:0:0:0:
240,120,32903,1,8,0:0:0:0:
52,40,33033,2,0,P|132:0|208:36,1,180,2|2,0:0|0:0,0:0:0:0:
192,196,33421,2,0,P|164:160|156:116,1,90,8|0,0:0|0:0,0:0:0:0:
288,200,33679,6,0,B|288:272|224:296|224:296|252:360,1,180,2|8,0:0|0:0,0:0:0:0:
136,268,34067,1,0,0:0:0:0:
240,120,34197,2,0,P|268:84|276:40,1,90,2|2,0:0|0:0,0:0:0:0:
80,208,34455,2,0,P|56:248|56:292,1,90,8|0,0:0|0:0,0:0:0:0:
108,120,34714,2,0,P|68:96|24:96,2,90,2|0|8,0:0|0:0|0:0,0:0:0:0:
212,248,35102,2,0,P|292:292|364:244,1,180,2|2,0:0|0:0,0:0:0:0:
392,148,35490,1,8,0:0:0:0:
452,236,35619,1,0,0:0:0:0:
288,200,35748,6,0,L|288:108,1,90,2|0,0:0|0:0,0:0:0:0:
212,338,36007,2,0,L|212:246,1,90,8|0,0:0|0:0,0:0:0:0:
164,124,36266,2,0,P|92:84|24:144,1,180,2|8,0:0|0:0,0:0:0:0:
64,240,36653,1,0,0:0:0:0:
212,248,36783,2,0,P|256:240|308:240,2,90,2|2|8,0:0|0:0|0:0,0:0:0:0:
128,316,37171,1,0,0:0:0:0:
164,124,37300,2,0,P|144:168|140:212,1,90,2|0,0:0|0:0,0:0:0:0:
278,324,37559,2,0,P|298:280|302:236,1,90,8|0,0:0|0:0,0:0:0:0:
336,136,37817,6,0,B|392:184|460:144|460:144|464:204,1,180,2|8,0:0|0:0,0:0:0:0:
463,189,38205,1,0,0:0:0:0:
408,76,38334,2,0,P|448:52|496:52,2,90,2|0|8,0:0|0:0|0:0,0:0:0:0:
308,212,38722,2,0,P|256:148|304:64,1,180,2|2,0:0|0:0,0:0:0:0:
388,240,39110,2,0,L|368:332,1,90,8|0,0:0|0:0,0:0:0:0:
268,364,39369,1,2,0:0:0:0:
268,364,39498,1,2,0:0:0:0:
192,288,39628,2,0,L|100:288,1,90,8|0,0:0|0:0,0:0:0:0:
32,372,39886,6,0,B|80:308|36:252|36:252|68:212,1,180,2|8,0:0|0:0,0:0:0:0:
172,192,40274,1,0,0:0:0:0:
282,288,40403,2,0,L|190:288,1,90,2|0,0:0|0:0,0:0:0:0:
324,136,40662,2,0,L|258:201,1,90,8|0,0:0|0:0,0:0:0:0:
192,288,40921,1,2,0:0:0:0:
121,132,41050,2,0,P|159:115|208:122,1,90,0|8,0:0|0:0,0:0:0:0:
345,226,41309,2,0,P|429:259|490:200,1,180,2|2,0:0|0:0,0:0:0:0:
425,92,41697,2,0,L|412:189,1,90,8|0,0:0|0:0,0:0:0:0:
282,288,41955,6,0,B|214:339|154:280|154:280|106:280,1,180,2|8,0:0|0:0,0:0:0:0:
114,370,42343,1,0,0:0:0:0:
220,229,42472,2,0,P|226:178|229:136,1,90,2|0,0:0|0:0,0:0:0:0:
36,229,42731,2,0,P|30:280|27:322,1,90,8|0,0:0|0:0,0:0:0:0:
103,162,42990,2,0,P|71:121|43:89,2,90,2|0|8,0:0|0:0|0:0,0:0:0:0:
182,297,43378,2,0,P|270:293|298:217,1,180,2|2,0:0|0:0,0:0:0:0:
352,320,43766,2,0,P|380:360|416:380,1,90,8|0,0:0|0:0,0:0:0:0:
504,232,44024,6,0,P|468:252|440:292,1,90,2|0,0:0|0:0,0:0:0:0:
376,192,44283,1,8,0:0:0:0:
376,192,44412,1,0,0:0:0:0:
460,140,44541,2,0,B|484:96|484:96|456:72|456:72|476:16|476:16|496:64,1,180,2|8,0:0|0:0,0:0:0:0:
488,46,44929,1,2,0:0:0:0:
488,46,45059,2,0,P|444:56|400:56,1,90,2|0,0:0|0:0,0:0:0:0:
200,104,45317,2,0,P|244:113|288:113,1,90,8|0,0:0|0:0,0:0:0:0:
428,180,45576,2,0,P|468:256|424:336,1,180,2|8,0:0|0:0,0:0:0:0:
336,296,45964,1,0,0:0:0:0:
264,228,46093,6,0,P|244:268|240:320,1,90,2|0,0:0|0:0,0:0:0:0:
144,344,46350,2,0,P|96:340|48:352,1,90,8|0,0:0|0:0,0:0:0:0:
16,260,46608,1,2,0:0:0:0:
72,176,46736,1,2,0:0:0:0:
8,100,46865,1,8,0:0:0:0:
72,24,46994,1,0,0:0:0:0:
140,96,47123,2,0,P|216:132|296:92,1,180,2|8,0:0|0:0,0:0:0:0:
296,91,47509,1,8,0:0:0:0:
264,228,47638,1,10,0:0:0:0:
388,172,47766,1,10,0:0:0:0:
336,296,47895,2,0,P|304:320|252:324,1,90,8|8,0:0|0:0,0:0:0:0:
108,264,48153,5,4,0:0:0:0:
184,184,48281,2,0,P|192:140|184:96,1,90,0|8,0:0|0:0,0:0:0:0:
84,140,48539,1,0,0:0:0:0:
12,220,48668,2,0,P|4:264|16:312,1,90,2|0,0:0|0:0,0:0:0:0:
196,356,48925,2,0,P|204:312|192:264,1,90,8|0,0:0|0:0,0:0:0:0:
212,256,49118,1,0,0:0:0:0:
212,256,49183,2,0,L|304:256,1,90,2|0,0:0|0:0,0:0:0:0:
336,152,49440,2,0,L|428:152,1,90,8|0,0:0|0:0,0:0:0:0:
380,256,49698,1,2,0:0:0:0:
484,212,49826,1,2,0:0:0:0:
456,344,49955,2,0,P|410:360|365:357,1,90,8|0,0:0|0:0,0:0:0:0:
296,332,50213,6,0,P|260:308|212:304,1,90,2|0,0:0|0:0,0:0:0:0:
120,360,50470,2,0,P|136:316|136:272,1,90,8|0,0:0|0:0,0:0:0:0:
32,188,50728,2,0,P|104:236|180:196,1,180,2|8,0:0|0:0,0:0:0:0:
208,92,51114,1,0,0:0:0:0:
272,252,51243,2,0,L|264:156,1,90,2|0,0:0|0:0,0:0:0:0:
100,60,51518,2,0,L|108:156,1,90,8|0,0:0|0:0,0:0:0:0:
208,92,51793,2,0,P|296:68|384:84,1,180,2|8,0:0|0:0,0:0:0:0:
468,148,52187,1,0,0:0:0:0:
384,260,52319,6,0,P|372:216|380:172,1,90,2|0,0:0|0:0,0:0:0:0:
480,288,52577,2,0,P|456:328|420:352,1,90,8|0,0:0|0:0,0:0:0:0:
272,252,52836,2,0,P|192:216|108:252,1,180,2|8,0:0|0:0,0:0:0:0:
56,332,53224,1,0,0:0:0:0:
12,244,53353,2,0,B|32:172|-20:136|-20:136|0:80,1,180,2|8,0:0|0:0,0:0:0:0:
96,112,53735,1,0,0:0:0:0:
96,112,53863,2,0,P|136:92|184:80,1,90,2|0,0:0|0:0,0:0:0:0:
280,172,54118,2,0,P|240:192|192:204,1,90,8|0,0:0|0:0,0:0:0:0:
292,64,54374,6,0,P|334:78|376:103,1,90,2|0,0:0|0:0,0:0:0:0:
388,236,54629,2,0,P|345:221|303:196,1,90,8|0,0:0|0:0,0:0:0:0:
448,160,54884,2,0,B|512:216|468:288|468:288|476:332,1,180,2|8,0:0|0:0,0:0:0:0:
396,368,55267,1,0,0:0:0:0:
324,316,55395,2,0,P|252:280|168:320,1,180,2|8,0:0|0:0,0:0:0:0:
100,376,55799,2,0,B|144:312|96:256|96:256|136:220,1,180,2|2,0:0|0:0,0:0:0:0:
36,316,56186,1,8,0:0:0:0:
36,316,56314,1,0,0:0:0:0:
132,224,56421,6,0,P|172:148|116:76,1,180,4|8,0:0|0:0,0:0:0:0:
122,78,56807,1,0,0:0:0:0:
8,160,56936,2,0,P|52:168|96:148,1,90,2|0,0:0|0:0,0:0:0:0:
220,60,57193,2,0,P|260:42|304:50,1,90,8|0,0:0|0:0,0:0:0:0:
416,172,57451,1,2,0:0:0:0:
336,132,57591,1,0,0:0:0:0:
412,84,57731,1,8,0:0:0:0:
416,172,57860,1,0,0:0:0:0:
340,220,57989,2,0,P|324:264|328:308,1,90,2|2,0:0|0:0,0:0:0:0:
440,372,58248,2,0,P|456:332|452:284,1,90,8|0,0:0|0:0,0:0:0:0:
340,220,58506,6,0,P|268:188|176:224,1,180,2|8,0:0|0:0,0:0:0:0:
204,328,58894,1,0,0:0:0:0:
204,328,59024,2,0,P|116:340|52:276,1,180,2|8,0:0|0:0,0:0:0:0:
36,176,59412,1,0,0:0:0:0:
180,220,59541,2,0,B|196:144|128:100|128:100|168:64,1,180,2|8,0:0|0:0,0:0:0:0:
264,100,59925,1,0,0:0:0:0:
360,148,60053,2,0,P|368:100|360:56,1,90,2|0,0:0|0:0,0:0:0:0:
280,188,60310,2,0,P|312:224|352:240,1,90,8|0,0:0|0:0,0:0:0:0:
468,176,60566,5,2,0:0:0:0:
496,280,60692,1,2,0:0:0:0:
416,352,60819,2,0,P|372:364|328:352,1,90,8|0,0:0|0:0,0:0:0:0:
236,300,61072,2,0,B|168:272|120:324|120:324|80:284,1,180,2|8,0:0|0:0,0:0:0:0:
132,192,61452,1,0,0:0:0:0:
48,124,61578,2,0,P|28:164|24:208,1,90,2|2,0:0|0:0,0:0:0:0:
132,192,61836,1,8,0:0:0:0:
132,192,61901,1,8,0:0:0:0:
132,192,61965,1,8,0:0:0:0:
132,192,62030,1,8,0:0:0:0:
132,192,62095,2,0,P|176:184|224:192,1,90,4|0,0:0|0:0,0:0:0:0:
408,240,62362,2,0,P|364:248|316:240,1,90,0|0,0:0|0:0,0:0:0:0:
280,40,62643,6,0,P|296:84|296:128,1,90,2|2,0:0|0:0,0:0:0:0:
150,279,62901,2,0,P|134:235|134:191,1,90,2|2,0:0|0:0,0:0:0:0:
332,192,63936,2,2,L|423:179,1,90,2|0,0:0|0:0,0:0:0:0:
316,339,64194,2,0,L|225:352,2,90,2|2|2,0:0|0:0|0:0,0:0:0:0:
226,32,64711,2,0,L|316:45,1,90,2|2,0:0|0:0,0:0:0:0:
256,136,64970,1,2,0:0:0:0:
152,112,65099,1,2,0:0:0:0:
152,112,65164,1,2,0:0:0:0:
152,112,65229,1,8,0:0:0:0:
184,216,65358,1,8,0:0:0:0:
184,216,65423,1,8,0:0:0:0:
184,216,65487,6,0,L|184:312,1,90,8|8,0:0|0:0,0:0:0:0:
348,184,65746,2,0,L|348:88,1,90,8|8,0:0|0:0,0:0:0:0:
292,264,65998,2,0,P|332:280|380:276,1,90,2|2,0:0|0:0,0:0:0:0:
240,124,66250,2,0,P|200:108|152:112,1,90,2|2,0:0|0:0,0:0:0:0:
115,269,66502,2,0,P|154:252|185:215,1,90,2|0,0:0|0:0,0:0:0:0:
124,36,66822,6,0,P|68:100|108:180,1,180,4|0,0:0|0:0,0:0:0:0:
103,177,67571,2,0,P|180:132|256:168,1,180
264,276,68354,2,0,L|256:368,1,90
360,340,68873,2,0,B|372:244|372:244|344:216|344:164,1,180
420,32,69652,2,0,P|472:96|424:176,1,180
308,96,70421,2,0,L|400:104,1,90
256,176,70934,6,0,P|192:232|108:192,1,180,4|0,0:0|0:0,0:0:0:0:
136,112,71705,1,0,0:0:0:0:
48,136,71965,2,0,B|0:204|48:264|48:264|16:304,1,180
24,296,72744,1,0,0:0:0:0:
104,336,73004,2,0,L|96:364,15,22.5,2|0|0|0|0|0|0|0|0|0|0|0|0|0|0|0,0:0|0:0|0:0|0:0|0:0|0:0|0:0|0:0|0:0|0:0|0:0|0:0|0:0|0:0|0:0|0:0,0:0:0:0:
136,320,74033,6,0,L|184:312,1,45,8|8,0:0|0:0,0:0:0:0:
96,216,74291,6,0,L|141:233,1,45,8|8,0:0|0:0,0:0:0:0:
120,104,74549,6,0,L|150:141,1,45,8|8,0:0|0:0,0:0:0:0:
208,24,74807,6,0,L|216:72,1,45,8|8,0:0|0:0,0:0:0:0:
252,168,75065,6,0,B|296:188|336:148|336:148|384:140|416:188,1,180,4|8,0:0|0:0,0:0:0:0:
440,276,75452,1,0,0:0:0:0:
496,152,75582,2,0,P|500:108|480:60,2,90,2|0|8,0:0|0:0|0:0,0:0:0:0:
388,344,75970,2,0,P|352:260|404:196,1,180,2|2,0:0|0:0,0:0:0:0:
260,308,76358,2,0,P|224:336|184:356,1,90,8|0,0:0|0:0,0:0:0:0:
164,248,76616,2,0,P|118:254|74:251,1,90,2|0,0:0|0:0,0:0:0:0:
108,148,76875,2,0,P|65:130|28:106,1,90,8|0,0:0|0:0,0:0:0:0:
184,76,77133,6,0,P|204:112|204:168,1,90,2|0,0:0|0:0,0:0:0:0:
96,336,77392,2,0,P|76:300|76:244,1,90,8|0,0:0|0:0,0:0:0:0:
108,148,77651,1,2,0:0:0:0:
276,212,77780,2,0,P|236:240|192:248,1,90,2|8,0:0|0:0,0:0:0:0:
332,324,78039,2,0,B|368:288|416:304|416:304|448:272|444:220,1,180,2|2,0:0|0:0,0:0:0:0:
416,116,78427,2,0,L|364:200,1,90,8|0,0:0|0:0,0:0:0:0:
308,24,78685,2,2,L|304:122,1,90,2|2,0:0|0:0,0:0:0:0:
168,24,78944,2,0,L|214:111,1,90,8|0,0:0|0:0,0:0:0:0:
276,212,79202,5,2,0:0:0:0:
276,212,79331,1,0,0:0:0:0:
176,176,79460,2,0,P|132:168|88:176,1,90,8|0,0:0|0:0,0:0:0:0:
84,328,79718,2,0,B|116:260|56:208|56:208|92:172,1,180,2|8,0:0|0:0,0:0:0:0:
340,276,80105,2,0,P|256:296|192:236,1,180,2|2,0:0|0:0,0:0:0:0:
248,124,80492,1,8,0:0:0:0:
248,124,80621,1,0,0:0:0:0:
336,60,80751,2,0,P|344:104|332:148,1,90,2|0,0:0|0:0,0:0:0:0:
432,280,81009,2,0,P|424:236|436:192,1,90,8|0,0:0|0:0,0:0:0:0:
496,128,81267,5,2,0:0:0:0:
496,128,81396,1,0,0:0:0:0:
352,220,81525,2,0,L|256:228,1,90,8|0,0:0|0:0,0:0:0:0:
248,140,81783,2,0,L|152:148,1,90,2|2,0:0|0:0,0:0:0:0:
112,72,82041,2,0,L|16:80,1,90,8|0,0:0|0:0,0:0:0:0:
4,188,82300,5,2,0:0:0:0:
84,260,82429,1,2,0:0:0:0:
160,148,82558,2,0,L|152:52,1,90,8|0,0:0|0:0,0:0:0:0:
268,244,82816,2,0,L|260:148,1,90,2|2,0:0|0:0,0:0:0:0:
380,340,83074,2,0,L|372:244,1,90,8|2,0:0|0:0,0:0:0:0:
476,104,83332,6,0,P|416:156|328:128,1,180,4|8,0:0|0:0,0:0:0:0:
327,127,83720,1,0,0:0:0:0:
76,116,83849,2,0,P|136:64|224:92,1,180,2|8,0:0|0:0,0:0:0:0:
175,314,84236,2,0,B|138:254|183:202|183:202|159:146,1,180,2|2,0:0|0:0,0:0:0:0:
248,260,84623,2,0,P|336:236|408:280,1,180,8|2,0:0|0:0,0:0:0:0:
407,279,85010,1,2,0:0:0:0:
407,279,85140,2,0,P|392:236|392:192,1,90,8|0,0:0|0:0,0:0:0:0:
460,32,85398,6,0,P|475:75|475:119,1,90,2|0,0:0|0:0,0:0:0:0:
300,108,85656,2,0,P|343:92|387:92,1,90,8|0,0:0|0:0,0:0:0:0:
408,280,85914,1,2,0:0:0:0:
360,168,86043,1,0,0:0:0:0:
476,188,86172,1,8,0:0:0:0:
288,260,86301,2,0,B|244:276|212:240|212:240|160:220|124:256,1,180,2|2,0:0|0:0,0:0:0:0:
96,372,86689,2,0,P|104:324|100:284,1,90,8|0,0:0|0:0,0:0:0:0:
44,180,86947,1,2,0:0:0:0:
44,180,87076,1,0,0:0:0:0:
136,108,87205,6,0,B|184:92|192:56|192:56|300:40,1,180,8|4,0:0|0:0,0:0:0:0:
388,104,87594,1,0,0:0:0:0:
288,260,87726,2,0,P|280:212|280:168,1,90,8|0,0:0|0:0,0:0:0:0:
464,44,87989,2,0,P|480:124|416:192,1,180,2|8,0:0|0:0,0:0:0:0:
280,172,88384,1,0,0:0:0:0:
318,52,88515,2,0,P|358:72|390:108,1,90,2|0,0:0|0:0,0:0:0:0:
284,348,88778,2,0,P|277:302|289:258,1,90,8|0,0:0|0:0,0:0:0:0:
504,336,89037,2,0,P|428:368|368:304,1,180,2|8,0:0|0:0,0:0:0:0:
416,192,89425,1,0,0:0:0:0:
280,172,89554,6,0,L|184:164,1,90,2|0,0:0|0:0,0:0:0:0:
56,288,89818,2,0,L|152:296,1,90,8|0,0:0|0:0,0:0:0:0:
284,348,90069,1,0,0:0:0:0:
284,348,90327,1,0,0:0:0:0:
284,348,90586,2,0,P|352:292|440:312,1,180
436,309,90974,1,0,0:0:0:0:
436,309,91103,2,0,B|440:264|464:240|464:240|456:212|428:188|428:188|428:144,2,180,0|0|2,0:0|0:0|0:0,0:0:0:0:
128,188,99361,5,8,0:0:0:0:
128,188,99493,1,8,0:0:0:0:
128,188,99622,2,0,P|144:224|148:252,1,67.5000025749208
144,332,99880,2,0,P|172:276|240:272,1,135.000005149842,4|0,0:0|0:0,0:0:0:0:
292,332,100267,1,0,0:0:0:0:
312,252,100397,2,0,L|320:184,1,67.5000025749208,8|0,0:0|0:0,0:0:0:0:
240,84,100655,1,0,0:0:0:0:
164,168,100785,2,0,P|104:192|36:164,1,135.000005149842,8|0,0:0|0:0,0:0:0:0:
52,24,101173,2,0,P|64:56|64:92,1,67.5000025749208,2|0,0:0|0:0,0:0:0:0:
54,234,101431,2,0,P|42:202|42:166,1,67.5000025749208,8|0,0:0|0:0,0:0:0:0:
145,259,101696,2,0,P|146:293|135:327,1,67.5000025749208
224,284,101967,6,0,P|280:252|348:272,1,135.000005149842,2|0,0:0|0:0,0:0:0:0:
408,320,102354,1,0,0:0:0:0:
408,320,102492,2,0,P|380:256|416:200,1,135.000005149842,8|8,0:0|0:0,0:0:0:0:
296,140,102873,2,0,L|208:128,1,67.5000025749208,2|0,0:0|0:0,0:0:0:0:
360,64,103131,1,0,0:0:0:0:
380,144,103261,1,2,0:0:0:0:
276,60,103390,2,0,L|188:48,1,67.5000025749208,0|8,0:0|0:0,0:0:0:0:
92,152,103645,2,0,L|180:164,2,67.5000025749208
32,72,104025,5,2,0:0:0:0:
32,72,104283,2,0,P|60:128|36:200,1,135.000005149842,0|8,0:0|0:0,0:0:0:0:
56,296,104671,2,0,P|88:280|120:272,2,67.5000025749208,0|0|8,0:0|0:0|0:0,0:0:0:0:
180,320,105050,2,0,P|192:292|192:248,1,67.5000025749208
272,240,105293,2,0,P|273:203|285:175,1,67.5000025749208,2|0,0:0|0:0,0:0:0:0:
224,120,105537,2,0,P|236:92|236:48,1,67.5000025749208,8|0,0:0|0:0,0:0:0:0:
352,36,105815,2,0,P|420:24|500:24,1,135.000005149842,0|2,0:0|0:0,0:0:0:0:
404,104,106222,2,0,P|368:116|336:116,2,67.5000025749208,0|0|2,0:0|0:0|0:0,0:0:0:0:
456,168,106610,2,0,P|440:200|432:236,1,67.5000025749208,8|0,0:0|0:0,0:0:0:0:
460,308,106868,1,0,0:0:0:0:
460,308,106998,1,0,0:0:0:0:
460,308,107127,2,0,P|424:324|396:340,1,67.5000025749208,2|0,0:0|0:0,0:0:0:0:
288,228,107386,6,0,P|324:244|352:260,1,67.5000025749208,8|8,0:0|0:0,0:0:0:0:
312,352,107644,1,8,0:0:0:0:
288,228,107774,1,8,0:0:0:0:
412,200,107903,2,0,P|440:140|420:72,1,135.000005149842,4|0,0:0|0:0,0:0:0:0:
422,76,108679,5,2,0:0:0:0:
388,172,108807,1,2,0:0:0:0:
288,188,108934,1,2,0:0:0:0:
228,108,109061,1,0,0:0:0:0:
228,108,109124,1,0,0:0:0:0:
228,108,109188,2,0,P|192:96|156:96,1,67.5000025749208,8|0,0:0|0:0,0:0:0:0:
162,288,109450,2,0,P|192:288|228:276,1,67.5000025749208,2|0,0:0|0:0,0:0:0:0:
168,176,109712,1,8,0:0:0:0:
168,176,109843,1,0,0:0:0:0:
80,296,109974,2,0,P|84:264|100:232,1,67.5000025749208
281,54,110236,6,0,P|305:114|261:174,1,135.000005149842,2|0,0:0|0:0,0:0:0:0:
270,169,110627,1,2,0:0:0:0:
270,169,110757,2,0,B|326:145|368:180|368:180|403:168,1,135.000005149842,8|0,0:0|0:0,0:0:0:0:
379,90,111149,1,8,0:0:0:0:
314,238,111279,2,0,L|321:306,2,67.5000025749208,0|0|2,0:0|0:0|0:0,0:0:0:0:
206,119,111657,2,0,P|186:182|223:238,1,135.000005149842
220,236,112042,2,0,P|184:249|154:265,1,67.5000025749208
264,312,112302,6,0,P|332:332|384:300,1,135.000005149842,2|0,0:0|0:0,0:0:0:0:
314,238,112695,1,2,0:0:0:0:
392,224,112826,2,0,L|400:152,2,67.5000025749208,8|0|0,0:0|0:0|0:0,0:0:0:0:
292,88,113219,2,0,L|328:152,1,67.5000025749208,8|0,0:0|0:0,0:0:0:0:
471,216,113473,2,0,L|464:284,1,67.5000025749208,0|2,0:0|0:0,0:0:0:0:
314,238,113721,2,0,P|252:216|184:240,1,135.000005149842,0|2,0:0|0:0,0:0:0:0:
124,336,114108,2,0,P|186:358|254:334,1,135.000005149842
249,337,114499,5,0,0:0:0:0:
128,176,114627,2,0,P|112:208|104:244,1,67.5000025749208,0|2,0:0|0:0,0:0:0:0:
224,168,114883,2,0,P|212:134|192:102,1,67.5000025749208,8|0,0:0|0:0,0:0:0:0:
52,108,115140,2,0,L|132:92,1,67.5000025749208,8|8,0:0|0:0,0:0:0:0:
324,20,115396,2,0,L|244:36,1,67.5000025749208,0|2,0:0|0:0,0:0:0:0:
224,168,115653,1,8,0:0:0:0:
224,168,115781,1,8,0:0:0:0:
292,212,115909,2,0,P|304:244|308:284,1,67.5000025749208,2|2,0:0|0:0,0:0:0:0:
250,337,116176,1,2,0:0:0:0:
354,363,116310,1,8,0:0:0:0:
354,363,116377,1,8,0:0:0:0:
354,363,116444,6,0,L|445:346,1,90,4|0,0:0|0:0,0:0:0:0:
419,241,116706,2,0,L|510:224,1,90,8|0,0:0|0:0,0:0:0:0:
374,139,116968,2,0,P|297:175|227:115,1,180,2|8,0:0|0:0,0:0:0:0:
229,121,117361,1,0,0:0:0:0:
177,255,117492,2,0,P|190:297|188:350,1,90,2|0,0:0|0:0,0:0:0:0:
43,235,117738,2,0,P|30:193|32:140,1,90,8|0,0:0|0:0,0:0:0:0:
122,35,117985,2,0,P|135:77|133:130,1,90,2|0,0:0|0:0,0:0:0:0:
55,322,118255,2,0,P|42:280|44:227,1,90,8|0,0:0|0:0,0:0:0:0:
277,249,118526,6,0,P|214:304|134:260,2,180,2|8|2,0:0|0:0|0:0,0:0:0:0:
137,149,119172,1,0,0:0:0:0:
254,134,119301,1,8,0:0:0:0:
202,226,119431,1,0,0:0:0:0:
188,74,119560,2,0,P|231:50|274:49,1,90,2|0,0:0|0:0,0:0:0:0:
422,157,119819,2,0,P|379:181|336:182,1,90,8|0,0:0|0:0,0:0:0:0:
442,69,120077,2,0,B|476:135|431:188|431:188|449:238,1,180,2|8,0:0|0:0,0:0:0:0:
484,328,120465,1,0,0:0:0:0:
388,348,120594,6,0,P|340:340|292:336,1,90,2|0,0:0|0:0,0:0:0:0:
300,236,120851,2,0,P|253:249|207:265,1,90,8|0,0:0|0:0,0:0:0:0:
172,352,121107,2,0,P|196:268|140:200,1,180,2|8,0:0|0:0,0:0:0:0:
44,176,121492,1,2,0:0:0:0:
24,328,121620,2,0,P|60:304|104:284,1,90,2|0,0:0|0:0,0:0:0:0:
32,76,121877,2,0,P|74:84|119:101,1,90,8|0,0:0|0:0,0:0:0:0:
288,209,122133,2,0,P|208:249|140:193,1,180,2|8,0:0|0:0,0:0:0:0:
142,200,122518,1,0,0:0:0:0:
231,80,122646,6,0,P|234:126|218:167,1,90,2|0,0:0|0:0,0:0:0:0:
314,129,122902,2,0,P|362:125|404:125,1,90,8|0,0:0|0:0,0:0:0:0:
480,192,123159,1,2,0:0:0:0:
480,192,123287,1,2,0:0:0:0:
480,292,123415,2,0,P|432:296|390:296,1,90,8|0,0:0|0:0,0:0:0:0:
288,208,123671,2,0,P|260:292|320:348,1,180,8|2,0:0|0:0,0:0:0:0:
168,328,124056,2,0,B|128:308|72:328|72:328|40:300|28:252,1,180,2|0,0:0|0:0,0:0:0:0:
52,164,124442,1,2,0:0:0:0:
128,224,124571,1,2,0:0:0:0:
284,120,124701,6,0,P|212:80|136:132,1,180,4|8,0:0|0:0,0:0:0:0:
128,224,125092,1,0,0:0:0:0:
260,320,125222,2,0,B|280:244|212:208|212:208|212:152,1,180,2|8,0:0|0:0,0:0:0:0:
212,161,125614,1,2,0:0:0:0:
184,288,125744,2,0,P|144:304|92:300,1,90,2|0,0:0|0:0,0:0:0:0:
12,152,126003,2,0,P|52:136|104:140,1,90,8|0,0:0|0:0,0:0:0:0:
168,68,126263,2,0,P|214:70|254:54,1,90,2|0,0:0|0:0,0:0:0:0:
352,40,126523,2,0,P|320:120|368:192,1,180,8|2,0:0|0:0,0:0:0:0:
456,148,126914,5,0,0:0:0:0:
456,248,127047,2,0,P|424:280|368:296,1,90,8|0,0:0|0:0,0:0:0:0:
296,248,127312,2,0,B|228:224|184:288|184:288|132:260,1,180,2|8,0:0|0:0,0:0:0:0:
48,220,127644,1,2,0:0:0:0:
108,356,127777,2,8,P|192:380|260:328,1,180,2|8,0:0|0:0,0:0:0:0:
296,216,128216,1,0,0:0:0:0:
384,296,128340,1,2,0:0:0:0:
384,296,128468,1,0,0:0:0:0:
420,184,128597,1,8,0:0:0:0:
420,184,128726,1,0,0:0:0:0:
328,108,128855,6,0,B|288:88|244:116|244:116|196:120|172:68,1,180,2|8,0:0|0:0,0:0:0:0:
172,69,129239,1,0,0:0:0:0:
140,180,129367,1,2,0:0:0:0:
140,180,129431,1,0,0:0:0:0:
140,180,129496,1,0,0:0:0:0:
0,108,129624,2,0,P|44:100|96:100,1,90,8|0,0:0|0:0,0:0:0:0:
140,180,129880,1,2,0:0:0:0:
96,256,130007,1,2,0:0:0:0:
156,324,130134,1,8,0:0:0:0:
236,284,130261,1,0,0:0:0:0:
228,196,130388,2,0,P|272:176|312:168,1,90,2|0,0:0|0:0,0:0:0:0:
424,248,130652,2,0,P|380:268|340:276,1,90,2|0,0:0|0:0,0:0:0:0:
392,144,130917,6,0,L|404:48,1,90,4|0,0:0|0:0,0:0:0:0:
468,264,131175,2,0,L|456:360,1,90,6|2,0:0|0:0,0:0:0:0:
100,192,132210,6,0,P|144:204|192:200,1,90,8|8,0:0|0:0,0:0:0:0:
412,192,132468,2,0,P|368:180|320:184,1,90,8|8,0:0|0:0,0:0:0:0:
248,356,132985,6,0,P|260:308|260:260,1,90,8|8,0:0|0:0,0:0:0:0:
112,104,133244,2,0,P|100:152|100:200,1,90,2|0,0:0|0:0,0:0:0:0:
144,280,133503,1,8,0:0:0:0:
144,280,133632,1,8,0:0:0:0:
208,208,133761,2,0,P|252:192|296:180,1,90,8|8,0:0|0:0,0:0:0:0:
412,192,134020,1,8,0:0:0:0:
512,244,134149,1,8,0:0:0:0:
432,328,134279,2,0,P|384:280|392:212,1,135,4|0,0:0|0:0,0:0:0:0:
412,192,134537,2,0,P|428:148|380:72,1,135,2|0,0:0|0:0,0:0:0:0:
360,88,134796,2,0,L|268:88,1,90,2|0,0:0|0:0,0:0:0:0:
188,120,135072,6,0,B|120:152|60:112|60:112|24:156,1,180,4|0,0:0|0:0,0:0:0:0:
80,244,135875,2,0,B|104:288|104:288|80:328|112:352|112:352|152:344|184:356,1,180
228,260,136618,2,0,P|268:252|320:248,1,90
380,336,137137,2,0,P|411:298|434:264,1,90
380,168,137656,1,0,0:0:0:0:
336,68,137916,2,0,P|256:104|176:68,1,180
176,68,138695,1,0,0:0:0:0:
56,248,139215,6,0,P|136:212|216:248,1,180,4|0,0:0|0:0,0:0:0:0:
256,348,139994,1,0,0:0:0:0:
256,348,140254,2,0,B|240:268|304:228|304:228|292:180,1,180
256,88,141010,1,0,0:0:0:0:
256,88,141262,6,0,P|300:76|344:68,1,90
468,156,141766,2,0,P|424:168|380:176,1,90
276,204,142287,2,0,P|252:288|316:348,1,180,0|4,0:0|0:0,0:0:0:0:
312,346,143327,6,0,B|236:320|184:368|184:368|148:332,1,180,2|0,0:0|0:0,0:0:0:0:
168,248,144108,1,0,0:0:0:0:
80,268,144367,2,0,P|60:308|52:360,2,90
32,192,145145,1,0,0:0:0:0:
120,168,145404,2,0,P|164:96|116:20,1,180
119,21,146181,1,0,0:0:0:0:
0,108,146441,2,0,P|44:112|88:92,1,90
216,44,146959,2,0,P|257:26|301:30,1,90
396,96,147477,6,0,B|340:140|272:109|272:109|248:157,1,180,0|0,0:0|0:0,0:0:0:0:
312,220,148255,1,0,0:0:0:0:
224,228,148514,2,0,L|132:220,1,90
160,132,149034,2,0,L|68:124,1,90
48,212,149555,2,0,L|32:268,2,45,0|0|0,0:0|0:0|0:0,0:0:0:0:
52,96,150070,2,0,L|44:44,2,45,0|0|0,0:0|0:0|0:0,0:0:0:0:
160,132,150587,2,0,B|216:120|224:80|224:80|324:80,1,180
356,160,151363,1,0,0:0:0:0:
276,200,151621,5,2,0:0:0:0:
276,200,151751,2,0,P|248:252|284:328,1,135
272,319,152397,2,0,P|196:360|104:324,1,180,8|0,0:0|0:0,0:0:0:0:
20,212,153173,2,0,P|96:171|188:207,1,180
208,224,153820,1,8,0:0:0:0:
208,224,153949,1,8,0:0:0:0:
208,224,154078,1,8,0:0:0:0:
208,224,154208,1,8,0:0:0:0:
208,224,154337,1,8,0:0:0:0:
208,224,154466,1,8,0:0:0:0:
208,224,154596,1,8,0:0:0:0:
208,224,154725,6,0,P|216:181|208:133,1,90
331,184,155251,2,0,P|324:228|332:276,1,90
332,272,155777,6,0,B|292:296|260:272|260:272|208:272|184:332,1,180,4|8,0:0|0:0,0:0:0:0:
184,331,156161,1,0,0:0:0:0:
104,288,156289,2,0,B|96:240|60:212|60:212|64:168|108:132,1,180,2|8,0:0|0:0,0:0:0:0:
88,48,156674,2,0,P|148:104|240:76,1,180,2|2,0:0|0:0,0:0:0:0:
464,56,157059,2,0,P|428:32|380:32,1,90,8|0,0:0|0:0,0:0:0:0:
316,152,157315,2,0,P|358:143|392:109,1,90,2|0,0:0|0:0,0:0:0:0:
476,192,157571,1,8,0:0:0:0:
476,192,157700,1,0,0:0:0:0:
391,272,157828,6,0,P|358:240|316:232,1,90,2|0,0:0|0:0,0:0:0:0:
382,352,158080,2,0,P|428:352|464:328,1,90,8|0,0:0|0:0,0:0:0:0:
296,312,158332,2,0,P|220:348|136:308,1,180,2|8,0:0|0:0,0:0:0:0:
192,104,158719,2,0,B|232:168|180:224|180:224|224:268,1,180,2|2,0:0|0:0,0:0:0:0:
124,156,159107,2,0,L|32:148,1,90,8|0,0:0|0:0,0:0:0:0:
282,112,159366,2,0,L|190:104,1,90,2|0,0:0|0:0,0:0:0:0:
439,69,159625,2,0,L|347:61,1,90,8|0,0:0|0:0,0:0:0:0:
336,228,159883,2,0,P|356:188|360:140,1,90,2|0,0:0|0:0,0:0:0:0:
232,216,160142,2,0,P|236:260|256:300,1,90,8|0,0:0|0:0,0:0:0:0:
500,320,160400,6,0,P|424:288|336:320,1,180,2|8,0:0|0:0,0:0:0:0:
240,384,160788,1,0,0:0:0:0:
136,328,160918,2,0,P|104:292|92:252,1,90,2|0,0:0|0:0,0:0:0:0:
108,92,161176,2,0,P|140:128|152:168,1,90,8|0,0:0|0:0,0:0:0:0:
44,180,161435,1,2,0:0:0:0:
44,180,161564,1,2,0:0:0:0:
180,252,161694,2,0,P|224:264|272:256,1,90,8|0,0:0|0:0,0:0:0:0:
352,192,161952,5,2,0:0:0:0:
352,192,162015,1,0,0:0:0:0:
352,192,162079,1,0,0:0:0:0:
280,48,162206,2,0,P|264:88|260:140,1,90,8|0,0:0|0:0,0:0:0:0:
320,364,162460,2,0,P|336:324|340:272,1,90,2|0,0:0|0:0,0:0:0:0:
413,119,162714,2,0,P|436:157|441:204,1,90,8|0,0:0|0:0,0:0:0:0:
341,278,162968,5,2,0:0:0:0:
256,212,163100,1,2,0:0:0:0:
180,292,163232,1,2,0:0:0:0:
92,232,163364,1,2,0:0:0:0:
124,128,163496,2,0,L|124:36,1,90,2|0,0:0|0:0,0:0:0:0:
256,122,163760,2,0,L|256:214,1,90,2|0,0:0|0:0,0:0:0:0:
406,332,164025,6,0,P|419:247|349:196,1,180,4|8,0:0|0:0,0:0:0:0:
257,252,164418,1,0,0:0:0:0:
21,192,164549,2,0,P|100:150|169:199,1,180,2|8,0:0|0:0,0:0:0:0:
147,381,164942,2,0,B|116:342|144:285|144:285|103:272|91:227,1,180,2|2,0:0|0:0,0:0:0:0:
257,252,165332,2,0,P|241:297|210:328,1,90,8|0,0:0|0:0,0:0:0:0:
318,186,165592,2,0,P|342:227|346:270,1,90,2|0,0:0|0:0,0:0:0:0:
305,98,165852,2,0,P|352:105|388:131,1,90,8|0,0:0|0:0,0:0:0:0:
453,215,166111,5,2,0:0:0:0:
453,215,166237,1,0,0:0:0:0:
414,113,166364,2,0,P|408:67|413:23,1,90,8|0,0:0|0:0,0:0:0:0:
453,215,166617,2,0,B|420:280|340:264|340:264|320:312,1,180,2|8,0:0|0:0,0:0:0:0:
216,320,166997,2,0,P|140:352|60:304,1,180,0|2,0:0|0:0,0:0:0:0:
232,144,167370,2,0,P|248:188|248:230,1,90,8|0,0:0|0:0,0:0:0:0:
104,204,167618,2,0,P|88:160|87:117,1,90,2|0,0:0|0:0,0:0:0:0:
212,48,167885,2,0,B|280:28|336:48|336:48|400:24,1,180,8|2,0:0|0:0,0:0:0:0:
448,120,168272,5,0,0:0:0:0:
344,220,168402,2,0,L|364:132,1,90,8|0,0:0|0:0,0:0:0:0:
424,328,168660,2,0,L|444:240,1,90,2|0,0:0|0:0,0:0:0:0:
236,352,168919,2,0,L|256:264,1,90,8|0,0:0|0:0,0:0:0:0:
232,144,169178,2,0,P|160:100|84:152,1,180,2|8,0:0|0:0,0:0:0:0:
96,280,169571,1,0,0:0:0:0:
160,180,169702,1,2,0:0:0:0:
24,192,169833,1,0,0:0:0:0:
24,328,169964,2,0,P|60:356|104:360,1,90,8|0,0:0|0:0,0:0:0:0:
200,264,170226,6,0,P|288:240|376:268,1,180,2|8,0:0|0:0,0:0:0:0:
456,196,170619,1,0,0:0:0:0:
376,48,170750,2,0,P|364:88|364:144,1,90,4|0,0:0|0:0,0:0:0:0:
440,376,171002,2,0,P|452:336|452:280,1,90,8|0,0:0|0:0,0:0:0:0:
456,196,171254,1,2,0:0:0:0:
456,196,171319,1,0,0:0:0:0:
456,196,171385,1,0,0:0:0:0:
272,152,171516,2,0,P|291:188|331:228,1,90,8|0,0:0|0:0,0:0:0:0:
348,88,171778,2,0,B|288:36|224:72|224:72|196:32,1,180,2|8,0:0|0:0,0:0:0:0:
198,34,172181,1,0,0:0:0:0:
132,192,172316,2,0,L|96:208,16,22.5,2|0|0|0|0|0|0|0|0|0|0|0|0|0|0|0|8,0:0|0:0|0:0|0:0|0:0|0:0|0:0|0:0|0:0|0:0|0:0|0:0|0:0|0:0|0:0|0:0|0:0,0:0:0:0:
404,180,188832,6,0,B|332:212|280:152|280:152|256:192,1,180,4|8,0:0|0:0,0:0:0:0:
258,188,189223,1,0,0:0:0:0:
356,104,189353,2,0,P|372:64|376:16,1,90,2|2,0:0|0:0,0:0:0:0:
180,124,189614,2,0,P|164:164|160:212,1,90,8|0,0:0|0:0,0:0:0:0:
232,292,189875,2,0,P|164:248|76:276,1,180,2|8,0:0|0:0,0:0:0:0:
75,276,190261,1,0,0:0:0:0:
304,352,190390,2,0,B|344:280|288:220|288:220|328:188,1,180,2|8,0:0|0:0,0:0:0:0:
316,197,190776,1,0,0:0:0:0:
264,100,190905,6,0,P|196:144|108:104,1,180,0|8,0:0|0:0,0:0:0:0:
111,108,191291,1,0,0:0:0:0:
40,196,191420,2,0,P|61:236|76:282,1,90,2|2,0:0|0:0,0:0:0:0:
184,280,191677,2,0,P|170:323|148:366,1,90,8|0,0:0|0:0,0:0:0:0:
280,300,191935,2,0,P|328:292|376:292,1,90,2|0,0:0|0:0,0:0:0:0:
480,148,192192,2,0,P|432:156|384:156,1,90,2|0,0:0|0:0,0:0:0:0:
348,60,192450,1,2,0:0:0:0:
348,60,192578,1,2,0:0:0:0:
256,116,192707,2,0,P|264:160|256:208,1,90,2|0,0:0|0:0,0:0:0:0:
36,196,192965,6,0,B|100:152|160:200|160:200|188:160,1,180,4|8,0:0|0:0,0:0:0:0:
172,76,193359,1,0,0:0:0:0:
96,256,193491,2,0,P|172:300|244:252,1,180,2|8,0:0|0:0,0:0:0:0:
256,116,193891,1,0,0:0:0:0:
360,200,194024,2,0,P|348:244|344:288,1,90,2|0,0:0|0:0,0:0:0:0:
480,204,194282,2,0,P|468:159|449:119,1,90,8|2,0:0|0:0,0:0:0:0:
348,32,194541,2,0,L|336:124,1,90,2|2,0:0|0:0,0:0:0:0:
428,368,194808,2,0,L|440:276,1,90,8|0,0:0|0:0,0:0:0:0:
328,204,195053,6,0,P|256:248|176:204,1,180,2|8,0:0|0:0,0:0:0:0:
178,207,195446,1,0,0:0:0:0:
136,108,195577,2,0,B|160:188|88:228|88:228|116:272,1,180,2|8,0:0|0:0,0:0:0:0:
108,259,195948,1,0,0:0:0:0:
48,144,196073,2,0,P|44:100|60:56,1,90,2|2,0:0|0:0,0:0:0:0:
192,232,196336,2,0,P|196:276|180:320,1,90,8|0,0:0|0:0,0:0:0:0:
80,356,196599,1,2,0:0:0:0:
80,356,196725,1,2,0:0:0:0:
16,268,196852,1,8,0:0:0:0:
16,268,196978,1,0,0:0:0:0:
192,232,197105,6,0,P|276:204|360:232,1,180,4|8,0:0|0:0,0:0:0:0:
448,300,197499,1,0,0:0:0:0:
448,300,197565,1,0,0:0:0:0:
448,300,197631,2,0,P|436:256|440:204,1,90,2|0,0:0|0:0,0:0:0:0:
476,20,197894,2,0,P|488:64|484:116,1,90,8|0,0:0|0:0,0:0:0:0:
352,76,198157,2,0,P|344:120|348:168,1,90,2|2,0:0|0:0,0:0:0:0:
328,300,198407,2,0,P|256:344|172:308,1,180,8|2,0:0|0:0,0:0:0:0:
196,148,198787,1,0,0:0:0:0:
144,224,198917,1,8,0:0:0:0:
248,268,199048,1,0,0:0:0:0:
328,192,199178,6,0,L|328:100,1,90,2|0,0:0|0:0,0:0:0:0:
424,284,199439,2,0,L|424:192,1,90,8|0,0:0|0:0,0:0:0:0:
396,72,199700,2,0,P|328:28|256:84,1,180,2|8,0:0|0:0,0:0:0:0:
196,148,200091,1,0,0:0:0:0:
196,148,200157,1,0,0:0:0:0:
196,148,200222,2,0,P|152:140|100:148,1,90,2|2,0:0|0:0,0:0:0:0:
28,312,200473,2,0,P|72:320|124:312,1,90,2|2,0:0|0:0,0:0:0:0:
8,120,200724,2,0,P|12:164|24:208,1,90,2|2,0:0|0:0,0:0:0:0:
117,314,200975,1,2,0:0:0:0:
118,314,201100,1,2,0:0:0:0:
254,269,201226,6,0,P|342:237|423:269,1,180,4|8,0:0|0:0,0:0:0:0:
500,192,201650,1,0,0:0:0:0:
408,132,201777,2,0,P|400:88|408:40,1,90,2|0,0:0|0:0,0:0:0:0:
304,20,202043,1,8,0:0:0:0:
304,20,202110,1,0,0:0:0:0:
304,20,202177,1,0,0:0:0:0:
284,124,202310,2,0,P|240:136|192:136,1,90,2|0,0:0|0:0,0:0:0:0:
8,60,202568,2,0,P|52:48|100:48,1,90,8|0,0:0|0:0,0:0:0:0:
184,228,202827,2,0,P|144:205|110:171,1,90,2|2,0:0|0:0,0:0:0:0:
276,216,203085,2,0,P|268:260|244:300,1,90,8|0,0:0|0:0,0:0:0:0:
184,364,203344,5,2,0:0:0:0:
160,76,203600,1,2,0:0:0:0:
420,200,203856,1,2,0:0:0:0:
184,364,204113,1,2,0:0:0:0:
420,200,204369,1,2,0:0:0:0:
380,100,204626,1,2,0:0:0:0:
308,180,204882,1,0,0:0:0:0:
308,180,205145,1,0,0:0:0:0:
420,200,205408,6,0,P|440:264|416:324,1,135.000005149842,4|0,0:0|0:0,0:0:0:0:
284,288,205934,2,0,P|220:264|160:288,1,135.000005149842,4|0,0:0|0:0,0:0:0:0:
116,356,206329,1,0,0:0:0:0:
116,356,206460,2,0,L|112:212,1,135.000005149842
232,32,206987,2,0,L|236:176,1,135.000005149842
32,192,207476,5,2,0:0:0:0:
132,100,207730,1,0,0:0:0:0:
232,192,207984,1,4,0:0:0:0:
132,284,208238,1,0,0:0:0:0:
216,344,208429,1,0,0:0:0:0:
216,344,208492,2,0,P|268:324|352:328,1,135.000005149842,8|8,0:0|0:0,0:0:0:0:
424,352,208874,1,8,0:0:0:0:
408,272,209001,2,0,L|396:196,1,67.5000025749208,8|2,0:0|0:0,0:0:0:0:
476,184,209267,2,0,L|480:116,1,67.5000025749208,10|2,0:0|0:0,0:0:0:0:
420,64,209534,6,0,P|368:40|292:56,1,135.000005149842,4|0,0:0|0:0,0:0:0:0:
256,128,209939,1,0,0:0:0:0:
180,156,210074,2,0,P|106:170|54:146,1,135.000005149842,8|0,0:0|0:0,0:0:0:0:
40,68,210452,1,8,0:0:0:0:
40,68,210578,2,0,L|48:208,1,135.000005149842,0|2,0:0|0:0,0:0:0:0:
140,336,211102,2,0,B|200:344|236:296|236:296|240:336,1,135.000005149842,8|0,0:0|0:0,0:0:0:0:
238,321,211488,1,0,0:0:0:0:
160,256,211617,6,0,L|152:184,1,67.5000025749208
232,188,211875,2,0,L|277:131,1,67.5000025749208,0|0,0:0|0:0,0:0:0:0:
332,192,212134,2,0,L|404:184,1,67.5000025749208,8|0,0:0|0:0,0:0:0:0:
408,264,212392,2,0,L|464:309,1,67.5000025749208,0|0,0:0|0:0,0:0:0:0:
496,192,212651,2,0,L|496:116,1,67.5000025749208,2|0,0:0|0:0,0:0:0:0:
332,124,212910,2,0,L|332:191,1,67.5000025749208,8|8,0:0|0:0,0:0:0:0:
408,332,213168,2,0,L|408:264,1,67.5000025749208,8|8,0:0|0:0,0:0:0:0:
244,264,213427,2,0,L|244:331,1,67.5000025749208,8|8,0:0|0:0,0:0:0:0:
152,360,213685,6,0,P|84:376|40:328,1,135.000005149842,4|0,0:0|0:0,0:0:0:0:
200,212,214211,2,0,P|268:196|312:244,1,135.000005149842,2|0,0:0|0:0,0:0:0:0:
308,312,214606,1,0,0:0:0:0:
308,312,214737,2,0,P|328:252|392:240,1,135.000005149842,2|0,0:0|0:0,0:0:0:0:
428,52,215250,2,0,P|408:112|344:124,1,135.000005149842,2|0,0:0|0:0,0:0:0:0:
192,72,215764,6,0,B|140:76|103:66|103:66|52:76,2,135.000005149842,2|0|2,0:0|0:0|0:0,0:0:0:0:
256,124,216407,1,0,0:0:0:0:
180,152,216535,2,0,P|176:188|176:224,1,67.5000025749208
280,344,216792,2,0,P|284:280|284:208,1,135.000005149842,2|0,0:0|0:0,0:0:0:0:
256,124,217181,1,0,0:0:0:0:
256,124,217311,2,0,P|300:120|332:120,1,67.5000025749208,2|0,0:0|0:0,0:0:0:0:
496,184,217571,2,2,P|428:196|352:196,1,135.000005149842
256,124,218086,5,0,0:0:0:0:
56,48,218342,2,0,L|44:120,1,67.5000025749208,2|0,0:0|0:0,0:0:0:0:
100,252,218599,2,0,L|112:180,1,67.5000025749208,8|0,0:0|0:0,0:0:0:0:
228,96,218855,2,0,L|216:168,1,67.5000025749208,8|0,0:0|0:0,0:0:0:0:
272,300,219112,2,0,L|284:228,1,67.5000025749208,8|0,0:0|0:0,0:0:0:0:
392,136,219368,2,0,L|380:208,1,67.5000025749208,8|8,0:0|0:0,0:0:0:0:
436,340,219624,2,0,L|448:268,1,67.5000025749208,8|8,0:0|0:0,0:0:0:0:
392,136,219881,5,2,0:0:0:0:
272,300,220138,1,2,0:0:0:0:
228,96,220396,1,2,0:0:0:0:
100,252,220653,1,2,0:0:0:0:
340,340,220911,6,0,P|352:276|304:228,1,135,2|0,0:0|0:0,0:0:0:0:
272,300,221430,2,0,L|296:168,1,135,0|0,0:0|0:0,0:0:0:0:
260,64,221949,6,0,B|192:28|132:72|132:72|76:72,1,180,4|8,0:0|0:0,0:0:0:0:
88,72,222336,1,0,0:0:0:0:
200,136,222466,2,0,B|200:188|164:220|164:220|156:308,1,180,2|8,0:0|0:0,0:0:0:0:
240,376,222854,2,0,P|168:336|84:372,1,180,2|2,0:0|0:0,0:0:0:0:
76,256,223242,2,0,L|84:160,1,90,8|0,0:0|0:0,0:0:0:0:
207,47,223500,2,0,L|199:143,1,90,2|0,0:0|0:0,0:0:0:0:
256,248,223759,1,8,0:0:0:0:
256,248,223888,1,0,0:0:0:0:
368,192,224017,6,0,L|472:184,1,90,2|0,0:0|0:0,0:0:0:0:
404,68,224276,2,0,L|300:76,1,90,8|0,0:0|0:0,0:0:0:0:
200,136,224535,2,0,P|124:172|44:132,1,180,2|8,0:0|0:0,0:0:0:0:
180,284,224923,2,0,P|256:248|336:288,1,180,2|2,0:0|0:0,0:0:0:0:
452,340,225311,2,0,L|440:244,1,90,8|0,0:0|0:0,0:0:0:0:
316,80,225569,2,0,L|328:176,1,90,2|0,0:0|0:0,0:0:0:0:
336,288,225828,1,8,0:0:0:0:
336,288,225957,1,0,0:0:0:0:
232,216,226086,6,0,B|148:184|104:252|104:252|72:216,1,180,2|8,0:0|0:0,0:0:0:0:
32,152,226474,1,0,0:0:0:0:
180,284,226604,2,0,P|188:332|180:376,1,90,2|0,0:0|0:0,0:0:0:0:
8,272,226862,2,0,P|0:224|8:180,1,90,8|0,0:0|0:0,0:0:0:0:
144,36,227121,2,0,P|152:84|144:128,1,90,2|2,0:0|0:0,0:0:0:0:
232,216,227380,1,8,0:0:0:0:
232,216,227509,1,0,0:0:0:0:
260,100,227638,2,0,P|304:92|352:92,1,90,2|0,0:0|0:0,0:0:0:0:
404,196,227897,2,0,P|446:211|487:235,1,90,8|0,0:0|0:0,0:0:0:0:
460,348,228155,5,2,0:0:0:0:
460,348,228285,1,0,0:0:0:0:
352,304,228415,2,0,P|308:320|268:348,1,90,8|0,0:0|0:0,0:0:0:0:
192,136,228676,2,0,P|208:180|236:220,1,90,2|0,0:0|0:0,0:0:0:0:
384,52,228937,2,0,P|359:87|343:131,1,90,8|0,0:0|0:0,0:0:0:0:
232,216,229198,2,0,B|180:232|140:200|140:200|84:204|56:240,1,180,2|8,0:0|0:0,0:0:0:0:
65,229,229589,1,0,0:0:0:0:
192,136,229720,2,0,P|208:92|212:44,1,90,2|2,0:0|0:0,0:0:0:0:
100,16,229972,1,0,0:0:0:0:
28,108,230098,1,2,0:0:0:0:
28,108,230161,1,2,0:0:0:0:
28,108,230224,6,0,P|56:184|20:280,1,180,4|8,0:0|0:0,0:0:0:0:
132,356,230615,1,0,0:0:0:0:
252,296,230745,2,0,L|344:288,1,90,4|0,0:0|0:0,0:0:0:0:
132,356,231006,1,8,0:0:0:0:
180,232,231137,2,0,B|200:192|200:192|180:152|188:100|188:100|244:120,1,180,4|2,0:0|0:0,0:0:0:0:
372,192,231528,2,0,P|328:192|284:172,1,90,8|0,0:0|0:0,0:0:0:0:
360,60,231789,2,0,P|404:60|448:80,1,90,2|0,0:0|0:0,0:0:0:0:
480,180,232050,1,8,0:0:0:0:
448,284,232180,1,0,0:0:0:0:
340,296,232310,6,0,P|296:288|248:300,1,90,2|0,0:0|0:0,0:0:0:0:
228,192,232568,2,0,P|185:207|150:241,1,90,8|0,0:0|0:0,0:0:0:0:
132,344,232827,2,0,P|144:260|76:196,1,180,2|8,0:0|0:0,0:0:0:0:
148,112,233209,2,0,P|228:148|308:100,1,180,2|2,0:0|0:0,0:0:0:0:
352,204,233595,2,0,P|336:244|340:292,1,90,8|0,0:0|0:0,0:0:0:0:
460,348,233854,2,0,P|476:308|472:260,1,90,2|0,0:0|0:0,0:0:0:0:
428,136,234112,1,8,0:0:0:0:
428,136,234242,1,0,0:0:0:0:
340,288,234371,6,0,B|292:336|219:302|219:302|184:344,2,180,2|8|2,0:0|0:0|0:0,0:0:0:0:
332,152,235018,1,2,0:0:0:0:
200,184,235147,2,0,L|276:240,1,90,8|0,0:0|0:0,0:0:0:0:
236,116,235405,2,0,P|152:120|124:208,1,180,2|8,0:0|0:0,0:0:0:0:
121,200,235793,1,0,0:0:0:0:
332,152,235923,2,0,P|332:108|320:64,1,90,2|0,0:0|0:0,0:0:0:0:
200,184,236181,2,0,P|200:228|212:272,1,90,8|0,0:0|0:0,0:0:0:0:
416,260,236440,1,8,0:0:0:0:
400,368,236569,1,10,0:0:0:0:
316,304,236699,1,10,0:0:0:0:
416,260,236828,1,10,0:0:0:0:
312,344,236957,6,0,B|264:356|224:328|224:328|180:320|136:352,1,180,4|8,0:0|0:0,0:0:0:0:
141,348,237345,1,0,0:0:0:0:
52,284,237474,2,0,L|28:196,1,90,2|0,0:0|0:0,0:0:0:0:
116,132,237733,2,0,L|139:45,1,90,8|2,0:0|0:0,0:0:0:0:
248,44,237992,2,0,B|316:16|368:68|368:68|420:68,1,180,2|8,0:0|0:0,0:0:0:0:
496,24,238380,1,0,0:0:0:0:
444,148,238509,6,0,P|408:172|356:180,1,90,4|2,0:0|0:0,0:0:0:0:
256,200,238765,2,0,P|264:157|295:115,1,90,2|2,0:0|0:0,0:0:0:0:
328,264,239021,2,0,P|292:288|240:296,1,90,2|2,0:0|0:0,0:0:0:0:
140,316,239284,2,0,P|148:273|179:231,1,90,2|2,0:0|0:0,0:0:0:0:
76,44,239547,2,0,L|64:140,1,90,2|2,0:0|0:0,0:0:0:0:
186,146,239810,2,0,L|174:242,1,90,2|2,0:0|0:0,0:0:0:0:
333,47,240073,2,0,L|322:137,1,90,2|2,0:0|0:0,0:0:0:0:
443,149,240330,2,0,L|432:239,1,90,2|2,0:0|0:0,0:0:0:0:
372,348,240588,5,2,0:0:0:0:
372,348,240716,1,2,0:0:0:0:
300,244,240845,1,2,0:0:0:0:
300,244,240974,1,2,0:0:0:0:
196,312,241103,2,0,L|104:308,1,90,2|2,0:0|0:0,0:0:0:0:
120,184,241361,2,0,L|28:180,1,90,2|2,0:0|0:0,0:0:0:0:
152,92,241620,2,0,L|244:96,1,90,2|2,0:0|0:0,0:0:0:0:
228,220,241878,2,0,L|320:224,1,90,2|2,0:0|0:0,0:0:0:0:
404,192,242137,1,2,0:0:0:0:
460,120,242266,1,2,0:0:0:0:
420,40,242396,1,2,0:0:0:0:
332,48,242525,1,2,0:0:0:0:
404,192,242654,6,0,P|416:236|416:280,1,90,2|2,0:0|0:0,0:0:0:0:
332,252,242913,2,0,P|320:296|298:334,1,90,2|2,0:0|0:0,0:0:0:0:
132,236,243171,2,0,P|143:191|165:153,1,90,2|2,0:0|0:0,0:0:0:0:
60,296,243428,2,0,P|48:252|48:208,1,90,2|2,0:0|0:0,0:0:0:0:
124,84,243686,2,0,P|168:76|216:88,1,90,2|2,0:0|0:0,0:0:0:0:
332,252,243943,2,0,P|288:260|240:248,1,90,2|2,0:0|0:0,0:0:0:0:
296,40,244201,2,0,P|304:84|292:131,1,90,2|2,0:0|0:0,0:0:0:0:
168,296,244458,2,0,P|160:252|172:204,1,90,2|2,0:0|0:0,0:0:0:0:
124,84,244716,5,2,0:0:0:0:
124,84,244844,1,2,0:0:0:0:
24,148,244973,2,0,P|32:192|20:240,1,90,2|2,0:0|0:0,0:0:0:0:
72,332,245231,1,2,0:0:0:0:
72,332,245359,1,2,0:0:0:0:
180,324,245488,2,0,P|223:316|272:328,1,90,2|2,0:0|0:0,0:0:0:0:
364,372,245746,1,2,0:0:0:0:
432,288,245874,1,2,0:0:0:0:
380,192,246003,1,2,0:0:0:0:
460,120,246132,1,2,0:0:0:0:
396,32,246261,5,2,0:0:0:0:
388,36,246389,1,2,0:0:0:0:
380,40,246518,1,2,0:0:0:0:
372,44,246647,1,2,0:0:0:0:
364,48,246776,6,0,P|324:56|272:56,1,90,4|2,0:0|0:0,0:0:0:0:
176,148,247033,2,0,P|216:156|268:156,1,90,2|0,0:0|0:0,0:0:0:0:
296,140,247226,1,0,0:0:0:0:
296,140,247291,2,0,P|288:184|288:236,1,90,2|2,0:0|0:0,0:0:0:0:
172,332,247548,2,0,P|180:288|180:242,1,90,2|2,0:0|0:0,0:0:0:0:
12,260,247806,2,0,P|56:268|108:268,1,90,2|2,0:0|0:0,0:0:0:0:
176,148,248066,2,0,P|132:140|80:140,1,90,2|2,0:0|0:0,0:0:0:0:
172,332,248327,2,0,P|180:288|180:236,1,90,2|2,0:0|0:0,0:0:0:0:
12,84,248588,2,0,P|4:128|4:180,1,90,2|2,0:0|0:0,0:0:0:0:
104,268,248849,5,2,0:0:0:0:
104,268,248979,1,2,0:0:0:0:
248,220,249110,2,0,L|344:216,1,90,2|2,0:0|0:0,0:0:0:0:
456,316,249371,2,0,L|360:320,1,90,2|2,0:0|0:0,0:0:0:0:
464,144,249632,2,0,L|436:236,1,90,2|2,0:0|0:0,0:0:0:0:
352,40,249892,2,0,L|380:128,1,90,2|2,0:0|0:0,0:0:0:0:
276,305,250146,2,0,L|248:217,1,90,2|2,0:0|0:0,0:0:0:0:
240,66,250400,2,0,P|210:95|162:106,1,90,2|2,0:0|0:0,0:0:0:0:
78,265,250654,2,0,P|108:236|156:225,1,90,6|2,0:0|0:0,0:0:0:0:
276,304,250908,5,8,0:0:0:0:
276,304,251166,1,8,0:0:0:0:
416,192,251425,2,0,L|428:124,3,60,8|8|8|8,0:0|0:0|0:0|0:0,0:0:0:0:
360,80,251770,2,0,L|328:24,3,60,8|8|8|8,0:0|0:0|0:0|0:0,0:0:0:0:
268,84,252114,2,0,L|256:152,3,60,8|8|8|8,0:0|0:0|0:0|0:0,0:0:0:0:
324,196,252459,2,0,L|356:252,3,60,8|8|8|8,0:0|0:0|0:0|0:0,0:0:0:0:
432,276,252804,2,0,L|496:256,2,60,8|8|12,0:0|0:0|0:0,0:0:0:0:
432,276,253235,5,0,0:0:0:0:
432,276,253364,2,0,B|400:328|332:324|332:324|312:344,1,135.000005149842
244,368,253752,2,0,P|260:304|224:244,1,135.000005149842,0|2,0:0|0:0,0:0:0:0:
96,148,254270,2,0,P|64:160|32:164,1,67.5000025749208,2|0,0:0|0:0,0:0:0:0:
28,280,254528,2,0,P|60:268|92:264,1,67.5000025749208,2|0,0:0|0:0,0:0:0:0:
180,188,254787,2,0,L|184:156,6,16.8750006437302,2|2|2|2|2|2|2,0:0|0:0|0:0|0:0|0:0|0:0|0:0,0:0:0:0:
204,136,255045,6,0,P|264:156|328:128,1,135.000005149842,4|0,0:0|0:0,0:0:0:0:
376,56,255429,1,2,0:0:0:0:
352,140,255557,2,0,B|348:192|320:240|320:240|328:276,1,135.000005149842,8|0,0:0|0:0,0:0:0:0:
412,252,255942,1,8,0:0:0:0:
380,336,256070,2,0,P|312:352|258:321,1,135.000005149842,0|2,0:0|0:0,0:0:0:0:
244,236,256455,1,0,0:0:0:0:
244,236,256583,2,0,L|236:304,1,67.5000025749208,0|2,0:0|0:0,0:0:0:0:
164,156,256839,2,0,L|156:224,1,67.5000025749208,0|2,0:0|0:0,0:0:0:0:
132,328,257122,6,0,P|72:356|8:320,1,135.000005149842,2|0,0:0|0:0,0:0:0:0:
40,252,257509,1,2,0:0:0:0:
40,252,257639,2,0,B|48:180|48:180|32:152|36:104,1,135.000005149842,8|0,0:0|0:0,0:0:0:0:
112,92,258027,1,8,0:0:0:0:
164,156,258156,2,0,P|220:184|280:152,1,135.000005149842,0|2,0:0|0:0,0:0:0:0:
279,152,258544,1,0,0:0:0:0:
272,268,258673,2,0,P|264:304|264:336,1,67.5000025749208,0|2,0:0|0:0,0:0:0:0:
376,316,258932,2,0,P|384:280|384:248,1,67.5000025749208,0|2,0:0|0:0,0:0:0:0:
368,144,259190,6,2,P|416:104|484:111,1,135.000005149842,2|0,0:0|0:0,0:0:0:0:
484,111,259578,2,0,P|472:80|472:40,1,67.5000025749208,2|8,0:0|0:0,0:0:0:0:
444,268,259966,2,0,P|456:299|456:339,1,67.5000025749208,0|8,0:0|0:0,0:0:0:0:
376,316,260225,2,0,B|332:344|284:328|284:328|264:368,1,135.000005149842,0|2,0:0|0:0,0:0:0:0:
266,362,260606,1,2,0:0:0:0:
320,256,260733,2,0,L|300:184,1,67.5000025749208,2|2,0:0|0:0,0:0:0:0:
200,228,260997,2,0,L|180:156,1,67.5000025749208
220,64,261261,6,0,P|188:108|112:112,1,135.000005149842,4|0,0:0|0:0,0:0:0:0:
60,48,261658,1,2,0:0:0:0:
60,48,261790,2,0,B|84:92|60:144|60:144|64:188,1,135.000005149842,8|0,0:0|0:0,0:0:0:0:
24,252,262176,2,0,P|40:284|40:324,1,67.5000025749208,8|0,0:0|0:0,0:0:0:0:
238,126,262562,2,0,P|222:94|222:54,1,67.5000025749208
335,73,262820,2,0,P|351:105|351:145,1,67.5000025749208,2|2,0:0|0:0,0:0:0:0:
315,245,263077,2,0,P|299:213|299:173,1,67.5000025749208
411,189,263335,6,0,P|445:240|428:312,1,135.000005149842,2|0,0:0|0:0,0:0:0:0:
364,356,263721,1,2,0:0:0:0:
364,356,263850,2,0,P|300:336|236:360,1,135.000005149842,8|0,0:0|0:0,0:0:0:0:
238,358,264236,1,8,0:0:0:0:
188,296,264365,2,0,L|160:164,1,135.000005149842,0|2,0:0|0:0,0:0:0:0:
92,120,264750,1,0,0:0:0:0:
84,200,264878,2,0,P|48:216|16:220,1,67.5000025749208,8|0,0:0|0:0,0:0:0:0:
40,60,265134,2,0,P|76:44|108:40,1,67.5000025749208
320,92,265391,6,0,P|252:108|180:96,1,135.000005149842,4|0,0:0|0:0,0:0:0:0:
188,98,265780,1,2,0:0:0:0:
288,200,265910,2,0,B|316:256|272:304|272:304|280:340,1,135.000005149842,8|0,0:0|0:0,0:0:0:0:
352,352,266300,1,8,0:0:0:0:
224,240,266429,2,0,L|148:228,1,67.5000025749208
36,324,266689,2,0,L|112:336,1,67.5000025749208
84,200,266955,2,0,L|8:188,1,67.5000025749208,2|0,0:0|0:0,0:0:0:0:
76,72,267222,2,0,L|142:82,1,67.5000025749208,4|0,0:0|0:0,0:0:0:0:
256,80,267472,6,0,P|264:116|256:160,1,67.5000025749208,8|8,0:0|0:0,0:0:0:0:
256,304,267722,2,0,P|248:268|256:224,1,67.5000025749208,8|8,0:0|0:0,0:0:0:0:
