osu file format v14

[General]
AudioFilename: Wonderful World.mp3
AudioLeadIn: 2000
PreviewTime: 74147
Countdown: 0
SampleSet: Soft
StackLeniency: 0
Mode: 0
LetterboxInBreaks: 0
WidescreenStoryboard: 1

[Editor]
DistanceSpacing: 1.9
BeatDivisor: 4
GridSize: 4
TimelineZoom: 1.5

[Metadata]
Title:Wonderful World
TitleUnicode:Wonderful World
Artist:Shintani Ryoko
ArtistUnicode:新谷良子
Creator:HanzeR
Version:Extra
Source:
Tags:hatsune miku laurier silynn lantis
BeatmapID:326423
BeatmapSetID:128604

[Difficulty]
HPDrainRate:6
CircleSize:4
OverallDifficulty:8
ApproachRate:9.3
SliderMultiplier:1.7
SliderTickRate:1

[Events]
//Background and Video events
0,0,"39695030.jpg",0,0
//Break Periods
2,15630,18125
2,19791,21088
//Storyboard Layer 0 (Background)
//Storyboard Layer 1 (Fail)
//Storyboard Layer 2 (Pass)
//Storyboard Layer 3 (Foreground)
//Storyboard Sound Samples

[TimingPoints]
591,517.241379310345,4,2,2,40,1,0
978,-100,4,2,2,5,0,0
1108,-100,4,2,2,40,0,0
1496,-100,4,2,2,5,0,0
1625,-100,4,2,2,40,0,0
2013,-100,4,2,2,5,0,0
2142,-100,4,2,2,40,0,0
2530,-100,4,2,2,5,0,0
2659,508.474576271186,4,2,2,40,1,0
2659,-100,4,2,2,40,0,0
3548,-100,4,2,2,5,0,0
3675,-100,4,2,2,40,0,0
4184,526.315789473684,4,2,2,40,1,0
4710,508.474576271186,4,2,2,40,1,0
5091,-100,4,2,1,5,0,0
5218,-100,4,2,1,40,0,0
5726,517.241379310345,4,2,2,40,1,0
7665,-100,4,2,2,5,0,0
7794,530.973451327434,4,2,2,40,1,0
8855,521.739130434783,4,2,2,40,1,0
9246,-100,4,2,2,5,0,0
9376,-100,4,2,2,40,0,0
9898,512.820512820513,4,2,2,40,1,0
11821,-100,4,2,2,5,0,0
11949,526.315789473684,4,2,2,40,1,0
11949,-100,4,2,2,40,0,0
12343,-100,4,2,2,5,0,0
12475,-100,4,2,2,40,0,0
13001,517.241379310345,4,2,2,40,1,0
14035,512.820512820513,4,2,2,40,1,0
14547,495.867768595041,4,2,2,40,1,0
15042,259.74025974026,4,2,1,60,1,0
17119,263.157894736842,4,2,1,60,1,0
17645,258.620689655172,4,2,1,60,1,0
18679,260.869565217391,4,2,1,60,1,0
19722,257.510729613734,4,2,1,60,1,0
21267,250,4,2,1,60,1,0
21767,260.869565217391,4,2,1,70,1,0
22288,263.157894736842,4,2,1,70,1,0
22814,260.869565217391,4,2,1,70,1,0
23074,-100,4,2,4,70,0,0
23335,258.620689655172,4,2,1,70,1,0
23335,-100,4,2,1,70,0,0
46093,257.510729613734,4,2,1,70,1,0
51243,275.229357798165,4,2,1,70,1,0
51793,263.157894736842,4,2,1,70,1,0
52319,258.620689655172,4,2,1,70,1,0
53353,255.31914893617,4,2,1,70,1,0
55395,276.497695852535,4,2,1,70,1,0
55671,257.510729613734,4,2,1,70,1,0
56421,257.510729613734,4,2,1,70,1,0
57451,280.373831775701,4,2,1,70,1,0
57731,258.620689655172,4,2,1,70,1,0
59541,256.410256410256,4,2,1,70,1,0
60566,253.164556962025,4,2,1,70,1,0
61452,-100,4,2,4,70,0,0
61578,258.620689655172,4,2,4,70,1,0
61707,-100,4,2,4,70,0,0
61965,-100,4,2,1,70,0,0
62095,267.857142857143,4,2,1,70,1,0
62095,-102.1498,4,2,1,70,0,0
62362,281.69014084507,4,2,2,40,1,0
62643,258.620689655172,4,2,1,70,1,0
65746,252.100840336134,4,2,1,70,1,0
66250,-100,4,2,4,70,0,0
66754,273.972602739726,4,2,2,40,1,0
66754,-200,4,2,2,40,0,0
67575,259.74025974026,4,2,2,40,1,0
67575,-200,4,2,2,40,0,0
69652,256.410256410256,4,2,2,40,1,0
69652,-200,4,2,2,40,0,0
70934,-200.5502,4,2,2,40,0,0
71446,259.74025974026,4,2,2,40,1,0
71446,-200,4,2,2,40,0,0
73004,-200,4,2,2,40,0,0
73523,255.31914893617,4,2,2,40,1,0
73523,-200,4,2,2,40,0,0
74033,258.064516129032,4,2,1,60,1,0
74033,-200,4,2,1,60,0,0
75065,258.620689655172,4,2,1,70,1,1
75065,-100,4,2,1,70,0,1
79202,258.175559380379,4,2,1,70,1,1
82041,-100,4,2,1,70,0,1
82300,-100,4,2,1,70,0,0
82558,-100,4,2,4,70,0,0
82751,-100,4,2,1,70,0,0
82881,-100,4,2,4,70,0,0
83332,-100,4,2,1,70,0,1
87205,-100,4,2,1,70,0,1
87463,263.157894736842,4,2,1,70,1,1
89568,250.521920668058,4,2,1,40,1,0
89943,-100,4,2,1,70,0,0
90069,258.620689655172,4,2,1,70,1,0
91620,258.620689655172,4,2,1,70,1,0
91620,-100,4,2,1,70,0,0
93688,264.31718061674,4,2,1,70,1,0
94216,255.31914893617,4,2,1,70,1,0
94726,258.620689655172,4,2,1,70,1,0
96794,252.100840336134,4,2,1,70,1,0
97298,258.620689655172,4,2,1,70,1,0
98332,254.237288135593,4,2,1,70,1,0
98840,262.582056892779,4,2,2,40,1,0
99365,257.510729613734,4,2,1,40,1,0
99622,-133.333333333333,4,2,1,50,0,0
99880,258.620689655172,4,2,1,50,1,0
101431,265.486725663717,4,2,1,50,1,0
101961,-133.333333333333,4,2,1,50,0,0
102492,252.100840336134,4,2,1,50,1,0
102744,258.620689655172,4,2,1,50,1,0
103519,253.164556962025,4,2,1,50,1,0
104025,258.620689655172,4,2,1,50,1,0
104025,-133.333333333333,4,2,1,50,0,0
104800,250,4,2,1,50,1,0
104800,-133.333333333333,4,2,1,50,0,0
105050,243.90243902439,4,2,1,50,1,0
105050,-133.333333333333,4,2,1,50,0,0
105537,278.422273781903,4,2,1,50,1,0
105537,-133.333333333333,4,2,1,50,0,0
106093,258.620689655172,4,2,1,50,1,0
106093,-133.333333333333,4,2,1,50,0,0
108680,254.237288135593,4,2,1,50,1,0
108680,-133.333333333333,4,2,1,50,0,0
108807,-133.333333333333,4,2,1,50,0,0
109061,-133.333333333333,4,2,1,50,0,0
109188,262.008733624454,4,2,1,50,1,0
109188,-133.333333333333,4,2,1,50,0,0
109450,-80,4,2,1,70,0,0
109712,-57.1428571428571,4,2,1,70,0,0
109843,-100,4,2,1,70,0,0
110236,260.869565217391,4,2,1,70,1,0
111149,-133.333333333333,4,2,1,70,0,0
111279,252.100840336134,4,2,1,70,1,0
111279,-133.333333333333,4,2,1,70,0,0
111783,259.74025974026,4,2,1,70,1,0
111783,-100,4,2,1,70,0,0
112302,262.008733624454,4,2,1,70,1,0
112826,-133.333333333333,4,2,1,70,0,0
113219,-129.6532,4,2,1,70,0,0
113350,247.933884297521,4,2,1,70,1,0
113350,-133.333333333333,4,2,1,70,0,0
113845,263.157894736842,4,2,1,70,1,0
113845,-133.333333333333,4,2,1,70,0,0
114108,-131.578947368421,4,2,1,70,0,0
114371,256.410256410256,4,2,1,70,1,0
114371,-133.333333333333,4,2,1,70,0,0
115909,267.857142857143,4,2,4,70,1,0
115909,-133.333333333333,4,2,4,70,0,0
116444,262.008733624454,4,2,1,60,1,0
116444,-100,4,2,1,60,0,0
117492,246.913580246914,4,2,1,60,1,0
117985,270.880361173815,4,2,1,60,1,0
118526,258.620689655172,4,2,1,60,1,0
120595,256.410256410256,4,2,1,60,1,0
123992,-100,4,2,4,60,0,0
124120,-100,4,2,1,60,0,0
124184,258.620689655172,4,2,1,60,1,0
124701,260.869565217391,4,2,1,60,1,0
125744,259.74025974026,4,2,1,60,1,0
126782,265.486725663717,4,2,1,60,1,0
127843,248.96265560166,4,2,1,60,1,0
128340,257.510729613734,4,2,1,60,1,0
128855,256.410256410256,4,2,1,60,1,0
129880,254.237288135593,4,2,1,60,1,0
130197,-100,4,2,4,60,0,0
130388,264.900662251656,4,2,4,60,1,0
130917,258.620689655172,4,2,1,60,1,0
130917,-100,4,2,1,60,0,0
133826,-100,4,2,4,70,0,0
133955,-100,4,2,1,70,0,0
134279,-100,4,2,4,70,0,0
134473,-100,4,2,1,70,0,0
134602,-100,4,2,4,70,0,0
135054,273.972602739726,4,2,2,40,1,0
135054,-200,4,2,2,50,0,0
135875,247.933884297521,4,2,2,40,1,0
135875,-200,4,2,2,40,0,0
136618,259.74025974026,4,2,2,40,1,0
136618,-200,4,2,2,40,0,0
139215,-200,4,2,2,50,0,0
140254,252.100840336134,4,2,2,40,1,0
140254,-200,4,2,2,40,0,0
141766,260.869565217391,4,2,2,40,1,0
142287,-166.666666666667,4,2,3,40,0,0
143070,-111.111111111111,4,2,2,70,0,0
143331,259.179265658747,4,2,2,70,1,0
143331,-111.111111111111,4,2,2,70,0,0
148514,260.303687635575,4,2,2,70,1,0
148514,-111.111111111111,4,2,2,70,0,0
149553,258.620689655172,4,2,2,70,1,0
149553,-111.111111111111,4,2,2,70,0,0
151621,-111.111111111111,4,2,2,70,0,0
153820,-200,4,2,1,50,0,0
154208,-200,4,2,1,60,0,0
154725,263.157894736842,4,2,2,60,1,0
155777,256.410256410256,4,2,1,70,1,1
156289,-100,4,2,1,70,0,1
157828,252.100840336134,4,2,1,70,1,1
158332,258.620689655172,4,2,1,70,1,1
161952,254.237288135593,4,2,1,70,1,1
162714,-100,4,2,1,70,0,1
162968,264.31718061674,4,2,1,70,1,0
162968,-100,4,2,1,70,0,0
163034,-100,4,2,4,70,0,0
163166,-100,4,2,1,70,0,0
163496,-100,4,2,4,70,0,0
164025,262.008733624454,4,2,1,70,1,1
164025,-100,4,2,1,70,0,1
164942,-99.5652,4,2,1,70,0,1
165073,259.74025974026,4,2,1,70,1,1
166111,253.164556962025,4,2,1,70,1,1
166997,-98.9562,4,2,1,70,0,1
167123,247.933884297521,4,2,1,70,1,1
167618,267.857142857143,4,2,1,70,1,1
167885,258.620689655172,4,2,1,70,1,1
169178,262.008733624454,4,2,1,70,1,1
170750,252.100840336134,4,2,1,70,1,1
171254,262.008733624454,4,2,1,70,1,1
171254,-80,4,2,1,70,0,1
171516,-66.6666666666667,4,2,1,70,0,1
171778,269.058295964126,4,2,1,70,1,1
171778,-80,4,2,1,70,0,1
172316,258.620689655172,4,2,1,70,1,0
172316,-100,4,2,1,70,0,0
172833,-100,4,2,1,50,0,0
173350,255.31914893617,4,2,1,50,1,0
175264,-100,4,2,4,50,0,0
175392,260.869565217391,4,2,4,50,1,0
176435,-100,4,2,1,50,0,0
176957,255.31914893617,4,2,1,50,1,0
177978,254.237288135593,4,2,1,50,1,0
178994,256.959314775161,4,2,1,50,1,0
180535,266.666666666667,4,2,1,50,1,0
181601,259.74025974026,4,2,1,50,1,0
183678,258.620689655172,4,2,1,50,1,0
184195,-100,4,2,4,50,0,0
184389,-100,4,2,1,50,0,0
184518,-100,4,2,4,50,0,0
184712,257.510729613734,4,2,1,50,1,0
184712,-100,4,2,1,50,0,0
188832,260.869565217391,4,2,1,50,1,0
189875,257.510729613734,4,2,1,50,1,0
192965,263.157894736842,4,2,1,50,1,0
193491,266.666666666667,4,2,1,50,1,0
194024,258.620689655172,4,2,1,50,1,0
194541,267.857142857143,4,2,1,50,1,0
194808,245.901639344262,4,2,1,50,1,0
195053,262.008733624454,4,2,1,50,1,0
195446,-97.0873786407767,4,2,1,50,0,0
195573,250,4,2,1,50,1,0
196073,263.157894736842,4,2,1,50,1,0
196599,253.164556962025,4,2,1,50,1,0
197105,263.157894736842,4,2,1,50,1,0
198157,250,4,2,1,50,1,0
198657,260.869565217391,4,2,1,50,1,0
200222,251.046025104603,4,2,1,50,1,0
201226,297.029702970297,4,2,1,50,1,0
201523,254.237288135593,4,2,1,50,1,0
201777,266.666666666667,4,2,1,50,1,0
202310,258.620689655172,4,2,1,50,1,0
203344,256.410256410256,4,2,1,50,1,0
204882,263.157894736842,4,2,1,20,1,0
204882,-100,4,2,1,20,0,0
205408,-197.0614,4,2,1,70,0,0
206986,244.897959183673,4,2,1,70,1,0
206987,-200,4,2,1,70,0,0
207476,254.237288135593,4,2,1,70,1,0
207476,-201.882,4,2,1,70,0,0
209001,266.666666666667,4,2,1,70,1,0
209001,-200,4,2,1,70,0,0
209534,270.27027027027,4,2,1,70,1,0
210074,252.100840336134,4,2,1,70,1,0
210578,262.008733624454,4,2,1,70,1,0
211102,257.510729613734,4,2,1,70,1,0
211617,258.620689655172,4,2,1,70,1,0
213685,263.157894736842,4,2,1,70,1,0
213685,-200,4,2,1,70,0,0
214737,256.959314775161,4,2,1,70,1,0
214737,-200,4,2,1,70,0,0
215764,-133.333333333333,4,2,1,70,0,0
216792,259.74025974026,4,2,1,70,1,0
216792,-133.333333333333,4,2,1,70,0,0
217830,256.410256410256,4,2,1,70,1,0
217830,-100,4,2,1,70,0,0
219881,257.510729613734,4,2,1,70,1,0
219881,-133.333333333333,4,2,1,70,0,0
220911,259.74025974026,4,2,2,100,1,0
220911,-200,4,2,2,100,0,0
221949,258.620689655172,4,2,1,70,1,1
221949,-100,4,2,1,70,0,1
228155,260.869565217391,4,2,1,70,1,1
229198,-100,4,2,1,70,0,0
229720,252.100840336134,4,2,4,70,1,0
229720,-100,4,2,4,70,0,0
230098,-100,4,2,1,70,0,0
230224,260.869565217391,4,2,1,70,1,1
230224,-100,4,2,1,70,0,1
230484,-80,4,2,1,70,0,1
230810,-100,4,2,1,70,0,1
231137,-100,4,2,1,70,0,1
232310,258.620689655172,4,2,1,70,1,1
232827,255.31914893617,4,2,1,70,1,1
233209,-100.6424,4,2,1,70,0,1
233337,258.620689655172,4,2,1,70,1,1
238444,-100,4,2,1,70,0,0
238509,256.410256410256,4,2,1,70,1,1
238509,-100,4,2,1,70,0,1
239021,263.157894736842,4,2,1,70,1,1
240073,257.510729613734,4,2,1,70,1,1
241103,258.620689655172,4,2,1,70,1,1
243171,257.510729613734,4,2,1,70,1,1
246003,-100,4,2,4,70,0,1
246711,-100,4,2,1,70,0,0
246776,-100,4,2,1,70,0,1
247806,260.869565217391,4,2,1,70,1,1
249892,254.237288135593,4,2,1,70,1,1
250908,258.620689655172,4,2,1,70,1,1
251166,-100,4,2,4,70,0,1
251425,-100,4,2,1,70,0,1
251597,-100,4,2,4,70,0,1
251770,-100,4,2,1,70,0,1
251942,-100,4,2,4,70,0,1
252114,-100,4,2,1,70,0,1
252287,-100,4,2,4,70,0,1
252976,-100,4,1,0,50,0,1
253235,-100,4,1,1,50,0,0
253494,-100,4,2,0,70,0,0
254011,-133.333333333333,4,2,1,70,0,0
254528,-100,4,2,1,70,0,0
255045,256.410256410256,4,2,1,70,1,0
257122,258.620689655172,4,2,1,70,1,0
257380,-100,4,2,1,70,0,0
259190,-100,4,2,1,70,0,0
260225,254.237288135593,4,2,1,70,1,0
260733,264.31718061674,4,2,1,70,1,0
261790,257.510729613734,4,2,1,70,1,0
264622,256.410256410256,4,2,1,70,1,0
265391,259.74025974026,4,2,1,70,1,0
266689,266.666666666667,4,2,1,70,1,0
267222,250,4,2,1,70,1,0

[Colours]
Combo1 : 183,183,219
Combo2 : 151,203,255
Combo3 : 128,128,255
Combo4 : 83,169,255

[HitObjects]
128,38,591,5,0,0:0:0:0:
128,38,1108,2,0,P|80:77|102:174,1,170,4|0,0:0|0:0,0:0:0:0:
152,112,2142,2,0,P|204:132|204:68,1,127.5
266,177,2659,6,0,P|294:208|336:216,1,85
408,176,3167,2,0,L|441:1,1,170
368,184,4184,5,0,0:0:0:0:
423,326,4447,1,0,0:0:0:0:
508,324,4710,2,0,P|463:251|380:251,1,170
172,316,5472,1,0,0:0:0:0:
255,328,5726,2,0,L|340:340,1,85,0|0,0:0|0:0,0:0:0:0:
216,252,6243,6,0,B|170:277|170:324|170:324|127:321|109:267,1,170,0|0,0:0|0:0,0:0:0:0:
108,104,7277,2,0,P|143:135|133:196,1,85
68,168,7794,1,0,0:0:0:0:
416,24,8855,6,0,P|356:57|356:152,1,170
424,104,9898,1,0,0:0:0:0:
264,88,10410,5,0,0:0:0:0:
220,160,10667,1,0,0:0:0:0:
140,188,10923,1,0,0:0:0:0:
60,160,11180,1,0,0:0:0:0:
208,244,11436,2,0,L|390:266,1,170
484,364,12475,6,0,L|388:352,1,85
192,332,13001,1,0,0:0:0:0:
192,332,13518,1,0,0:0:0:0:
108,316,13776,1,0,0:0:0:0:
88,232,14035,1,0,0:0:0:0:
144,168,14291,1,0,0:0:0:0:
224,200,14547,2,0,P|188:244|116:248,1,127.5,0|0,0:0|0:0,0:0:0:0:
60,196,15042,6,0,L|44:104,1,85,8|8,0:0|0:0,0:0:0:0:
56,36,15301,2,0,L|72:128,1,85,8|8,0:0|0:0,0:0:0:0:
272,140,18679,5,8,0:0:0:0:
272,228,18809,1,8,0:0:0:0:
336,288,18939,1,8,0:0:0:0:
420,284,19070,1,8,0:0:0:0:
452,196,19200,6,0,L|468:104,1,85,8|8,0:0|0:0,0:0:0:0:
440,32,19461,2,0,L|424:124,1,85,8|8,0:0|0:0,0:0:0:0:
24,168,21642,5,2,0:0:0:0:
104,328,21767,1,8,0:0:0:0:
104,328,22027,1,8,0:0:0:0:
112,164,22158,1,2,0:0:0:0:
152,256,22288,5,4,0:0:0:0:
200,80,22419,1,0,0:0:0:0:
197,180,22551,1,8,0:0:0:0:
313,47,22682,1,0,0:0:0:0:
268,136,22814,1,0,0:0:0:0:
436,60,22944,1,8,0:0:0:0:
357,121,23074,1,8,0:0:0:0:
436,148,23205,1,2,0:0:0:0:
296,292,23335,6,0,P|312:230|378:202,1,127.5,4|0,0:0|0:0,0:0:0:0:
455,314,23593,2,0,P|408:308|368:256,1,85,8|0,0:0|0:0,0:0:0:0:
440,231,23852,1,2,0:0:0:0:
440,231,23981,1,0,0:0:0:0:
296,292,24110,2,0,B|208:276,1,85,8|2,0:0|0:0,0:0:0:0:
120,360,24369,1,2,0:0:0:0:
20,248,24498,1,0,0:0:0:0:
136,176,24628,2,0,B|120:259,1,85,8|2,0:0|0:0,0:0:0:0:
72,128,24886,6,0,P|120:96|204:124,1,127.5,2|0,0:0|0:0,0:0:0:0:
316,164,25145,2,0,P|272:184|220:172,1,85,8|0,0:0|0:0,0:0:0:0:
344,88,25403,2,0,P|384:120|388:208,1,127.5,2|0,0:0|0:0,0:0:0:0:
264,104,25662,2,0,P|264:60|292:24,1,85,8|0,0:0|0:0,0:0:0:0:
344,88,25921,5,2,0:0:0:0:
316,164,26050,1,0,0:0:0:0:
264,104,26179,1,8,0:0:0:0:
344,88,26309,1,2,0:0:0:0:
392,272,26438,6,0,L|280:284,1,85,2|0,0:0|0:0,0:0:0:0:
228,300,26697,2,0,P|232:252|260:216,1,85,8|0,0:0|0:0,0:0:0:0:
472,256,26955,2,0,P|468:304|440:340,1,85,2|0,0:0|0:0,0:0:0:0:
104,352,27214,1,8,0:0:0:0:
90,225,27343,1,0,0:0:0:0:
104,352,27472,6,0,B|90:224|90:224|128:268,1,170,4|8,0:0|0:0,0:0:0:0:
192,304,27860,1,0,0:0:0:0:
90,225,27990,2,0,P|48:172|56:108,1,127.5,2|0,0:0|0:0,0:0:0:0:
127,149,28248,2,0,L|212:156,1,85,8|0,0:0|0:0,0:0:0:0:
336,4,28507,6,0,P|376:56|348:168,1,170,2|8,0:0|0:0,0:0:0:0:
212,156,28895,1,0,0:0:0:0:
200,40,29024,1,2,0:0:0:0:
292,84,29153,1,0,0:0:0:0:
232,256,29283,1,8,0:0:0:0:
112,116,29412,1,0,0:0:0:0:
232,256,29541,5,6,0:0:0:0:
256,192,29606,12,0,31352,0:0:0:0:
108,40,31610,6,0,P|144:92|96:180,1,170,4|8,0:0|0:0,0:0:0:0:
68,108,31998,1,0,0:0:0:0:
228,92,32128,2,0,L|324:104,1,85,2|2,0:0|0:0,0:0:0:0:
416,232,32386,1,8,0:0:0:0:
360,172,32516,1,0,0:0:0:0:
339,266,32645,2,0,P|381:312|444:316,1,127.5,2|0,0:0|0:0,0:0:0:0:
416,232,32903,2,0,P|440:192|436:144,1,85,8|2,0:0|0:0,0:0:0:0:
280,208,33162,2,0,P|256:248|260:296,1,85,0|2,0:0|0:0,0:0:0:0:
159,333,33421,6,0,B|271:321|271:321|247:285,1,127.5,8|0,0:0|0:0,0:0:0:0:
140,256,33679,2,0,P|92:288|104:392,1,170,2|8,0:0|0:0,0:0:0:0:
176,176,34067,1,0,0:0:0:0:
16,184,34197,2,0,L|4:272,1,85,2|2,0:0|0:0,0:0:0:0:
96,184,34455,2,0,P|80:132|44:108,1,85,8|0,0:0|0:0,0:0:0:0:
4,60,34714,6,0,B|0:100|0:100|56:44|132:84,1,170,2|8,0:0|0:0,0:0:0:0:
192,104,35102,2,0,P|248:128|328:104,1,127.5,2|0,0:0|0:0,0:0:0:0:
288,172,35360,2,0,P|244:160|188:165,1,85,2|8,0:0|0:0,0:0:0:0:
256,40,35619,1,0,0:0:0:0:
340,44,35748,6,0,P|380:76|380:152,1,127.5,2|0,0:0|0:0,0:0:0:0:
356,224,36007,2,0,L|448:248,1,85,8|0,0:0|0:0,0:0:0:0:
312,296,36266,2,0,P|276:260|272:224,1,85,2|0,0:0|0:0,0:0:0:0:
356,224,36524,1,8,0:0:0:0:
372,356,36653,1,0,0:0:0:0:
212,352,36783,6,0,L|96:348,1,85,2|2,0:0|0:0,0:0:0:0:
12,208,37041,2,0,P|80:228|96:320,1,170,8|2,0:0|0:0,0:0:0:0:
28,284,37429,1,0,0:0:0:0:
84,140,37559,2,0,P|128:164|152:208,1,85,8|0,0:0|0:0,0:0:0:0:
192,164,37817,2,0,P|144:152|104:80,1,127.5,2|0,0:0|0:0,0:0:0:0:
190,84,38076,2,0,L|360:116,1,170,8|2,0:0|0:0,0:0:0:0:
456,244,38464,1,0,0:0:0:0:
356,192,38593,2,0,P|402:182|426:149,1,85,8|2,0:0|0:0,0:0:0:0:
357,115,38852,5,0,0:0:0:0:
492,80,38981,1,2,0:0:0:0:
480,320,39110,2,0,P|428:320|380:224,2,170,8|2|8,0:0|0:0|0:0,0:0:0:0:
456,244,39757,1,0,0:0:0:0:
277,255,39886,6,0,B|296:268|296:268|192:284,1,127.5,2|0,0:0|0:0,0:0:0:0:
152,212,40145,2,0,P|112:252|108:288,1,85,8|0,0:0|0:0,0:0:0:0:
176,136,40403,2,0,P|119:136|91:158,1,85,2|0,0:0|0:0,0:0:0:0:
36,208,40662,1,8,0:0:0:0:
232,192,40791,1,0,0:0:0:0:
264,112,40921,2,0,P|208:52|112:68,1,170,2|8,0:0|0:0,0:0:0:0:
264,112,41309,2,0,B|308:120|308:120|376:96,1,85,2|0,0:0|0:0,0:0:0:0:
452,44,41567,2,0,L|456:128,1,85,2|8,0:0|0:0,0:0:0:0:
403,274,41826,1,0,0:0:0:0:
460,212,41955,6,0,P|485:265|454:336,1,127.5,2|0,0:0|0:0,0:0:0:0:
340,332,42214,2,0,P|318:273|344:216,1,127.5,8|0,0:0|0:0,0:0:0:0:
403,274,42472,2,0,P|328:292|284:264,1,127.5,2|0,0:0|0:0,0:0:0:0:
288,160,42731,2,0,P|363:142|407:170,1,127.5,8|0,0:0|0:0,0:0:0:0:
226,331,42990,6,0,P|202:287|210:239,1,85,2|0,0:0|0:0,0:0:0:0:
288,268,43248,1,8,0:0:0:0:
124,252,43378,2,0,P|132:208|196:184,1,85,2|0,0:0|0:0,0:0:0:0:
288,268,43636,2,0,L|180:248,1,85,2|8,0:0|0:0,0:0:0:0:
40,168,43895,1,0,0:0:0:0:
79,93,44024,6,0,P|119:140|114:200,1,85,2|0,0:0|0:0,0:0:0:0:
143,32,44283,2,0,P|152:91|118:141,1,85,8|0,0:0|0:0,0:0:0:0:
227,5,44541,2,0,P|207:60|152:86,1,85,2|0,0:0|0:0,0:0:0:0:
314,27,44800,2,0,P|267:65|207:62,1,85,8|2,0:0|0:0,0:0:0:0:
379,89,45059,2,0,P|320:101|270:67,1,85,0|2,0:0|0:0,0:0:0:0:
406,176,45317,2,0,P|350:155|324:101,1,85,8|0,0:0|0:0,0:0:0:0:
464,108,45576,5,2,0:0:0:0:
392,260,45705,1,0,0:0:0:0:
406,176,45834,2,0,P|450:204|466:252,1,85,8|0,0:0|0:0,0:0:0:0:
388,348,46093,2,0,B|376:244|376:244|400:268,1,127.5,2|0,0:0|0:0,0:0:0:0:
450,317,46350,6,0,P|406:289|390:241,1,85,8|0,0:0|0:0,0:0:0:0:
232,176,46608,2,0,P|276:204|292:252,1,85,2|2,0:0|0:0,0:0:0:0:
208,256,46865,1,8,0:0:0:0:
124,280,46994,1,0,0:0:0:0:
44,308,47123,1,8,0:0:0:0:
44,308,47380,5,2,0:0:0:0:
60,224,47509,1,8,0:0:0:0:
124,280,47638,1,10,0:0:0:0:
120,160,47766,1,10,0:0:0:0:
208,256,47895,1,8,0:0:0:0:
184,104,48024,1,8,0:0:0:0:
308,356,48153,6,0,P|244:368|180:320,1,127.5,4|0,0:0|0:0,0:0:0:0:
208,256,48410,2,0,L|228:164,1,85,8|0,0:0|0:0,0:0:0:0:
264,100,48668,2,0,P|304:144|296:216,1,127.5,2|0,0:0|0:0,0:0:0:0:
384,264,48925,2,0,B|284:248|284:248|320:232,1,127.5,8|0,0:0|0:0,0:0:0:0:
420,192,49183,2,0,P|456:228|464:276,1,85,2|0,0:0|0:0,0:0:0:0:
428,336,49440,5,8,0:0:0:0:
428,336,49569,1,0,0:0:0:0:
404,112,49698,2,0,P|446:113|481:135,1,85,2|2,0:0|0:0,0:0:0:0:
420,192,49955,1,8,0:0:0:0:
264,100,50084,1,0,0:0:0:0:
312,168,50213,6,0,P|232:176|184:100,1,170,2|8,0:0|0:0,0:0:0:0:
264,100,50599,1,0,0:0:0:0:
236,268,50728,2,0,L|220:364,1,85,2|0,0:0|0:0,0:0:0:0:
308,328,50985,1,8,0:0:0:0:
156,296,51114,1,0,0:0:0:0:
324,320,51243,6,0,L|420:336,1,85,2|0,0:0|0:0,0:0:0:0:
140,304,51518,2,0,L|44:288,1,85,8|0,0:0|0:0,0:0:0:0:
348,308,51793,2,0,L|444:324,1,85,2|0,0:0|0:0,0:0:0:0:
116,316,52056,2,0,L|20:300,1,85,8|0,0:0|0:0,0:0:0:0:
96,44,52319,2,0,P|128:108|72:184,1,170,2|8,0:0|0:0,0:0:0:0:
40,108,52706,1,0,0:0:0:0:
213,106,52836,6,0,P|260:145|322:147,1,85,2|0,0:0|0:0,0:0:0:0:
182,197,53094,2,0,P|242:189|286:147,1,85,8|0,0:0|0:0,0:0:0:0:
206,298,53353,2,0,P|244:250|246:189,1,85,2|0,0:0|0:0,0:0:0:0:
296,353,53608,2,0,P|289:292|247:248,1,85,8|2,0:0|0:0,0:0:0:0:
397,330,53863,2,0,P|349:290|288:289,1,85,0|2,0:0|0:0,0:0:0:0:
452,244,54118,2,0,P|391:248|347:291,1,85,8|0,0:0|0:0,0:0:0:0:
452,244,54374,6,0,B|472:206|472:206|470:159|470:159|486:128,1,85,2|0,0:0|0:0,0:0:0:0:
405,106,54629,2,0,B|395:126|395:126|397:179|397:179|373:221,1,85,8|0,0:0|0:0,0:0:0:0:
299,202,54884,2,0,B|323:159|323:159|321:107|321:107|330:86,1,85,2|0,0:0|0:0,0:0:0:0:
257,71,55140,2,0,B|247:91|247:91|249:144|249:144|225:186,1,85,8|0,0:0|0:0,0:0:0:0:
151,167,55395,2,0,B|175:124|175:124|173:72|173:72|183:51,1,85,2|0,0:0|0:0,0:0:0:0:
111,31,55671,2,0,B|101:51|101:51|103:104|103:104|79:146,1,85,8|0,0:0|0:0,0:0:0:0:
188,308,55928,2,0,L|103:315,1,85,0|2,0:0|0:0,0:0:0:0:
20,344,56186,5,8,0:0:0:0:
104,232,56314,1,0,0:0:0:0:
208,324,56421,2,0,L|360:312,1,127.5,4|0,0:0|0:0,0:0:0:0:
408,340,56678,2,0,P|408:288|344:240,1,127.5,8|0,0:0|0:0,0:0:0:0:
256,248,56936,2,0,L|348:240,1,85,2|0,0:0|0:0,0:0:0:0:
472,160,57193,1,8,0:0:0:0:
376,240,57322,1,0,0:0:0:0:
468,108,57451,6,0,P|432:132|416:176,1,85,2|0,0:0|0:0,0:0:0:0:
376,240,57731,2,0,P|340:196|344:144,1,85,8|0,0:0|0:0,0:0:0:0:
360,88,57989,1,2,0:0:0:0:
360,88,58118,1,2,0:0:0:0:
276,104,58248,2,0,B|173:117|173:117|192:88,1,127.5,8|0,0:0|0:0,0:0:0:0:
144,40,58506,6,0,P|96:96|128:184,1,170,2|8,0:0|0:0,0:0:0:0:
152,304,58894,1,0,0:0:0:0:
76,252,59024,2,0,B|60:288|60:288|68:344,1,85,2|0,0:0|0:0,0:0:0:0:
264,204,59282,2,0,L|172:216,1,85,8|0,0:0|0:0,0:0:0:0:
152,304,59541,2,0,L|244:292,1,85,2|0,0:0|0:0,0:0:0:0:
180,216,59797,1,8,0:0:0:0:
108,172,59925,1,0,0:0:0:0:
76,252,60053,1,2,0:0:0:0:
152,304,60182,1,0,0:0:0:0:
312,324,60310,6,0,L|180:308,1,127.5,8|0,0:0|0:0,0:0:0:0:
152,304,60566,2,0,L|260:296,1,85,2|2,0:0|0:0,0:0:0:0:
416,284,60819,1,8,0:0:0:0:
276,296,60945,1,0,0:0:0:0:
436,248,61072,2,0,L|452:160,1,85,8|0,0:0|0:0,0:0:0:0:
256,264,61325,2,0,L|240:176,1,85,2|8,0:0|0:0,0:0:0:0:
456,216,61578,2,0,L|472:128,1,85,8|8,0:0|0:0,0:0:0:0:
232,236,61836,2,0,L|216:148,1,85,2|8,0:0|0:0,0:0:0:0:
413,87,62095,6,0,P|308:140|316:8,1,297.5,4|0,0:0|0:0,0:0:0:0:
341,77,62643,6,0,L|332:184,1,85,8|8,0:0|0:0,0:0:0:0:
124,312,62901,2,0,L|133:205,1,85,8|8,0:0|0:0,0:0:0:0:
141,107,63936,6,0,L|248:116,1,85,8|8,0:0|0:0,0:0:0:0:
376,324,64194,2,0,L|269:315,1,85,8|8,0:0|0:0,0:0:0:0:
248,116,64711,6,0,L|239:223,1,85,8|8,0:0|0:0,0:0:0:0:
256,312,64970,2,0,L|265:205,1,85,8|8,0:0|0:0,0:0:0:0:
276,40,65164,5,2,0:0:0:0:
260,36,65229,2,0,P|208:44|180:80,1,85,8|8,0:0|0:0,0:0:0:0:
236,344,65423,5,8,0:0:0:0:
252,348,65487,2,0,P|304:340|332:304,1,85,8|8,0:0|0:0,0:0:0:0:
224,40,65746,2,0,P|180:69|170:113,1,85,8|8,0:0|0:0,0:0:0:0:
288,344,65998,2,0,P|331:314|341:270,1,85,2|2,0:0|0:0,0:0:0:0:
256,144,66250,5,10,0:0:0:0:
188,192,66376,1,10,0:0:0:0:
256,244,66502,1,2,0:0:0:0:
324,192,66628,1,0,0:0:0:0:
112,168,66754,6,0,B|104:218|132:246|132:246|104:274|112:326,1,170,4|0,0:0|0:0,0:0:0:0:
400,216,67575,2,0,B|407:165|379:137|379:137|407:109|399:57,1,170
324,84,68354,2,0,P|304:112|324:196,1,127.5,0|0,0:0|0:0,0:0:0:0:
324,300,68873,2,0,B|276:288|232:260|256:220|280:260|236:288|188:300,1,170
112,216,69652,2,0,B|105:165|133:137|133:137|105:109|113:57,1,170,0|0,0:0|0:0,0:0:0:0:
188,84,70421,2,0,P|208:112|188:196,1,127.5,0|0,0:0|0:0,0:0:0:0:
156,285,70934,6,0,P|256:351|356:284,1,255,4|0,0:0|0:0,0:0:0:0:
288,232,71965,2,0,P|256:277|224:232,1,127.5,0|0,0:0|0:0,0:0:0:0:
224,152,72484,2,0,P|255:107|288:150,1,127.5,0|0,0:0|0:0,0:0:0:0:
224,234,73004,6,0,L|164:250,1,42.5,2|0,0:0|0:0,0:0:0:0:
332,136,73264,2,0,L|392:120,1,42.5,0|0,0:0|0:0,0:0:0:0:
168,216,73523,2,0,L|106:205,1,42.5,0|0,0:0|0:0,0:0:0:0:
302,167,73778,2,0,L|363:178,1,42.5,0|0,0:0|0:0,0:0:0:0:
132,132,74033,6,0,L|81:96,1,42.5,8|0,0:0|0:0,0:0:0:0:
380,252,74291,2,0,L|430:287,1,42.5,8|0,0:0|0:0,0:0:0:0:
160,340,74549,5,8,0:0:0:0:
80,336,74678,1,8,0:0:0:0:
36,268,74807,1,8,0:0:0:0:
76,200,74936,1,8,0:0:0:0:
132,132,75065,6,0,P|164:176|112:276,1,170,4|8,0:0|0:0,0:0:0:0:
76,200,75452,1,0,0:0:0:0:
212,104,75582,2,0,L|324:96,1,85,2|0,0:0|0:0,0:0:0:0:
464,80,75840,1,8,0:0:0:0:
400,24,75970,6,0,P|380:68|408:148,1,127.5,2|0,0:0|0:0,0:0:0:0:
440,160,76228,2,0,P|400:180|380:216,1,85,2|8,0:0|0:0,0:0:0:0:
460,240,76487,1,0,0:0:0:0:
304,232,76616,2,0,P|324:272|360:292,1,85,2|0,0:0|0:0,0:0:0:0:
460,240,76875,1,8,0:0:0:0:
312,152,77004,1,0,0:0:0:0:
312,320,77133,6,0,L|396:312,1,85,2|0,0:0|0:0,0:0:0:0:
236,176,77392,2,0,P|216:216|236:292,1,127.5,8|0,0:0|0:0,0:0:0:0:
164,336,77651,2,0,B|280:324|280:324|224:308,1,170,2|8,0:0|0:0,0:0:0:0:
224,92,78039,2,0,P|172:120|144:184,1,127.5,2|0,0:0|0:0,0:0:0:0:
160,228,78297,2,0,L|132:132,1,85,2|8,0:0|0:0,0:0:0:0:
108,64,78556,1,0,0:0:0:0:
40,292,78685,2,0,P|108:292|148:240,1,127.5,2|0,0:0|0:0,0:0:0:0:
160,228,78944,2,0,L|132:132,1,85,8|0,0:0|0:0,0:0:0:0:
108,64,79202,5,2,0:0:0:0:
64,184,79331,1,0,0:0:0:0:
228,140,79460,2,0,L|324:132,1,85,8|0,0:0|0:0,0:0:0:0:
396,124,79718,1,2,0:0:0:0:
344,56,79847,1,0,0:0:0:0:
360,204,79976,2,0,P|348:248|372:300,1,85,8|2,0:0|0:0,0:0:0:0:
472,164,80234,6,0,P|484:120|460:68,1,85,0|2,0:0|0:0,0:0:0:0:
344,56,80492,2,0,L|259:63,1,85,8|0,0:0|0:0,0:0:0:0:
424,244,80751,2,0,L|508:236,1,85,2|0,0:0|0:0,0:0:0:0:
308,336,81009,2,0,B|412:328|412:328|384:312,1,127.5,8|0,0:0|0:0,0:0:0:0:
260,268,81267,2,0,P|228:300|224:344,1,85,2|0,0:0|0:0,0:0:0:0:
308,336,81525,5,8,0:0:0:0:
344,260,81654,1,2,0:0:0:0:
292,192,81783,1,0,0:0:0:0:
208,200,81912,1,2,0:0:0:0:
124,220,82041,1,8,0:0:0:0:
64,160,82171,1,0,0:0:0:0:
243,95,82300,6,0,L|283:15,1,85,2|2,0:0|0:0,0:0:0:0:
328,96,82558,2,0,L|412:67,1,85,8|8,0:0|0:0,0:0:0:0:
390,158,82816,2,0,L|470:197,1,85,2|10,0:0|0:0,0:0:0:0:
381,245,83074,2,0,L|409:329,1,85,8|2,0:0|0:0,0:0:0:0:
32,348,83332,6,0,P|28:276|72:228,1,127.5,4|0,0:0|0:0,0:0:0:0:
140,208,83590,2,0,L|232:216,1,85,8|0,0:0|0:0,0:0:0:0:
308,224,83849,1,2,0:0:0:0:
320,316,83978,2,0,P|272:312|240:280,1,85,0|8,0:0|0:0,0:0:0:0:
332,144,84236,2,0,P|380:180|364:288,1,170,2|2,0:0|0:0,0:0:0:0:
260,112,84623,6,0,P|292:72|336:68,1,85,8|0,0:0|0:0,0:0:0:0:
404,88,84881,1,2,0:0:0:0:
404,88,85010,1,2,0:0:0:0:
472,136,85140,2,0,L|484:264,1,127.5,8|0,0:0|0:0,0:0:0:0:
392,336,85398,2,0,P|420:276|520:284,1,170,2|8,0:0|0:0,0:0:0:0:
468,336,85785,1,0,0:0:0:0:
312,340,85914,6,0,B|184:340|184:340|220:320,1,170,2|8,0:0|0:0,0:0:0:0:
208,160,86301,2,0,P|252:200|232:308,1,170,2|2,0:0|0:0,0:0:0:0:
92,246,86689,2,0,L|177:242,1,85,8|0,0:0|0:0,0:0:0:0:
419,137,86947,2,0,L|335:142,1,85,2|0,0:0|0:0,0:0:0:0:
196,76,87205,2,0,P|144:100|120:168,1,127.5,8|0,0:0|0:0,0:0:0:0:
316,308,87463,6,0,P|368:284|384:240,1,85,4|0,0:0|0:0,0:0:0:0:
304,228,87726,1,8,0:0:0:0:
208,312,87857,1,0,0:0:0:0:
218,228,87989,1,2,0:0:0:0:
96,264,88120,1,8,0:0:0:0:
141,190,88252,1,8,0:0:0:0:
16,172,88384,1,0,0:0:0:0:
168,28,88515,6,0,P|216:72|192:168,1,170,10|8,0:0|0:0,0:0:0:0:
148,104,88910,1,0,0:0:0:0:
348,120,89041,2,0,L|436:128,1,85,2|0,0:0|0:0,0:0:0:0:
164,264,89305,2,0,L|76:256,1,85,8|0,0:0|0:0,0:0:0:0:
256,212,89568,5,10,0:0:0:0:
256,244,89693,5,8,0:0:0:0:
256,280,89818,5,8,0:0:0:0:
256,312,89943,5,8,0:0:0:0:
152,44,91620,6,0,P|110:42|74:64,1,85,2|0,0:0|0:0,0:0:0:0:
50,145,91878,1,0,0:0:0:0:
50,145,92007,2,0,P|69:181|106:201,1,85,0|2,0:0|0:0,0:0:0:0:
193,182,92266,1,0,0:0:0:0:
193,182,92395,2,0,P|211:144|206:103,1,85,0|0,0:0|0:0,0:0:0:0:
152,44,92654,6,0,P|110:42|74:64,1,85,2|0,0:0|0:0,0:0:0:0:
50,145,92913,2,0,P|69:181|106:201,1,85,0|0,0:0|0:0,0:0:0:0:
193,182,93171,2,0,P|211:144|206:103,1,85,2|0,0:0|0:0,0:0:0:0:
132,128,93430,1,0,0:0:0:0:
328,92,93688,6,0,P|369:90|405:112,1,85,2|0,0:0|0:0,0:0:0:0:
444,236,93952,1,0,0:0:0:0:
444,236,94084,2,0,P|424:272|387:292,1,85,0|2,0:0|0:0,0:0:0:0:
264,256,94343,1,0,0:0:0:0:
264,256,94471,2,0,P|245:218|250:177,1,85,0|0,0:0|0:0,0:0:0:0:
328,92,94726,6,0,P|369:90|405:112,1,85,2|0,0:0|0:0,0:0:0:0:
444,236,94984,2,0,P|424:272|387:292,1,85,0|0,0:0|0:0,0:0:0:0:
264,256,95243,2,0,P|245:218|250:177,1,85,2|0,0:0|0:0,0:0:0:0:
348,192,95501,1,0,0:0:0:0:
264,256,95760,6,0,P|222:257|186:235,1,85,2|0,0:0|0:0,0:0:0:0:
128,76,96019,1,0,0:0:0:0:
128,76,96148,2,0,P|147:39|184:19,1,85,0|2,0:0|0:0,0:0:0:0:
352,60,96407,1,0,0:0:0:0:
352,60,96536,2,0,P|370:97|365:138,1,85,0|0,0:0|0:0,0:0:0:0:
264,256,96794,6,0,P|222:257|186:235,1,85,2|0,0:0|0:0,0:0:0:0:
128,76,97046,2,0,P|147:39|184:19,1,85,0|0,0:0|0:0,0:0:0:0:
352,60,97298,2,0,P|370:97|365:138,1,85,2|0,0:0|0:0,0:0:0:0:
248,132,97556,1,0,0:0:0:0:
352,60,97815,6,0,P|393:58|429:80,1,85,2|0,0:0|0:0,0:0:0:0:
512,276,98073,1,0,0:0:0:0:
512,276,98203,2,0,P|492:312|455:332,1,85,0|2,0:0|0:0,0:0:0:0:
244,292,98459,1,0,0:0:0:0:
244,292,98586,2,0,P|225:254|230:213,1,85,0|0,0:0|0:0,0:0:0:0:
352,60,98840,6,0,P|393:58|429:80,1,85
512,276,99102,2,0,P|492:312|455:332,1,85,0|0,0:0|0:0,0:0:0:0:
244,292,99365,2,0,P|225:254|230:213,1,85,8|8,0:0|0:0,0:0:0:0:
272,140,99622,1,0,0:0:0:0:
316,340,99751,1,0,0:0:0:0:
132,248,99880,6,0,L|108:132,1,95.6250036478044,4|0,0:0|0:0,0:0:0:0:
120,112,100138,2,0,L|108:192,1,63.7500024318696,0|0,0:0|0:0,0:0:0:0:
72,316,100397,1,8,0:0:0:0:
72,316,100526,1,0,0:0:0:0:
200,180,100655,1,0,0:0:0:0:
120,32,100785,2,0,P|64:52|44:108,1,95.6250036478044,8|0,0:0|0:0,0:0:0:0:
56,160,101043,2,0,P|104:194|161:178,1,95.6250036478044,0|0,0:0|0:0,0:0:0:0:
156,184,101302,1,0,0:0:0:0:
268,136,101431,2,0,P|219:101|162:117,1,95.6250036478044,8|0,0:0|0:0,0:0:0:0:
276,216,101696,6,0,P|324:250|381:234,1,95.6250036478044,0|0,0:0|0:0,0:0:0:0:
408,184,101961,2,0,L|432:68,1,95.6250036478044,2|0,0:0|0:0,0:0:0:0:
420,60,102227,2,0,L|432:132,1,63.7500024318696,0|0,0:0|0:0,0:0:0:0:
468,268,102492,1,8,0:0:0:0:
400,348,102618,1,0,0:0:0:0:
452,272,102744,1,8,0:0:0:0:
384,352,102873,1,2,0:0:0:0:
436,276,103002,5,0,0:0:0:0:
352,276,103131,1,0,0:0:0:0:
276,236,103261,1,2,0:0:0:0:
256,156,103390,1,0,0:0:0:0:
256,156,103645,5,0,0:0:0:0:
236,236,103772,1,0,0:0:0:0:
160,276,103898,1,0,0:0:0:0:
76,276,104025,6,0,P|120:284|156:340,1,95.6250036478044,2|0,0:0|0:0,0:0:0:0:
76,352,104283,2,0,P|40:348|20:328,1,63.7500024318696,0|0,0:0|0:0,0:0:0:0:
68,160,104542,2,0,L|76:284,1,95.6250036478044,8|0,0:0|0:0,0:0:0:0:
76,276,104800,2,0,L|92:204,1,63.7500024318696
140,44,105050,5,0,0:0:0:0:
84,128,105171,1,0,0:0:0:0:
140,64,105293,1,2,0:0:0:0:
84,148,105415,1,0,0:0:0:0:
140,88,105537,2,0,L|216:40,1,63.7500024318696,8|0,0:0|0:0,0:0:0:0:
320,24,105815,6,0,P|340:56|336:124,1,95.6250036478044
264,136,106093,2,0,P|232:136|188:164,1,63.7500024318696,2|0,0:0|0:0,0:0:0:0:
144,204,106352,1,0,0:0:0:0:
228,352,106481,1,2,0:0:0:0:
228,352,106611,2,0,P|275:354|316:331,1,95.6250036478044,8|0,0:0|0:0,0:0:0:0:
364,268,106869,2,0,P|372:236|364:196,1,63.7500024318696,0|0,0:0|0:0,0:0:0:0:
288,232,107128,5,2,0:0:0:0:
392,352,107257,1,0,0:0:0:0:
456,196,107387,2,0,L|472:120,1,63.7500024318696,8|0,0:0|0:0,0:0:0:0:
452,216,107645,2,0,L|498:153,1,63.7500024318696,8|0,0:0|0:0,0:0:0:0:
448,236,107904,2,0,L|516:199,1,63.7500024318696,4|0,0:0|0:0,0:0:0:0:
444,256,108162,6,0,L|472:104,1,127.500004863739,0|0,0:0|0:0,0:0:0:0:
448,68,108680,6,0,L|431:155,1,63.7500024318696,8|8,0:0|0:0,0:0:0:0:
260,172,108934,1,0,0:0:0:0:
156,83,109061,1,2,0:0:0:0:
141,81,109124,1,2,0:0:0:0:
128,80,109188,6,0,L|244:96,1,95.6250036478044,8|0,0:0|0:0,0:0:0:0:
352,144,109450,6,0,L|184:124,1,159.375,2|0,0:0|0:0,0:0:0:0:
160,120,109712,6,0,B|128:76|128:76|112:252,1,223.125002127886,8|0,0:0|0:0,0:0:0:0:
188,288,109974,6,0,B|102:282|102:282|145:262,1,127.5,0|0,0:0|0:0,0:0:0:0:
204,208,110236,6,0,P|248:232|256:320,1,127.5,2|0,0:0|0:0,0:0:0:0:
252,344,110496,2,0,L|280:248,1,85,0|2,0:0|0:0,0:0:0:0:
352,184,110757,6,0,B|360:240|360:240|340:316,1,127.5,8|0,0:0|0:0,0:0:0:0:
416,324,111018,2,0,B|472:332|472:332|448:312,1,85,0|8,0:0|0:0,0:0:0:0:
436,236,111279,6,0,P|452:212|452:168,1,63.7500024318696
280,44,111531,2,0,P|260:68|264:112,1,63.7500024318696,2|0,0:0|0:0,0:0:0:0:
344,92,111783,2,0,L|444:84,2,85,8|2|0,0:0|0:0|0:0,0:0:0:0:
288,192,112172,5,0,0:0:0:0:
288,192,112302,2,0,L|156:204,1,127.5,2|0,0:0|0:0,0:0:0:0:
128,136,112564,2,0,P|88:176|92:220,1,85,0|2,0:0|0:0,0:0:0:0:
120,336,112826,2,0,B|148:324|161:295|161:295|249:283,1,127.500004863739,8|0,0:0|0:0,0:0:0:0:
240,364,113219,2,0,P|292:340|304:264,1,127.500004863739,8|0,0:0|0:0,0:0:0:0:
288,192,113597,2,0,L|264:108,1,63.7500024318696,2|0,0:0|0:0,0:0:0:0:
168,36,113845,2,0,L|192:120,1,63.7500024318696,8|2,0:0|0:0,0:0:0:0:
144,176,114108,6,0,B|224:200|270:130|270:130|352:176,1,223.125008511544
408,208,114627,2,0,L|469:241,1,63.7500024318696,0|2,0:0|0:0,0:0:0:0:
396,296,114883,1,8,0:0:0:0:
396,296,115140,5,8,0:0:0:0:
308,312,115268,1,8,0:0:0:0:
228,272,115396,1,2,0:0:0:0:
192,192,115524,1,2,0:0:0:0:
300,228,115653,5,8,0:0:0:0:
232,288,115781,1,8,0:0:0:0:
144,288,115909,1,8,0:0:0:0:
72,236,116042,1,8,0:0:0:0:
196,360,116176,1,8,0:0:0:0:
72,236,116310,1,2,0:0:0:0:
132,8,116444,6,0,P|172:56|128:160,1,170,4|8,0:0|0:0,0:0:0:0:
93,83,116837,1,0,0:0:0:0:
256,72,116968,2,0,L|368:88,1,85,2|0,0:0|0:0,0:0:0:0:
476,100,117230,1,8,0:0:0:0:
476,100,117361,1,0,0:0:0:0:
317,308,117492,6,0,P|289:264|319:182,1,127.5,0|0,0:0|0:0,0:0:0:0:
381,134,117738,2,0,P|432:130|489:198,1,127.5,8|0,0:0|0:0,0:0:0:0:
500,276,117985,2,0,P|476:322|389:336,1,127.5,2|0,0:0|0:0,0:0:0:0:
320,348,118255,2,0,L|216:356,1,85,8|0,0:0|0:0,0:0:0:0:
0,300,118526,2,0,L|104:292,1,85,2|0,0:0|0:0,0:0:0:0:
164,288,118784,1,8,0:0:0:0:
164,288,118913,1,0,0:0:0:0:
272,276,119043,6,0,B|161:288|161:288|180:272,1,127.5,2|0,0:0|0:0,0:0:0:0:
156,204,119301,2,0,P|100:236|88:280,1,85,8|0,0:0|0:0,0:0:0:0:
240,200,119560,2,0,P|268:160|272:112,1,85,2|0,0:0|0:0,0:0:0:0:
192,132,119819,2,0,P|200:83|183:38,1,85,8|0,0:0|0:0,0:0:0:0:
120,96,120077,2,0,P|107:48|73:14,1,85,2|0,0:0|0:0,0:0:0:0:
8,200,120336,2,0,P|72:204|36:156,1,127.5,8|0,0:0|0:0,0:0:0:0:
203,82,120594,2,0,L|120:96,1,85
56,36,120851,1,8,0:0:0:0:
288,68,120979,1,0,0:0:0:0:
386,142,121107,6,0,P|340:145|280:99,1,85,2|0,0:0|0:0,0:0:0:0:
379,238,121364,2,0,P|344:207|334:132,1,85,8|0,0:0|0:0,0:0:0:0:
309,301,121620,2,0,P|305:255|351:195,1,85,2|0,0:0|0:0,0:0:0:0:
213,294,121877,2,0,P|242:259|317:249,1,85,8|0,0:0|0:0,0:0:0:0:
153,223,122133,2,0,P|198:220|259:266,1,85,2|0,0:0|0:0,0:0:0:0:
163,131,122389,2,0,P|198:161|208:236,1,85,8|0,0:0|0:0,0:0:0:0:
155,336,122646,6,0,B|144:300|144:300|165:253|147:217,1,85,2|0,0:0|0:0,0:0:0:0:
79,148,122902,2,0,B|90:184|90:184|68:231|86:267,1,85,8|0,0:0|0:0,0:0:0:0:
309,301,123159,2,0,B|298:264|298:264|319:218|301:182,1,85,2|8,0:0|0:0,0:0:0:0:
233,113,123415,2,0,B|243:149|243:149|222:195|240:231,1,85,8|2,0:0|0:0,0:0:0:0:
467,312,123671,2,0,B|456:275|456:275|477:229|459:193,1,85,8|0,0:0|0:0,0:0:0:0:
391,124,123928,2,0,B|401:160|401:160|380:206|398:242,1,85,2|8,0:0|0:0,0:0:0:0:
384,300,124184,2,0,P|420:280|436:233,1,85,2|8,0:0|0:0,0:0:0:0:
368,52,124442,2,0,P|332:72|315:118,1,85,8|8,0:0|0:0,0:0:0:0:
311,196,124701,5,4,0:0:0:0:
252,256,124831,1,0,0:0:0:0:
168,256,124961,1,8,0:0:0:0:
108,196,125092,1,0,0:0:0:0:
120,112,125222,2,0,P|168:136|188:208,1,127.5,2|0,0:0|0:0,0:0:0:0:
168,344,125483,2,0,P|116:324|96:292,1,85,8|2,0:0|0:0,0:0:0:0:
108,196,125744,6,0,L|116:332,1,127.5,2|0,0:0|0:0,0:0:0:0:
28,216,126003,2,0,P|28:172|52:136,1,85,8|0,0:0|0:0,0:0:0:0:
120,112,126263,2,0,B|188:120|188:120|260:88,1,127.5,2|0,0:0|0:0,0:0:0:0:
336,28,126523,2,0,B|320:68|320:68|336:136,1,85,8|0,0:0|0:0,0:0:0:0:
460,300,126782,2,0,P|496:252|476:176,1,127.5,2|0,0:0|0:0,0:0:0:0:
408,156,127047,2,0,P|376:192|319:196,1,85,8|0,0:0|0:0,0:0:0:0:
248,172,127312,1,2,0:0:0:0:
248,172,127445,1,0,0:0:0:0:
408,80,127578,2,0,P|453:91|487:136,1,85,8|2,0:0|0:0,0:0:0:0:
292,310,127843,6,0,P|264:266|294:184,1,127.5
356,136,128091,2,0,P|407:132|464:200,1,127.5,8|0,0:0|0:0,0:0:0:0:
475,278,128340,2,0,P|451:324|364:338,1,127.5,2|0,0:0|0:0,0:0:0:0:
212,344,128597,2,0,L|96:344,1,85,8|0,0:0|0:0,0:0:0:0:
32,196,128855,2,0,P|92:216|100:316,1,170,2|8,0:0|0:0,0:0:0:0:
40,272,129239,1,0,0:0:0:0:
145,98,129367,6,0,P|152:147|117:205,1,85,2|0,0:0|0:0,0:0:0:0:
238,95,129624,2,0,P|209:134|142:151,1,85,8|0,0:0|0:0,0:0:0:0:
304,160,129880,2,0,P|256:167|197:133,1,85,2|8,0:0|0:0,0:0:0:0:
304,254,130134,2,0,P|264:224|247:158,1,85,2|8,0:0|0:0,0:0:0:0:
238,319,130388,2,0,P|230:271|266:211,1,85,10|8,0:0|0:0,0:0:0:0:
148,319,130652,2,0,P|177:280|243:262,1,85,10|2,0:0|0:0,0:0:0:0:
316,280,130917,6,0,L|416:292,1,85,12|8,0:0|0:0,0:0:0:0:
196,104,131175,2,0,L|96:92,1,85,12|8,0:0|0:0,0:0:0:0:
157,336,132210,6,0,L|168:252,1,85,8|8,0:0|0:0,0:0:0:0:
354,47,132468,2,0,L|344:132,1,85,8|8,0:0|0:0,0:0:0:0:
224,276,132985,6,0,L|234:191,1,85,8|8,0:0|0:0,0:0:0:0:
288,108,133244,2,0,L|277:192,1,85,8|0,0:0|0:0,0:0:0:0:
196,352,133503,2,0,P|252:352|276:332,1,85,8|8,0:0|0:0,0:0:0:0:
316,32,133761,2,0,P|260:32|236:52,1,85,8|8,0:0|0:0,0:0:0:0:
88,276,134020,2,0,P|127:236|130:205,1,85,2|8,0:0|0:0,0:0:0:0:
424,108,134279,2,0,P|384:147|381:178,1,85,12|8,0:0|0:0,0:0:0:0:
188,144,134537,2,0,P|137:120|107:128,1,85,0|2,0:0|0:0,0:0:0:0:
324,240,134796,2,0,P|374:263|404:255,1,85,8|8,0:0|0:0,0:0:0:0:
256,192,135054,6,0,P|240:240|320:324,1,170,4|0,0:0|0:0,0:0:0:0:
424,280,135875,2,0,P|440:232|360:148,1,170,0|0,0:0|0:0,0:0:0:0:
168,180,136618,2,0,L|68:196,1,85,0|0,0:0|0:0,0:0:0:0:
192,256,137137,6,0,P|232:228|212:116,1,170,0|0,0:0|0:0,0:0:0:0:
20,288,137916,2,0,L|120:272,1,85,0|0,0:0|0:0,0:0:0:0:
192,256,138436,1,0,0:0:0:0:
412,216,138695,2,0,L|312:200,1,85,0|0,0:0|0:0,0:0:0:0:
32,92,139215,6,0,B|76:80|76:80|104:116|104:116|176:48|260:104,1,255,4|0,0:0|0:0,0:0:0:0:
304,164,140254,2,0,P|312:220|260:280,1,127.5,0|0,0:0|0:0,0:0:0:0:
132,232,140758,2,0,P|124:176|176:116,1,127.5,0|0,0:0|0:0,0:0:0:0:
452,80,141262,2,0,B|360:40|360:112|272:64,1,170,0|0,0:0|0:0,0:0:0:0:
232,52,142287,6,0,P|192:108|204:192,1,152.999995330811
280,332,142809,2,0,P|320:276|308:192,1,152.999995330811,2|0,0:0|0:0,0:0:0:0:
256,192,143331,6,0,P|200:252|144:200,1,152.999995330811,2|0,0:0|0:0,0:0:0:0:
150,222,143719,2,0,P|178:201|215:287,1,152.999995330811,0|0,0:0|0:0,0:0:0:0:
132,312,144108,1,0,0:0:0:0:
68,248,144238,2,0,B|52:120|52:120|92:156,1,152.999995330811,0|0,0:0|0:0,0:0:0:0:
64,44,144626,6,0,P|108:60|128:100,1,76.4999976654053,0|0,0:0|0:0,0:0:0:0:
64,224,144886,2,0,P|63:177|94:144,1,76.4999976654053,0|0,0:0|0:0,0:0:0:0:
240,148,145145,2,0,P|196:164|154:146,1,76.4999976654053,0|0,0:0|0:0,0:0:0:0:
244,68,145404,6,0,P|308:100|300:196,1,152.999995330811,0|0,0:0|0:0,0:0:0:0:
192,256,145793,2,0,B|236:264|236:264|296:248|296:248|352:260,1,152.999995330811,0|0,0:0|0:0,0:0:0:0:
396,200,146181,1,0,0:0:0:0:
396,200,146311,2,0,P|413:293|346:335,1,152.999995330811,0|0,0:0|0:0,0:0:0:0:
296,340,146700,6,0,L|208:348,1,76.4999976654053,0|0,0:0|0:0,0:0:0:0:
0,280,146959,2,0,L|88:272,1,76.4999976654053,0|0,0:0|0:0,0:0:0:0:
296,340,147218,2,0,L|208:348,1,76.4999976654053,0|0,0:0|0:0,0:0:0:0:
84,192,147477,6,0,P|148:232|148:312,1,152.999995330811,0|0,0:0|0:0,0:0:0:0:
84,192,147866,2,0,P|67:118|123:61,1,152.999995330811,0|0,0:0|0:0,0:0:0:0:
292,152,148255,1,0,0:0:0:0:
292,152,148384,2,0,L|136:136,1,152.999995330811,0|0,0:0|0:0,0:0:0:0:
328,80,148774,6,0,P|360:104|368:156,1,76.4999976654053,0|0,0:0|0:0,0:0:0:0:
288,240,149034,2,0,L|388:208,1,76.4999976654053,0|0,0:0|0:0,0:0:0:0:
432,192,149294,1,0,0:0:0:0:
432,192,149425,1,0,0:0:0:0:
236,292,149553,6,0,B|201:271|213:224|213:224|165:235|144:200,1,152.999995330811
196,152,149940,2,0,P|144:216|80:188,1,152.999995330811,0|0,0:0|0:0,0:0:0:0:
52,120,150328,1,0,0:0:0:0:
52,120,150458,2,0,B|92:108|92:108|140:60|140:60|212:48,1,152.999995330811,0|0,0:0|0:0,0:0:0:0:
329,53,150846,6,0,L|413:69,1,76.4999976654053,0|0,0:0|0:0,0:0:0:0:
492,200,151104,2,0,L|408:184,1,76.4999976654053,0|0,0:0|0:0,0:0:0:0:
276,264,151363,2,0,L|360:280,1,76.4999976654053,0|0,0:0|0:0,0:0:0:0:
464,308,151621,6,0,B|460:352|412:368|412:368|380:344|324:356,1,152.999995330811,2|0,0:0|0:0,0:0:0:0:
208,304,152009,2,0,P|196:268|264:188,1,152.999995330811,0|0,0:0|0:0,0:0:0:0:
351,278,152397,1,8,0:0:0:0:
351,278,152527,2,0,L|184:248,1,152.999995330811,0|0,0:0|0:0,0:0:0:0:
96,240,152915,6,0,P|64:272|72:332,1,76.4999976654053,0|0,0:0|0:0,0:0:0:0:
120,160,153173,2,0,P|74:156|34:200,1,76.4999976654053,0|0,3:0|0:0,3:0:0:0:
192,124,153432,2,0,P|166:86|105:84,1,76.4999976654053,0|0,3:0|0:0,3:0:0:0:
256,192,153690,12,0,154725,0:0:0:0:
112,48,155777,6,0,P|68:96|84:176,1,127.5,4|0,0:0|0:0,0:0:0:0:
136,208,156033,2,0,L|232:220,1,85,8|0,0:0|0:0,0:0:0:0:
448,120,156289,1,2,0:0:0:0:
324,72,156418,1,0,0:0:0:0:
304,228,156546,1,8,0:0:0:0:
388,352,156674,6,0,P|412:288|388:236,1,127.5,2|0,0:0|0:0,0:0:0:0:
304,228,156930,2,0,L|219:217,1,85,2|8,0:0|0:0,0:0:0:0:
136,208,157187,1,0,0:0:0:0:
88,280,157315,2,0,P|128:296|180:280,1,85,2|0,0:0|0:0,0:0:0:0:
188,140,157571,6,0,P|124:124|68:160,1,127.5,8|0,0:0|0:0,0:0:0:0:
88,280,157828,2,0,P|152:296|208:260,1,127.5,2|0,0:0|0:0,0:0:0:0:
276,72,158080,2,0,L|268:164,1,85,8|0,0:0|0:0,0:0:0:0:
319,334,158332,2,0,B|331:202|331:202|295:238,1,170,2|8,0:0|0:0,0:0:0:0:
276,296,158719,2,0,P|340:292|376:212,1,127.5,2|0,0:0|0:0,0:0:0:0:
464,132,158978,1,0,0:0:0:0:
455,215,159108,2,0,L|448:300,1,85,2|8,0:0|0:0,0:0:0:0:
428,60,159366,2,0,P|392:92|384:136,1,85,2|0,0:0|0:0,0:0:0:0:
456,215,159625,6,0,P|404:163|316:184,1,170,8|2,0:0|0:0,0:0:0:0:
63,327,160013,2,0,P|50:287|65:248,1,85,0|8,0:0|0:0,0:0:0:0:
124,188,160271,1,0,0:0:0:0:
172,116,160400,2,0,P|209:169|165:265,1,170,2|8,0:0|0:0,0:0:0:0:
124,188,160788,1,0,0:0:0:0:
92,107,160918,6,0,P|105:68|138:42,1,85,2|0,0:0|0:0,0:0:0:0:
276,128,161176,2,0,B|172:116|172:116|196:96,1,127.5,8|0,0:0|0:0,0:0:0:0:
300,52,161435,2,0,P|340:76|356:152,1,127.5,2|0,0:0|0:0,0:0:0:0:
328,232,161694,2,0,L|372:108,1,127.5,8|0,0:0|0:0,0:0:0:0:
428,48,161952,2,0,P|448:88|440:152,1,85,2|0,0:0|0:0,0:0:0:0:
348,312,162206,1,8,0:0:0:0:
328,232,162333,2,0,P|380:232|416:272,1,85,0|2,0:0|0:0,0:0:0:0:
442,319,162587,2,0,P|461:304|477:277,1,42.5,0|0,0:0|0:0,0:0:0:0:
268,176,162714,2,0,P|244:224|252:264,1,85,8|0,0:0|0:0,0:0:0:0:
176,312,162968,6,0,B|272:296,1,85,2|8,0:0|0:0,0:0:0:0:
144,240,163232,2,0,P|104:272|96:312,1,85,2|8,0:0|0:0,0:0:0:0:
32,360,163496,1,8,0:0:0:0:
0,272,163628,1,8,0:0:0:0:
100,96,163760,1,8,0:0:0:0:
72,184,163893,1,2,0:0:0:0:
60,28,164025,6,0,P|128:20|180:84,1,127.5,4|0,0:0|0:0,0:0:0:0:
180,136,164287,2,0,L|272:116,1,85,8|0,0:0|0:0,0:0:0:0:
432,88,164549,1,2,0:0:0:0:
288,40,164680,1,0,0:0:0:0:
276,200,164811,1,8,0:0:0:0:
496,208,164942,6,0,P|444:168|356:212,1,170,2|2,0:0|0:0,0:0:0:0:
412,336,165332,2,0,B|428:240|428:240|404:260,1,127.5,8|0,0:0|0:0,0:0:0:0:
332,292,165592,2,0,L|244:296,1,85,2|0,0:0|0:0,0:0:0:0:
80,232,165852,2,0,P|148:244|168:340,1,170,8|2,0:0|0:0,0:0:0:0:
100,304,166237,1,0,0:0:0:0:
20,280,166364,2,0,P|4:228|16:192,1,85,8|0,0:0|0:0,0:0:0:0:
76,24,166617,6,0,P|108:80|84:144,1,127.5,2|0,0:0|0:0,0:0:0:0:
72,148,166870,1,8,0:0:0:0:
192,96,166997,2,0,P|252:148|348:112,1,170,2|2,0:0|0:0,0:0:0:0:
272,68,167370,1,8,0:0:0:0:
192,220,167494,1,0,0:0:0:0:
360,200,167618,6,0,P|400:160|404:124,1,85,2|0,0:0|0:0,0:0:0:0:
368,56,167885,1,8,0:0:0:0:
312,268,168014,1,0,0:0:0:0:
496,224,168143,2,0,P|452:176|372:188,1,127.5,2|0,0:0|0:0,0:0:0:0:
360,200,168402,2,0,P|392:240|392:284,1,85,8|0,0:0|0:0,0:0:0:0:
80,348,168660,2,0,P|48:308|48:264,1,85,2|0,0:0|0:0,0:0:0:0:
156,148,168919,2,0,P|188:188|188:232,1,85,8|0,0:0|0:0,0:0:0:0:
124,284,169178,5,2,0:0:0:0:
20,180,169309,1,0,0:0:0:0:
192,128,169440,2,0,L|328:92,1,127.5,8|0,0:0|0:0,0:0:0:0:
408,48,169702,2,0,B|376:32|376:32|408:72|396:128,1,127.5,2|0,0:0|0:0,0:0:0:0:
324,192,169964,2,0,P|388:196|432:264,1,127.5,8|0,0:0|0:0,0:0:0:0:
320,372,170226,6,0,P|316:332|336:284,1,85,2|0,0:0|0:0,0:0:0:0:
340,276,170422,1,0,0:0:0:0:
352,264,170488,2,0,P|304:268|264:240,1,85,8|0,0:0|0:0,0:0:0:0:
200,208,170750,1,4,0:0:0:0:
176,128,170876,1,0,0:0:0:0:
340,156,171002,2,0,L|248:140,1,85,8|0,0:0|0:0,0:0:0:0:
176,128,171254,6,0,B|295:146|295:146|268:104,1,159.375,2|0,0:0|0:0,0:0:0:0:
160,44,171516,6,0,P|100:96|132:204,1,191.250007295609,8|0,0:0|0:0,0:0:0:0:
67,237,171778,6,0,B|112:213|112:213|144:153|144:153|185:121,1,159.375,2|0,0:0|0:0,0:0:0:0:
364,68,172047,6,0,P|412:108|392:228,1,159.375,8|0,0:0|0:0,0:0:0:0:
324,216,172316,6,0,L|212:200,1,85,2|0,0:0|0:0,0:0:0:0:
288,256,172574,2,0,L|400:272,1,85,0|2,0:0|0:0,0:0:0:0:
464,284,172833,1,8,0:0:0:0:
452,304,172962,1,0,0:0:0:0:
236,360,173091,1,0,0:0:0:0:
248,340,173220,1,8,0:0:0:0:
340,344,173350,5,0,0:0:0:0:
172,236,173477,2,0,P|128:248|100:304,1,85,2|0,0:0|0:0,0:0:0:0:
96,364,173732,1,0,0:0:0:0:
96,364,173860,1,8,0:0:0:0:
96,364,173988,1,2,0:0:0:0:
96,364,174115,1,0,0:0:0:0:
96,364,174243,1,0,0:0:0:0:
68,204,174498,2,0,L|56:116,1,85,0|0,0:0|0:0,0:0:0:0:
48,36,174754,1,2,0:0:0:0:
128,68,174881,5,8,0:0:0:0:
204,104,175009,1,0,0:0:0:0:
284,136,175137,1,0,0:0:0:0:
128,148,175264,1,8,0:0:0:0:
276,56,175392,2,0,P|332:68|364:116,1,85,8|8,0:0|0:0,0:0:0:0:
332,276,175652,1,8,0:0:0:0:
284,136,175783,1,2,0:0:0:0:
280,344,175913,6,0,P|244:296|284:212,1,127.5,0|0,0:0|0:0,0:0:0:0:
328,196,176174,2,0,L|436:208,1,85,4|0,0:0|0:0,0:0:0:0:
444,132,176435,2,0,P|480:160|492:216,1,85,4|0,0:0|0:0,0:0:0:0:
408,352,176696,2,0,P|372:324|360:268,1,85,0|2,0:0|0:0,0:0:0:0:
444,280,176957,1,8,0:0:0:0:
444,280,177084,1,0,0:0:0:0:
444,280,177212,1,0,0:0:0:0:
444,280,177339,1,8,0:0:0:0:
280,344,177595,6,0,L|184:332,1,85,0|2,0:0|0:0,0:0:0:0:
0,252,177850,2,0,L|96:264,1,85,0|8,0:0|0:0,0:0:0:0:
172,332,178105,1,2,0:0:0:0:
108,264,178232,1,0,0:0:0:0:
192,228,178359,1,0,0:0:0:0:
156,116,178613,6,0,P|204:156|200:220,1,127.5
192,228,178867,1,2,0:0:0:0:
76,156,178994,2,0,L|68:56,1,85,8|0,0:0|0:0,0:0:0:0:
442,71,179250,2,0,L|436:156,1,85,0|0,0:0|0:0,0:0:0:0:
104,128,179507,2,0,L|96:28,1,85,2|8,0:0|0:0,0:0:0:0:
414,43,179764,2,0,L|408:128,1,85,0|2,0:0|0:0,0:0:0:0:
432,340,180021,1,8,0:0:0:0:
376,208,180150,1,2,0:0:0:0:
292,332,180278,2,0,P|264:276|292:220,1,127.5,8|0,0:0|0:0,0:0:0:0:
376,208,180535,6,0,L|464:200,1,85,6|0,0:0|0:0,0:0:0:0:
340,276,180801,2,0,L|252:284,1,85,0|2,0:0|0:0,0:0:0:0:
112,292,181068,1,8,0:0:0:0:
112,292,181201,1,0,0:0:0:0:
112,292,181335,1,0,0:0:0:0:
112,292,181468,1,8,0:0:0:0:
176,164,181730,6,0,P|116:188|104:216,1,85,0|2,0:0|0:0,0:0:0:0:
112,292,181990,1,0,0:0:0:0:
256,184,182120,2,0,P|252:120|208:96,1,85,8|2,0:0|0:0,0:0:0:0:
116,96,182380,2,0,L|28:112,2,85
248,264,182769,6,0,P|312:248|336:188,1,127.5,0|0,0:0|0:0,0:0:0:0:
332,116,183029,2,0,L|420:100,1,85,2|8,0:0|0:0,0:0:0:0:
500,88,183289,5,0,0:0:0:0:
416,192,183419,1,0,0:0:0:0:
512,168,183549,1,0,0:0:0:0:
408,241,183678,1,10,0:0:0:0:
512,251,183807,1,8,0:0:0:0:
385,286,183936,1,0,0:0:0:0:
483,328,184065,1,8,0:0:0:0:
350,321,184195,2,0,L|220:332,1,127.5,8|0,0:0|0:0,0:0:0:0:
140,304,184453,2,0,P|164:264|224:244,1,85,2|2,0:0|0:0,0:0:0:0:
320,248,184712,6,0,L|220:256,1,85,6|0,0:0|0:0,0:0:0:0:
16,208,184969,2,0,L|116:200,1,85,0|2,0:0|0:0,0:0:0:0:
180,168,185227,1,8,0:0:0:0:
244,64,185355,1,0,0:0:0:0:
204,152,185484,1,0,0:0:0:0:
268,48,185613,1,8,0:0:0:0:
404,164,185742,6,0,P|336:168|288:108,1,127.5,0|0,0:0|0:0,0:0:0:0:
364,96,185999,2,0,P|416:84|452:100,1,85,2|0,0:0|0:0,0:0:0:0:
504,156,186257,1,8,0:0:0:0:
504,156,186385,1,2,0:0:0:0:
504,156,186514,1,0,0:0:0:0:
504,156,186643,1,0,0:0:0:0:
504,156,186772,1,2,0:0:0:0:
460,228,186900,6,0,B|452:332|452:332|480:324,1,127.5,0|0,0:0|0:0,0:0:0:0:
453,332,187158,2,0,P|420:312|365:320,1,85,2|8,0:0|0:0,0:0:0:0:
360,224,187415,2,0,P|322:233|289:277,1,85,2|8,0:0|0:0,0:0:0:0:
300,352,187673,5,0,0:0:0:0:
240,192,187802,1,2,0:0:0:0:
200,348,187930,1,8,0:0:0:0:
242,182,188059,1,2,0:0:0:0:
120,288,188188,1,4,0:0:0:0:
250,176,188317,5,2,0:0:0:0:
90,193,188445,1,8,0:0:0:0:
260,176,188574,1,8,0:0:0:0:
119,97,188703,1,8,0:0:0:0:
324,276,188832,6,0,L|464:240,1,127.5,4|0,0:0|0:0,0:0:0:0:
476,204,189092,2,0,P|468:144|408:108,1,127.5,8|0,0:0|0:0,0:0:0:0:
328,104,189353,2,0,L|240:100,1,85,2|2,0:0|0:0,0:0:0:0:
36,88,189614,1,8,0:0:0:0:
244,100,189745,1,0,0:0:0:0:
116,212,189875,6,0,P|96:160|128:112,1,85,2|2,0:0|0:0,0:0:0:0:
144,60,190132,1,8,0:0:0:0:
188,160,190261,1,0,0:0:0:0:
100,232,190390,2,0,L|17:219,1,85,2|0,0:0|0:0,0:0:0:0:
116,318,190647,2,0,L|200:332,1,85,8|0,0:0|0:0,0:0:0:0:
232,156,190905,6,0,P|272:204|260:276,1,127.5,0|0,0:0|0:0,0:0:0:0:
200,332,191162,2,0,L|104:316,1,85,8|0,0:0|0:0,0:0:0:0:
32,304,191420,1,2,0:0:0:0:
196,228,191548,1,2,0:0:0:0:
328,332,191677,2,0,P|357:306|370:241,1,85,8|0,0:0|0:0,0:0:0:0:
370,241,191870,1,0,0:0:0:0:
364,224,191935,2,0,P|389:253|454:266,1,85,2|0,0:0|0:0,0:0:0:0:
432,184,192192,6,0,P|392:148|336:160,1,85,2|0,0:0|0:0,0:0:0:0:
288,260,192450,1,2,0:0:0:0:
468,100,192578,2,0,P|488:64|488:16,2,85
140,120,192965,6,0,P|208:124|256:68,1,127.5,4|0,0:0|0:0,0:0:0:0:
252,68,193228,2,0,L|232:152,1,85,8|0,0:0|0:0,0:0:0:0:
188,220,193491,1,2,0:0:0:0:
104,208,193624,1,0,0:0:0:0:
160,368,193757,1,8,0:0:0:0:
212,300,193891,1,0,0:0:0:0:
4,304,194024,6,0,L|136:284,1,127.5,2|0,0:0|0:0,0:0:0:0:
268,232,194282,2,0,P|292:280|272:336,1,85,8|2,0:0|0:0,0:0:0:0:
368,340,194541,2,0,L|452:324,1,85,2|2,0:0|0:0,0:0:0:0:
352,216,194808,2,0,L|268:232,1,85,8|0,0:0|0:0,0:0:0:0:
424,252,195053,6,0,P|432:196|344:132,1,170,2|8,0:0|0:0,0:0:0:0:
248,160,195446,2,0,B|344:140|344:140|296:116,1,127.5
204,96,195698,2,0,P|172:128|172:172,1,85,0|8,0:0|0:0,0:0:0:0:
52,288,195948,1,0,0:0:0:0:
188,244,196073,5,2,0:0:0:0:
72,120,196204,1,2,0:0:0:0:
104,208,196336,1,8,0:0:0:0:
116,40,196467,1,0,0:0:0:0:
196,296,196599,2,0,P|248:344|316:328,1,127.5,8|0,0:0|0:0,0:0:0:0:
472,332,196852,2,0,P|420:284|352:300,1,127.5,2|0,0:0|0:0,0:0:0:0:
324,152,197105,6,0,P|272:192|276:280,1,127.5,4|0,0:0|0:0,0:0:0:0:
268,268,197368,2,0,P|312:260|352:284,1,85,8|0,0:0|0:0,0:0:0:0:
416,140,197631,2,0,P|393:101|402:55,1,85,2|0,0:0|0:0,0:0:0:0:
480,84,197894,1,8,0:0:0:0:
380,212,198026,1,0,0:0:0:0:
232,104,198157,2,0,P|276:104|320:160,1,85,2|2,0:0|0:0,0:0:0:0:
248,180,198407,2,0,L|148:192,1,85,8|0,0:0|0:0,0:0:0:0:
56,104,198657,5,2,0:0:0:0:
132,196,198787,1,0,0:0:0:0:
48,124,198917,1,8,0:0:0:0:
124,216,199048,1,0,0:0:0:0:
56,308,199178,6,0,P|24:260|60:196,1,127.5,2|0,0:0|0:0,0:0:0:0:
132,172,199439,2,0,L|217:162,1,85,8|0,0:0|0:0,0:0:0:0:
472,76,199700,2,0,L|387:86,1,85,2|0,0:0|0:0,0:0:0:0:
240,84,199961,2,0,P|292:104|308:188,1,127.5,8|0,0:0|0:0,0:0:0:0:
308,180,200222,5,2,0:0:0:0:
296,188,200284,1,0,0:0:0:0:
284,196,200347,2,0,P|332:184|368:196,1,85,2|2,0:0|0:0,0:0:0:0:
456,272,200598,1,2,0:0:0:0:
456,272,200724,2,0,L|335:312,1,127.5,2|0,0:0|0:0,0:0:0:0:
252,288,200975,2,0,B|248:324|248:324|268:372,1,85,2|2,0:0|0:0,0:0:0:0:
216,208,201226,6,0,B|168:244|168:244|152:352,1,170,4|8,0:0|0:0,0:0:0:0:
96,200,201650,1,0,0:0:0:0:
124,36,201777,2,0,P|168:80|148:164,1,127.5,2|0,0:0|0:0,0:0:0:0:
96,200,202043,2,0,L|8:220,1,85,8|0,0:0|0:0,0:0:0:0:
292,160,202310,2,0,B|394:134|394:134|359:109,1,127.5,2|0,0:0|0:0,0:0:0:0:
423,60,202568,2,0,P|461:88|466:144,1,85,8|0,0:0|0:0,0:0:0:0:
80,336,202827,5,0,0:0:0:0:
72,252,202956,1,8,0:0:0:0:
136,196,203085,1,2,0:0:0:0:
220,216,203215,1,2,0:0:0:0:
352,284,203344,6,0,P|396:288|456:256,1,85,6|0,0:0|0:0,0:0:0:0:
160,284,203600,6,0,P|116:288|56:256,1,85,6|0,0:0|0:0,0:0:0:0:
419,196,203856,6,0,P|452:169|471:131,1,85,6|0,0:0|0:0,0:0:0:0:
40,131,204113,6,0,P|59:169|92:196,1,85,6|0,0:0|0:0,0:0:0:0:
399,92,204369,6,0,P|404:50|390:10,1,85,6|0,0:0|0:0,0:0:0:0:
121,10,204626,6,0,P|107:50|112:92,1,85,6|0,0:0|0:0,0:0:0:0:
256,192,204882,5,0,0:0:0:0:
368,272,205408,6,0,B|312:364|240:308|240:308|172:244|188:184|256:150|324:184|340:244|272:308|272:308|184:268|120:300,1,637.5,4|0,0:0|0:0,0:0:0:0:
124,172,207476,6,0,B|184:124|276:188|276:188|340:228|320:304|256:338|192:304|172:228|236:188|236:188|320:96|253:33,1,637.5,4|0,0:0|0:0,0:0:0:0:
257,38,209534,5,4,0:0:0:0:
256,192,209601,12,0,212392,0:0:0:0:
295,231,212651,5,2,0:0:0:0:
216,152,212780,1,0,0:0:0:0:
256,247,212910,1,8,0:0:0:0:
256,136,213039,1,8,0:0:0:0:
216,231,213168,1,8,0:0:0:0:
295,152,213298,1,8,0:0:0:0:
200,192,213427,1,8,0:0:0:0:
311,192,213556,1,8,0:0:0:0:
256,135,213685,6,0,P|274:144|294:149,1,42.5,6|0,0:0|0:0,0:0:0:0:
257,249,213948,2,0,P|238:237|218:232,1,42.5
199,192,214211,2,0,P|209:172|214:152,1,42.5,2|0,0:0|0:0,0:0:0:0:
313,191,214474,2,0,P|302:208|297:229,1,42.5
263,108,214737,6,0,P|281:117|302:120,1,42.5,2|0,0:0|0:0,0:0:0:0:
250,276,214993,2,0,P|231:264|210:261,1,42.5
172,185,215250,2,0,P|182:165|185:144,1,42.5,2|0,0:0|0:0,0:0:0:0:
340,198,215507,2,0,P|329:215|326:236,1,42.5
268,90,215764,6,0,P|291:110|322:117,1,63.7500024318696,2|0,0:0|0:0,0:0:0:0:
245,294,216021,2,0,P|221:272|190:265,1,63.7500024318696
154,180,216278,2,0,P|175:155|182:124,1,63.7500024318696,2|0,0:0|0:0,0:0:0:0:
358,203,216535,2,0,P|336:225|329:256,1,63.7500024318696
273,67,216792,6,0,P|296:87|327:94,1,63.7500024318696,2|0,0:0|0:0,0:0:0:0:
239,316,217051,2,0,P|215:294|184:287,1,63.7500024318696
132,175,217311,2,0,P|153:150|160:119,1,63.7500024318696,2|0,0:0|0:0,0:0:0:0:
381,209,217571,2,0,P|359:231|352:262,1,63.7500024318696
279,50,217830,6,0,P|306:80|346:92,1,85,2|0,0:0|0:0,0:0:0:0:
234,333,218086,2,0,P|206:301|166:289,1,85,8|0,0:0|0:0,0:0:0:0:
115,168,218342,2,0,P|145:140|157:100,1,85,2|0,0:0|0:0,0:0:0:0:
397,214,218599,2,0,P|365:240|353:280,1,85,8|0,0:0|0:0,0:0:0:0:
290,22,218855,6,0,P|317:52|357:64,1,85,2|0,0:0|0:0,0:0:0:0:
222,361,219112,2,0,P|194:329|154:317,1,85,8|2,0:0|0:0,0:0:0:0:
87,158,219368,2,0,P|118:129|130:89,1,85,10|8,0:0|0:0,0:0:0:0:
426,226,219624,2,0,P|394:252|382:293,1,85,8|8,0:0|0:0,0:0:0:0:
192,231,219881,6,0,P|181:205|221:125,1,119.531254559755,2|0,0:0|0:0,0:0:0:0:
216,127,220138,6,0,P|242:116|322:156,1,119.531254559755,2|0,0:0|0:0,0:0:0:0:
319,151,220396,6,0,P|330:177|290:257,1,119.531254559755,2|0,0:0|0:0,0:0:0:0:
295,255,220653,6,0,P|269:266|189:226,1,119.531254559755,2|0,0:0|0:0,0:0:0:0:
191,230,220911,5,2,0:0:0:0:
100,28,221949,6,0,P|44:64|52:152,1,127.5,4|0,0:0|0:0,0:0:0:0:
96,188,222207,2,0,L|192:204,1,85,8|0,0:0|0:0,0:0:0:0:
264,216,222466,1,2,0:0:0:0:
112,104,222595,1,0,0:0:0:0:
128,316,222724,2,0,P|168:308|204:268,1,85,8|2,0:0|0:0,0:0:0:0:
236,56,222983,2,0,P|304:84|304:176,1,170,0|8,0:0|0:0,0:0:0:0:
280,304,223371,1,0,0:0:0:0:
348,240,223500,2,0,L|364:324,1,85,2|0,0:0|0:0,0:0:0:0:
472,344,223759,6,0,P|420:332|384:260,1,127.5,8|0,0:0|0:0,0:0:0:0:
476,168,224017,2,0,B|464:268|464:268|436:220,1,127.5,2|0,0:0|0:0,0:0:0:0:
404,136,224276,2,0,P|428:100|468:88,1,85,8|0,0:0|0:0,0:0:0:0:
356,80,224535,2,0,L|532:92,1,170,2|8,0:0|0:0,0:0:0:0:
308,148,224923,6,0,P|276:108|320:4,1,170,2|2,0:0|0:0,0:0:0:0:
216,168,225311,2,0,L|96:180,1,85,8|0,0:0|0:0,0:0:0:0:
44,184,225569,1,2,0:0:0:0:
116,52,225699,1,0,0:0:0:0:
177,235,225828,2,0,P|137:199|145:127,1,127.5,8|0,0:0|0:0,0:0:0:0:
224,300,226086,2,0,P|180:316|140:304,1,85,2|0,0:0|0:0,0:0:0:0:
256,228,226345,2,0,P|294:254|307:294,1,85,8|0,0:0|0:0,0:0:0:0:
396,356,226604,6,0,B|288:344|288:344|320:332,1,127.5,2|0,0:0|0:0,0:0:0:0:
420,280,226862,2,0,P|464:308|476:344,1,85,8|0,0:0|0:0,0:0:0:0:
344,252,227121,2,0,P|375:210|412:201,1,85,2|2,0:0|0:0,0:0:0:0:
488,116,227380,2,0,B|476:217|476:217|456:200,1,127.5,8|0,0:0|0:0,0:0:0:0:
412,88,227638,2,0,P|440:48|480:40,1,85,2|0,0:0|0:0,0:0:0:0:
328,132,227897,2,0,P|276:112|276:0,1,170,8|2,0:0|0:0,0:0:0:0:
332,52,228285,1,0,0:0:0:0:
216,176,228415,6,0,B|220:192|220:192|180:168|120:192,1,85,8|0,0:0|0:0,0:0:0:0:
80,216,228676,2,0,P|48:256|72:340,1,127.5,2|0,0:0|0:0,0:0:0:0:
128,284,228937,2,0,L|212:300,1,85,8|0,0:0|0:0,0:0:0:0:
380,276,229198,1,2,0:0:0:0:
256,308,229328,1,0,0:0:0:0:
397,241,229459,1,8,0:0:0:0:
286,304,229589,1,0,0:0:0:0:
356,356,229720,5,8,0:0:0:0:
464,292,229846,1,8,0:0:0:0:
312,228,229972,1,8,0:0:0:0:
356,356,230098,1,2,0:0:0:0:
400,360,230161,1,2,0:0:0:0:
436,336,230224,6,0,P|464:288|420:200,1,127.5,4|0,0:0|0:0,0:0:0:0:
364,40,230484,2,0,P|332:92|424:184,1,212.5,12|0,0:0|0:0,0:0:0:0:
412,104,230876,1,0,0:0:0:0:
248,128,231006,2,0,L|132:140,1,85,8|0,0:0|0:0,0:0:0:0:
24,288,231267,6,0,B|120:280|120:280|92:264,1,127.5,0|0,0:0|0:0,0:0:0:0:
140,208,231528,2,0,P|187:247|160:344,1,170,8|2,0:0|0:0,0:0:0:0:
64,192,231919,1,0,0:0:0:0:
216,60,232050,2,0,P|284:60|320:132,1,127.5,8|0,0:0|0:0,0:0:0:0:
312,188,232310,6,0,L|304:288,1,85,2|0,0:0|0:0,0:0:0:0:
472,352,232568,2,0,B|476:308|476:308|496:268|496:268|500:224,1,127.5,8|0,0:0|0:0,0:0:0:0:
424,120,232827,2,0,B|416:140|420:164|420:164|400:200|400:200|416:236|392:292,1,170,2|8,0:0|0:0,0:0:0:0:
496,148,233209,6,0,B|424:120|424:120|428:64|364:40,1,170,2|2,0:0|0:0,0:0:0:0:
208,172,233595,2,0,P|291:185|344:120,1,170,8|2,0:0|0:0,0:0:0:0:
262,109,233983,1,0,0:0:0:0:
176,96,234112,2,0,P|136:120|124:160,1,85,8|0,0:0|0:0,0:0:0:0:
0,336,234371,5,2,0:0:0:0:
80,360,234500,1,0,0:0:0:0:
156,324,234630,1,8,0:0:0:0:
164,240,234759,1,0,0:0:0:0:
120,168,234888,2,0,P|84:212|96:284,1,127.5,2|0,0:0|0:0,0:0:0:0:
156,324,235147,2,0,L|260:336,1,85,8|0,0:0|0:0,0:0:0:0:
368,344,235405,5,2,0:0:0:0:
440,192,235535,1,0,0:0:0:0:
276,232,235664,1,8,0:0:0:0:
368,256,235793,1,0,0:0:0:0:
348,172,235923,2,0,L|328:76,1,85,2|0,0:0|0:0,0:0:0:0:
104,92,236181,2,0,P|52:124|48:200,1,127.5,8|0,0:0|0:0,0:0:0:0:
76,256,236440,6,0,P|116:268|172:236,1,85,8|10,0:0|0:0,0:0:0:0:
228,208,236699,1,10,0:0:0:0:
220,367,236828,1,10,0:0:0:0:
220,367,236957,2,0,P|244:333|234:269,1,85,4|0,0:0|0:0,0:0:0:0:
228,208,237216,5,8,0:0:0:0:
188,120,237345,1,0,0:0:0:0:
272,136,237474,1,2,0:0:0:0:
272,39,237604,1,0,0:0:0:0:
343,87,237733,1,8,0:0:0:0:
384,0,237862,1,2,0:0:0:0:
464,200,237992,2,0,P|484:264|424:324,1,127.5,8|0,0:0|0:0,0:0:0:0:
372,316,238250,2,0,L|276:320,1,85,8|0,0:0|0:0,0:0:0:0:
100,304,238509,6,0,P|60:280|44:240,1,85,6|2,0:0|0:0,0:0:0:0:
72,144,238701,1,0,0:0:0:0:
72,144,238765,2,0,P|112:121|155:127,1,85,2|2,0:0|0:0,0:0:0:0:
228,208,238957,1,0,0:0:0:0:
228,208,239021,2,0,P|227:254|200:288,1,85,2|2,0:0|0:0,0:0:0:0:
64,288,239218,1,0,0:0:0:0:
64,288,239284,2,0,P|37:249|40:206,1,85,2|2,0:0|0:0,0:0:0:0:
106,131,239481,5,0,0:0:0:0:
106,131,239547,2,0,P|152:127|188:151,1,85,2|2,0:0|0:0,0:0:0:0:
220,255,239744,1,0,0:0:0:0:
220,255,239810,2,0,P|199:296|161:316,1,85,2|2,0:0|0:0,0:0:0:0:
40,48,240007,1,0,0:0:0:0:
40,48,240073,2,0,L|132:32,1,85,2|2,0:0|0:0,0:0:0:0:
384,96,240266,1,0,0:0:0:0:
384,96,240330,2,0,L|292:112,1,85,2|2,0:0|0:0,0:0:0:0:
136,224,240523,5,0,0:0:0:0:
136,224,240588,2,0,B|228:208|228:208|196:188,1,127.5,2|0,0:0|0:0,0:0:0:0:
260,140,240845,2,0,P|292:164|304:216,1,85,2|2,0:0|0:0,0:0:0:0:
300,288,241038,1,0,0:0:0:0:
300,288,241103,2,0,L|236:348,1,85,2|2,0:0|0:0,0:0:0:0:
156,316,241361,5,2,0:0:0:0:
384,252,241490,1,2,0:0:0:0:
188,100,241620,2,0,L|215:183,1,85,2|0,0:0|0:0,0:0:0:0:
380,344,241878,1,2,0:0:0:0:
304,192,242008,1,2,0:0:0:0:
132,336,242137,1,2,0:0:0:0:
392,164,242266,1,2,0:0:0:0:
144,28,242396,6,0,P|104:80|120:144,1,127.5,2|0,0:0|0:0,0:0:0:0:
212,264,242654,2,0,P|188:304|148:320,1,85,2|2,0:0|0:0,0:0:0:0:
52,292,242848,1,0,0:0:0:0:
52,292,242913,2,0,P|29:252|35:209,1,85,2|2,0:0|0:0,0:0:0:0:
116,136,243107,1,0,0:0:0:0:
116,136,243171,2,0,P|162:137|196:164,1,85,2|2,0:0|0:0,0:0:0:0:
176,308,243364,1,0,0:0:0:0:
176,308,243428,2,0,P|130:319|91:302,1,85,2|2,0:0|0:0,0:0:0:0:
43,214,243621,5,0,0:0:0:0:
43,214,243686,2,0,P|55:169|89:143,1,85,2|2,0:0|0:0,0:0:0:0:
198,149,243879,1,0,0:0:0:0:
198,149,243943,2,0,P|229:182|234:225,1,85,2|2,0:0|0:0,0:0:0:0:
208,312,244136,1,0,0:0:0:0:
208,312,244201,2,0,L|296:316,1,85,2|2,0:0|0:0,0:0:0:0:
484,244,244394,1,0,0:0:0:0:
484,244,244458,2,0,L|396:240,1,85,2|2,0:0|0:0,0:0:0:0:
198,149,244651,5,0,0:0:0:0:
198,149,244716,2,0,B|292:153|292:153|272:128,1,127.5,2|0,0:0|0:0,0:0:0:0:
340,96,244973,2,0,P|364:128|364:180,1,85,2|2,0:0|0:0,0:0:0:0:
172,288,245166,1,0,0:0:0:0:
172,288,245231,2,0,P|148:256|148:204,1,85,2|2,0:0|0:0,0:0:0:0:
372,140,245424,1,0,0:0:0:0:
372,140,245488,2,0,P|380:179|358:226,1,85,2|2,0:0|0:0,0:0:0:0:
139,243,245681,1,0,0:0:0:0:
139,243,245746,2,0,P|131:204|153:157,1,85,2|2,0:0|0:0,0:0:0:0:
260,80,246003,5,8,0:0:0:0:
216,208,246132,1,8,0:0:0:0:
382,63,246261,1,8,0:0:0:0:
288,160,246389,1,8,0:0:0:0:
498,99,246518,1,2,0:0:0:0:
372,148,246647,1,2,0:0:0:0:
468,236,246776,6,0,P|468:304|400:328,1,127.5,6|0,0:0|0:0,0:0:0:0:
332,324,247033,2,0,L|232:316,1,85,2|2,0:0|0:0,0:0:0:0:
56,236,247226,1,0,0:0:0:0:
56,236,247291,2,0,L|156:244,1,85,2|2,0:0|0:0,0:0:0:0:
328,152,247484,1,0,0:0:0:0:
328,152,247548,2,0,L|228:144,1,85,2|2,0:0|0:0,0:0:0:0:
60,56,247741,1,0,0:0:0:0:
60,56,247806,2,0,L|160:64,1,85,2|2,0:0|0:0,0:0:0:0:
365,238,248001,5,0,0:0:0:0:
365,238,248066,2,0,P|319:249|280:232,1,85,2|2,0:0|0:0,0:0:0:0:
232,144,248262,1,0,0:0:0:0:
232,144,248327,2,0,P|244:99|278:73,1,85,2|2,0:0|0:0,0:0:0:0:
387,79,248523,1,0,0:0:0:0:
387,79,248588,2,0,P|418:112|423:155,1,85,2|2,0:0|0:0,0:0:0:0:
332,324,248784,5,0,0:0:0:0:
332,324,248849,2,0,B|292:328|292:328|232:308|232:308|176:316,1,127.5,2|0,0:0|0:0,0:0:0:0:
52,320,249110,2,0,B|108:312|108:312|144:288,1,85,2|2,0:0|0:0,0:0:0:0:
184,236,249306,1,0,0:0:0:0:
184,236,249371,2,0,L|172:144,1,85,2|2,0:0|0:0,0:0:0:0:
40,56,249566,1,0,0:0:0:0:
40,56,249632,2,0,L|52:148,1,85,2|2,0:0|0:0,0:0:0:0:
244,128,249827,5,0,0:0:0:0:
244,128,249892,2,0,P|198:78|115:108,1,127.5,2|0,0:0|0:0,0:0:0:0:
264,208,250146,2,0,B|304:224|304:224|356:220,1,85,2|2,0:0|0:0,0:0:0:0:
482,180,250336,1,0,0:0:0:0:
482,180,250400,2,0,B|486:196|486:196|446:172|386:196,1,85,2|2,0:0|0:0,0:0:0:0:
346,221,250654,2,0,P|314:261|338:345,1,127.5,6|0,0:0|0:0,0:0:0:0:
476,300,250908,6,0,L|376:280,1,85,8|0,0:0|0:0,0:0:0:0:
36,300,251166,2,0,L|136:280,1,85,8|0,0:0|0:0,0:0:0:0:
392,283,251425,5,8,0:0:0:0:
428,208,251511,1,8,0:0:0:0:
368,144,251597,1,8,0:0:0:0:
284,164,251683,5,8,0:0:0:0:
264,248,251770,1,8,0:0:0:0:
212,316,251856,1,8,0:0:0:0:
128,336,251942,5,8,0:0:0:0:
76,316,252028,1,8,0:0:0:0:
64,260,252114,1,8,0:0:0:0:
100,216,252201,5,8,0:0:0:0:
156,208,252287,1,8,0:0:0:0:
200,184,252373,1,8,0:0:0:0:
216,128,252459,5,8,0:0:0:0:
210,100,252545,1,8,0:0:0:0:
193,78,252632,1,8,0:0:0:0:
170,61,252718,5,2,0:0:0:0:
145,52,252804,1,2,0:0:0:0:
117,58,252890,1,2,0:0:0:0:
52,140,252976,6,8,L|176:128,1,85,4|0,0:0|1:0,3:0:0:0:
216,128,253235,2,0,L|92:140,1,85,0|0,1:0|2:0,0:0:0:0:
132,136,254011,5,2,0:0:0:0:
132,136,254270,1,2,0:0:0:0:
132,136,254528,5,2,0:0:0:0:
236,124,254658,1,0,0:0:0:0:
76,60,254787,1,2,0:0:0:0:
100,232,254916,1,2,0:0:0:0:
300,172,255045,6,0,P|320:116|268:44,1,127.5,4|0,0:0|0:0,0:0:0:0:
212,44,255301,2,0,L|124:48,1,85,0|2,0:0|0:0,0:0:0:0:
40,344,255557,2,0,L|200:288,1,170,8|0,0:0|0:0,0:0:0:0:
272,260,255942,2,0,P|247:226|207:211,1,85
100,232,256198,1,0,0:0:0:0:
276,344,256327,2,0,L|384:308,1,85,2|0,0:0|0:0,0:0:0:0:
456,108,256583,2,0,P|405:124|392:174,1,85,8|0,0:0|0:0,0:0:0:0:
357,317,256839,1,0,0:0:0:0:
463,185,256968,1,2,0:0:0:0:
328,80,257122,6,0,L|236:60,1,85,2|0,0:0|0:0,0:0:0:0:
16,120,257380,2,0,L|116:144,1,85,0|2,0:0|0:0,0:0:0:0:
156,24,257639,2,0,L|184:196,1,170,8|0,0:0|0:0,0:0:0:0:
256,240,258027,1,8,0:0:0:0:
260,160,258156,1,0,0:0:0:0:
104,236,258285,1,0,0:0:0:0:
180,276,258415,6,0,L|264:344,1,85,2|0,0:0|0:0,0:0:0:0:
68,316,258673,2,0,L|-8:260,1,85,8|2,0:0|0:0,0:0:0:0:
348,292,258932,2,0,L|452:280,1,85,0|2,0:0|0:0,0:0:0:0:
504,336,259190,1,2,0:0:0:0:
488,352,259320,1,0,0:0:0:0:
372,212,259449,1,0,0:0:0:0:
388,196,259578,1,2,0:0:0:0:
400,116,259708,6,0,P|448:136|468:204,1,127.500004863739,8|0,0:0|0:0,0:0:0:0:
388,196,259966,2,0,L|280:156,1,85,0|8,0:0|0:0,0:0:0:0:
48,88,260225,1,0,0:0:0:0:
120,44,260352,1,0,0:0:0:0:
204,60,260479,2,0,B|228:96|228:96|220:152,1,85,2|2,0:0|0:0,0:0:0:0:
64,304,260733,2,0,L|48:212,1,85,2|2,0:0|0:0,0:0:0:0:
244,212,260997,2,0,P|168:192|152:136,1,127.5,0|0,0:0|0:0,0:0:0:0:
380,48,261261,6,0,P|456:68|472:124,1,127.5,4|0,0:0|0:0,0:0:0:0:
472,192,261525,2,0,L|468:284,1,85,0|2,0:0|0:0,0:0:0:0:
236,336,261790,2,0,L|240:244,1,85,8|0,0:0|0:0,0:0:0:0:
252,112,262047,1,0,0:0:0:0:
364,260,262176,1,8,0:0:0:0:
132,320,262305,2,0,P|76:312|44:240,1,127.5,0|0,0:0|0:0,0:0:0:0:
136,144,262562,6,0,B|120:248|120:248|108:212,1,127.5,0|0,0:0|0:0,0:0:0:0:
52,144,262820,2,0,B|64:92|64:92|116:56,1,85,8|2,0:0|0:0,0:0:0:0:
172,48,263077,1,0,0:0:0:0:
240,196,263206,1,0,0:0:0:0:
259,27,263335,6,0,L|252:111,1,85,2|0,0:0|0:0,0:0:0:0:
304,336,263592,2,0,L|310:251,1,85,0|2,0:0|0:0,0:0:0:0:
496,180,263850,2,0,B|396:172|396:172|420:156,1,127.5,8|0,0:0|0:0,0:0:0:0:
388,36,264107,2,0,P|432:80|428:124,1,85,0|8,0:0|0:0,0:0:0:0:
320,173,264365,2,0,B|324:132|324:132|360:108,1,85
312,260,264622,1,2,0:0:0:0:
420,300,264750,1,0,0:0:0:0:
348,256,264878,1,8,0:0:0:0:
456,296,265006,1,0,0:0:0:0:
276,272,265134,6,0,L|168:264,1,85,0|0,0:0|0:0,0:0:0:0:
108,294,265391,1,4,0:0:0:0:
172,348,265520,1,0,0:0:0:0:
191,173,265650,1,0,0:0:0:0:
115,214,265780,1,2,0:0:0:0:
168,32,265910,6,0,P|116:76|136:156,1,127.5,8|0,0:0|0:0,0:0:0:0:
191,173,266170,2,0,L|292:160,1,85,0|8,0:0|0:0,0:0:0:0:
472,32,266429,2,0,L|371:45,1,85,0|0,0:0|0:0,0:0:0:0:
304,156,266689,1,0,0:0:0:0:
364,48,266822,1,0,0:0:0:0:
316,192,266955,1,2,0:0:0:0:
376,84,267089,1,0,0:0:0:0:
292,336,267222,6,0,P|232:348|184:300,1,127.5,4|0,0:0|0:0,0:0:0:0:
260,96,267472,6,0,L|268:188,1,85,8|8,0:0|0:0,0:0:0:0:
252,276,267722,2,0,L|244:184,1,85,8|12,0:0|0:0,0:0:0:0:
