osu file format v9

[General]
AudioFilename: Wonderful+World.mp3
AudioLeadIn: 2000
PreviewTime: 73836
Countdown: 1
SampleSet: Normal
StackLeniency: 0.5
Mode: 0
LetterboxInBreaks: 1

[Editor]
Bookmarks: 14755,21465,31422,74870,97887,116268,142133,155583,172137,188691,205246,221798,238220,252832
DistanceSpacing: 1
BeatDivisor: 2
GridSize: 8

[Metadata]
Title:Wonderful World
Artist:Shintani Ryoko
Creator:Evil_Twilight
Version:World
Source:Soshite Ashita no Sekai Yori
Tags:

[Difficulty]
HPDrainRate:7
CircleSize:4
OverallDifficulty:8
ApproachRate:9
SliderMultiplier:1.8
SliderTickRate:1

[Events]
//Background and Video events
0,0,"BG.jpg"
//Break Periods
2,15587,18049
2,19761,20983
2,66945,70283
2,91773,97438
2,135221,138559
//Storyboard Layer 0 (Background)
//Storyboard Layer 1 (Fail)
//Storyboard Layer 2 (Pass)
//Storyboard Layer 3 (Foreground)
//Storyboard Sound Samples
//Background Colour Transformations
3,100,163,162,255

[TimingPoints]
547,517.241379310345,4,2,0,40,1,0
14997,260.869565217391,4,1,0,60,1,0
21583,258.620689655172,4,1,0,60,1,0
22263,258.620689655172,4,1,0,60,1,0
23297,-100,4,2,1,80,0,1
23362,-100,4,2,1,80,0,0
31573,-100,4,2,1,60,0,0
46056,-100,4,2,1,40,0,0
47349,-100,4,2,1,45,0,0
47607,-100,4,2,1,50,0,0
47866,-100,4,2,1,55,0,0
48125,-100,4,2,1,60,0,0
62607,-100,4,1,1,60,0,0
70883,-100,4,2,0,30,0,0
73987,-100,4,1,0,60,0,0
75021,-100,4,1,1,80,0,1
81487,-100,4,1,1,60,0,1
82262,-100,4,1,0,80,0,0
83297,-100,4,1,1,80,0,1
90021,-100,4,2,0,60,0,0
91573,-100,4,2,0,60,0,1
91637,-100,4,2,0,60,0,0
99331,-100,4,1,0,60,0,0
99849,-100,4,2,1,60,0,0
107866,-200,4,2,1,60,0,0
108642,-100,4,2,1,60,0,0
110194,-200,4,2,1,60,0,0
110711,-100,4,2,1,60,0,0
112262,-200,4,2,1,60,0,0
112780,-100,4,2,1,60,0,0
116400,-100,4,2,1,60,0,0
130883,-100,4,1,1,60,0,0
139159,-100,4,2,0,30,0,0
142133,-100,4,2,0,5,0,0
142262,-200,4,2,0,40,0,0
143168,-200,4,2,0,5,0,0
143297,-200,4,2,1,40,0,0
149504,-200,4,2,1,30,0,0
153642,-200,4,1,0,40,0,0
153900,-100,4,1,0,45,0,0
154159,-100,4,1,0,50,0,0
154418,-100,4,1,0,55,0,0
154676,-200,4,2,0,40,0,0
155711,-100,4,1,1,80,0,1
162176,-100,4,1,1,60,0,1
162952,-100,4,1,0,60,0,0
163987,-100,4,1,1,80,0,1
172262,-100,4,1,1,80,0,0
177661,258.620689655172,4,1,1,80,1,0
178436,258.620689655172,4,1,1,80,1,0
188780,-100,4,1,1,60,0,0
193991,258.620689655172,4,1,1,60,1,0
200661,258.620689655172,4,1,1,60,1,0
201496,258.620689655172,4,1,1,60,1,0
204858,-100,4,2,0,60,0,0
205376,258.620689655172,4,1,1,60,1,0
207444,-200,4,1,1,60,0,0
213651,-200,4,1,1,40,0,0
215720,-200,4,1,1,45,0,0
217789,-100,4,1,0,50,0,0
218824,-100,4,1,1,55,0,0
219858,-100,4,1,0,60,0,0
220893,-100,4,2,0,60,0,0
221927,-100,4,1,1,80,0,1
228393,-100,4,1,1,60,0,1
229169,-100,4,1,0,60,0,0
230203,-100,4,1,1,60,0,1
231108,-100,4,1,1,80,0,1
238350,-100,4,1,0,80,0,0
238479,-100,4,1,1,80,0,1
252962,-100,4,1,1,60,0,0

[Colours]
Combo1 : 9,175,255
Combo2 : 255,185,185
Combo3 : 255,91,91
Combo4 : 128,255,255

[HitObjects]
496,88,1064,2,0,B|304:56,1,180,0|2
208,200,2098,1,0
64,96,2615,2,0,B|32:128|48:192,1,90
96,384,3133,2,0,B|162:303|130:215,1,180,0|2
216,56,4167,1,0
216,56,4426,1,0
248,144,4684,6,0,B|352:176|424:104,1,180
480,48,5460,1,0
408,216,5719,2,0,B|392:256|418:303,1,90,2|0
344,352,6236,2,0,B|256:384|168:336,2,180
96,240,7788,2,0,B|192:208|272:256,2,180,2|0|0
408,336,9340,6,0,B|368:240|424:160,1,180,0|2
368,40,10245,1,0
368,40,10374,2,0,B|332:4|264:16,1,90
168,152,10891,2,0,B|213:172|273:138,1,90
96,72,11409,2,0,B|41:84|25:188|81:220,1,180,0|2
224,328,12443,6,0,B|320:312,1,90
264,240,12960,2,0,B|131:263,1,135
88,288,13478,2,0,B|56:248|72:200,1,90
192,72,13995,2,0,B|224:112|208:160,1,90,2|0
120,128,14512,1,0
352,248,14997,6,0,B|392:208|376:160,1,90
160,136,15257,2,0,B|120:176|136:224,1,90
368,88,18649,5,0
400,168,18779,1,0
328,224,18910,1,0
256,168,19040,1,0
280,80,19170,6,0,B|248:48|184:56,1,90
232,304,19431,2,0,B|264:336|328:328,1,90
80,232,21583,5,0
128,56,21712,2,0,B|184:16|272:64|256:128,1,180
224,208,22100,1,0
142,355,22229,2,0,B|128:304|160:272,1,90
336,240,22521,2,0,B|350:291|318:323,1,90
248,264,22780,5,0
232,248,22844,1,0
222,227,22909,1,0
223,202,22974,1,0
231,179,23038,1,0
244,167,23103,1,0
264,157,23168,1,0
282,155,23232,1,0
304,160,23297,6,0,B|256:208|160:160|176:88,1,180,4|8
216,24,23685,1,0
40,64,23814,2,0,B|8:104|45:153,1,90
152,288,24073,2,0,B|159:237|103:213,1,90,8|0
256,104,24331,6,0,B|280:160|368:168|408:120,1,180,0|8
472,56,24719,1,0
512,136,24849,1,0
456,208,24978,1,0
400,280,25107,1,8
432,368,25237,1,0
488,296,25366,6,0,B|464:240|376:232|336:280,1,180,0|8
192,368,25754,2,0,B|245:383|271:344,1,90
240,256,26013,1,0
152,288,26142,1,8
64,264,26271,1,0
64,264,26336,1,0
64,264,26400,6,0,B|16:232|32:176,1,90,0|0
136,40,26659,2,0,B|161:91|119:132,1,90,8|0
224,224,26918,2,0,B|227:166|284:152,1,90,0|0
360,312,27176,2,0,B|328:360|271:344,1,90,8|0
232,80,27435,6,0,B|176:88|128:152|136:224,1,180,0|8
224,224,27823,1,0
256,312,27952,2,0,B|317:319|381:271|389:215,1,180,0|8
304,176,28340,1,0
296,88,28469,2,0,B|240:88|216:144,1,90
168,56,28728,1,8
88,96,28857,5,0
88,184,28987,1,0
176,208,29116,1,0
176,296,29245,1,8
96,328,29375,1,0
32,264,29504,6,8,B|8:216|40:176,1,90,12|8
56,72,29763,1,8
152,304,29892,2,0,B|200:352|288:320|296:256,1,180,8|0
256,176,30280,1,8
320,112,30409,1,8
400,152,30538,1,8
472,264,30668,6,0,B|424:280|384:240,1,90,8|0
331,188,30926,1,0
152,304,31056,6,8,B|208:304|216:248,1,90
136,208,31314,1,8
64,264,31444,1,8
152,304,31573,6,0,B|208:272|224:192|184:136,1,180,4|8
120,88,31961,1,0
168,8,32090,2,0,B|224:-8|256:32,1,90
280,112,32349,2,0,B|336:128|368:88,1,90,8|0
480,24,32607,2,0,B|416:16|368:104|416:160,1,180,0|8
480,208,32995,1,0
440,288,33125,1,0
352,280,33254,1,0
328,192,33383,2,0,B|280:184|248:232,1,90,8|0
48,344,33642,6,0,B|98:373|178:357|210:309,1,180,0|8
163,232,34030,1,0
252,228,34159,2,0,B|216:176|232:88|288:64,1,180,0|8
352,120,34547,1,0
440,112,34676,2,0,B|440:56|384:40,1,90
352,120,34935,1,8
392,248,35064,2,0,B|352:288|248:256|248:184,1,180
264,104,35452,1,8
264,104,35581,1,0
144,40,35711,6,0,B|88:24|48:80,1,90
128,128,35969,1,8
216,152,36099,1,0
240,64,36228,2,0,B|264:16|352:0|400:40,1,180,0|8
368,128,36616,1,0
408,208,36745,2,0,B|464:200|472:152,1,90
464,288,37004,2,0,B|408:276|384:318,1,90,8|0
312,368,37262,2,0,B|256:400|184:384|144:328,1,180,0|8
96,264,37650,1,0
48,344,37780,6,0,B|89:294|87:212|44:178,1,180,0|8
56,88,38168,2,0,B|112:56|192:72|218:120,1,180
248,208,38556,1,8
336,216,38685,1,0
368,128,38814,1,0
296,72,38944,1,0
384,40,39073,1,8
456,96,39202,1,0
368,128,39331,6,0,B|360:176|408:216,1,90
384,344,39590,2,0,B|366:298|305:287,1,90,8|0
146,325,39849,6,0,B|258:349|328:280,1,180,0|8
264,216,40237,1,0
304,136,40366,1,0
392,152,40495,1,0
408,240,40625,1,8
338,204,40754,1,0
304,24,40883,2,0,B|256:-8|168:8|144:80,1,180,0|8
56,224,41271,2,0,B|104:256|192:240|216:168,1,180,0|0
272,120,41659,1,8
336,184,41788,1,0
336,184,41918,6,0,B|360:232|320:280,1,90
184,376,42176,2,0,B|187:322|245:300,1,90,8|0
192,176,42435,2,0,B|162:220|100:210,1,90
8,72,42694,2,0,B|55:48|103:88,1,90,8|0
168,280,42952,6,0,B|240:288|296:216|264:152,1,180,0|8
184,192,43340,2,0,B|320:320,1,180
408,328,43728,2,0,B|456:288|432:224,1,90,8|0
360,200,43987,5,0
344,112,44116,1,0
392,32,44245,1,8
480,16,44375,1,0
464,120,44504,5,0
368,160,44633,1,0
264,128,44762,2,0,B|176:96,1,90,8|0
184,184,45021,6,0,B|352:247,1,180,0|8
336,160,45409,1,0
336,160,45538,2,0,B|264:160|224:240|272:304,1,180
344,336,45926,1,0
168,384,46056,6,0,B|112:400|80:360,1,90
48,280,46314,1,8
48,280,46444,1,8
200,184,46573,2,0,B|256:168|288:208,1,90
320,288,46831,1,8
320,288,46961,1,8
144,272,47090,6,8,B|80:248|72:152|136:120,1,180
128,128,47478,1,8
208,96,47607,1,8
208,96,47737,1,8
296,128,47866,1,8
296,128,47995,1,8
400,48,48125,5,4
488,32,48254,2,0,B|504:80|464:128,1,90,0|8
408,176,48512,1,0
448,328,48642,2,0,B|408:288|320:288|272:328,1,180,0|8
200,368,49030,1,0
56,264,49159,6,0,B|24:184|88:128,1,135
64,96,49418,2,0,B|168:120,1,90,8|0
304,216,49676,1,0
184,80,49806,1,0
264,240,49935,2,0,B|160:216,1,90,8|0
224,48,50194,6,0,B|400:88,1,180,0|8
400,176,50581,1,0
488,184,50711,2,0,B|512:232|472:280,1,90
312,344,50969,2,0,B|288:296|328:248,1,90,8|0
368,184,51228,6,0,B|320:128|232:152,1,135
208,176,51487,2,0,B|176:136|200:88,1,90,8|0
184,0,51745,1,0
96,16,51875,1,0
112,104,52004,1,8
40,160,52133,1,0
120,200,52262,6,0,B|160:232|152:328|112:368,1,180,0|8
176,296,52650,1,0
256,248,52780,2,0,B|312:232|344:280,1,90
416,320,53038,2,0,B|454:294|438:238,1,90,8|0
368,184,53297,2,0,B|336:80|400:16,3,180,0|8|0|8
328,72,54202,1,0
256,128,54331,6,0,B|200:136|176:72,1,90
16,16,54590,2,0,B|50:60|7:113,1,90,8|0
40,280,54849,2,0,B|61:227|128:238,1,90
256,128,55107,2,0,B|200:136|176:72,1,90,8|0
304,32,55366,2,0,B|360:0|448:32|464:96,1,180,0|8
408,152,55754,1,0
440,240,55883,1,0
368,296,56012,1,0
288,248,56142,1,8
312,160,56271,1,8
160,64,56400,6,0,B|99:37|30:106|60:168,1,180,4|8
120,224,56788,1,0
88,312,56918,2,0,B|40:336|0:296,1,90
4,300,57306,1,0
184,296,57435,6,0,B|232:272|272:312,1,90
352,344,57694,2,0,B|344:248,1,90,8|0
248,104,57952,2,0,B|256:200,1,90
432,288,58211,2,0,B|424:192,1,90,8|0
352,88,58469,5,0
352,88,58987,1,0
352,88,59375,1,0
216,88,59504,6,0,B|160:96|136:32,1,90
16,80,59762,2,0,B|71:91|72:159,1,90,8|0
72,320,60021,2,0,B|23:290|46:225,1,90
168,288,60280,2,0,B|202:332|159:385,1,90,8|0
169,371,60538,5,8
256,336,60668,1,8
344,352,60797,1,8
424,312,60926,1,8
392,232,61056,2,0,B|352:184|360:96|416:64,1,180,8|0
480,120,61444,1,0
328,24,61573,5,8
272,96,61702,1,8
248,104,61767,1,8
224,104,61831,1,8
200,96,61896,1,8
184,80,61961,1,8
96,56,62090,2,0,B|40:72|16:152|56:208,1,180,4|0
144,176,62478,1,0
144,312,62607,6,0,B|97:332|57:308,1,90
248,248,62866,2,0,B|294:227|334:251,1,90
408,80,63900,5,0
344,16,64030,1,0
280,80,64159,1,0
344,144,64288,1,0
264,344,64676,5,0
248,256,64806,1,0
160,232,64935,1,0
176,320,65064,1,0
176,320,65129,1,0
176,320,65194,1,0
88,328,65323,1,0
88,328,65387,1,0
88,328,65452,1,0
32,256,65581,1,0
64,176,65711,5,0
152,160,65840,1,0
208,232,65969,1,0
120,248,66099,1,0
64,176,66228,1,0
96,88,66357,1,0
184,80,66487,1,0
240,152,66616,1,0
152,160,66745,5,4
256,192,70883,12,0,73857
288,152,73987,5,0
208,200,74116,1,0
288,240,74245,1,0
295,70,74375,5,0
152,267,74504,1,0
384,192,74633,1,0
152,116,74762,1,0
295,313,74892,1,0
256,192,75021,6,2,B|216:144|120:168|112:240,1,180,6|0
160,312,75409,1,0
40,176,75538,2,2,B|64:128|40:88,1,90,2|0
88,16,75797,1,0
88,16,75926,1,2
192,104,76056,2,0,B|259:116|333:78|347:19,1,180,0|2
424,72,76444,1,0
472,248,76702,1,0
392,208,76831,2,0,B|352:240|376:304,1,90,2|0
208,360,77090,6,0,B|152:368|128:312,1,90,2|0
136,144,77349,2,0,B|188:165|181:225,1,90,2|0
8,160,77607,2,2,B|-21:98|43:20|117:37,1,180,2|0
216,64,77995,2,2,B|256:112|352:104|384:48,1,180,2|0
448,8,78383,1,2
464,96,78512,1,0
392,152,78642,2,0,B|368:192|400:240,1,90,2|0
448,312,78900,2,2,B|432:368|336:384|288:336,1,180,2|0
296,248,79288,5,0
208,232,79418,1,0
144,288,79547,1,0
64,240,79676,2,2,B|40:192|80:152,1,90,2|0
96,72,79935,2,0,B|149:75|164:129,1,90
152,216,80194,6,0,B|200:264|296:248|312:168,3,180,2|0|2|2
288,104,81099,1,0
288,104,81357,1,0
400,48,81487,2,2,B|360:80|382:134,1,90,2|0
448,184,81745,2,2,B|392:240|424:344|424:344|392:296|320:296,1,270,2|0
264,344,82262,5,0
208,272,82392,1,0
216,184,82521,1,0
264,112,82650,1,0
400,112,82780,5,0
416,248,82909,1,0
312,336,83038,1,0
176,312,83168,1,0
96,152,83297,6,0,B|144:184|128:288|70:301,2,180,6|0|2
24,104,83944,1,0
72,32,84073,2,0,B|128:16|168:64,1,90,0|2
208,128,84331,2,0,B|288:144|336:80,1,135
360,56,84590,2,2,B|344:104|384:144,1,90,2|0
464,168,84849,1,0
472,256,84978,1,0
392,288,85107,1,2
336,216,85237,1,0
216,80,85366,6,2,B|256:128|200:216|128:200,1,180,2|0
48,184,85754,1,0
104,112,85883,2,2,B|232:88|220:235|343:215,1,270,2|2
400,152,86400,2,2,B|464:144|504:240|456:288,1,180,0|2
392,344,86788,1,0
232,264,86918,2,0,B|192:296|216:360,1,90,2|0
104,264,87176,2,0,B|144:232|120:168,1,90,2|0
104,48,87435,6,0,B|160:8|248:32|272:104,1,180,4|0
408,336,87952,2,2,B|352:376|264:352|240:280,1,180,2|0
288,224,88340,1,0
200,120,88469,6,0,B|152:104|104:160,1,90,2|0
104,328,88728,2,0,B|153:317|167:245,1,90,2|0
288,224,88987,2,0,B|250:257|274:327,1,90,2|0
432,224,89245,2,0,B|448:176|392:128,1,90,2|0
424,56,89504,5,0
336,72,89633,1,0
248,88,89762,1,0
160,104,89892,1,0
80,152,90021,5,0
128,328,90280,1,0
200,160,90538,1,0
48,256,90797,1,0
232,256,91056,1,0
144,232,91314,1,0
144,232,91573,5,4
432,40,98038,5,2
432,40,98426,1,0
448,128,98556,1,2
448,128,98814,5,2
392,200,98944,1,0
304,184,99073,2,0,B|272:224|304:288,1,90,2|0
384,368,99331,5,0
248,368,99461,1,0
152,272,99590,1,0
192,144,99719,1,0
288,296,99849,6,0,B|368:328|416:264,1,135,12|0
448,304,100107,2,0,B|440:216,1,90
328,80,100366,1,8
472,184,100495,1,0
304,120,100625,1,0
480,144,100754,1,8
480,144,101013,6,0,B|440:120|392:152,1,90
368,232,101271,1,0
288,192,101400,1,8
280,104,101530,1,0
168,32,101659,2,0,B|96:8|40:72,1,135
0,48,101918,6,0,B|16:144,1,90,8|0
152,256,102176,2,0,B|136:160,1,90,0|8
88,336,102435,2,0,B|144:368|216:352|240:288,1,180,8|8
224,200,102823,1,0
272,120,102952,5,0
360,280,103081,1,0
200,352,103211,1,0
104,200,103340,1,8
104,200,103599,6,0,B|120:144|72:104,1,90,0|0
120,32,103857,2,0,B|224:0|304:64,1,180,0|0
288,144,104245,2,0,B|368:168|424:112,1,135,8|0
448,88,104504,2,0,B|488:128|464:192,1,90,8|0
496,256,104763,1,0
424,304,104892,1,8
352,256,105021,5,0
376,168,105150,1,0
312,112,105280,1,0
240,160,105409,1,0
256,248,105538,2,0,B|272:336,1,90,8|0
184,304,105797,2,0,B|152:104,1,180
72,88,106185,5,0
144,32,106314,1,0
224,72,106444,1,8
240,160,106573,5,8
216,336,106702,2,0,B|272:376|352:352|368:280,1,180
368,200,107090,1,0
443,249,107219,1,0
364,292,107349,5,8
288,240,107478,1,8
216,184,107607,1,8
144,128,107737,1,8
64,80,107866,2,0,B|32:104|40:152,1,67.5
72,176,108125,6,0,B|112:248|72:352,1,180,0|8
120,272,108771,1,8
208,256,108900,1,8
288,296,109030,1,8
376,328,109159,6,0,B|400:272|352:232,1,90,8|0
504,128,109418,2,0,B|443:135|432:196,1,90,12|0
352,152,109676,1,8
352,152,109806,2,0,B|312:112|224:120|192:176,1,180,4|0
144,248,110194,6,0,B|192:200|168:104|104:88,1,180,0|8
120,96,111099,1,8
120,96,111228,1,8
184,32,111357,1,0
256,88,111487,1,8
272,176,111616,1,0
360,208,111745,1,8
448,176,111875,1,0
376,120,112004,2,0,B|328:168|360:256,1,135,0|0
384,288,112263,6,0,B|344:336|248:320|232:248,1,180,0|8
235,259,113168,6,8,B|187:243|147:283,1,90
24,240,113426,2,0,B|73:229|88:175,1,90,0|8
40,104,113685,1,0
40,104,113814,1,8
112,48,113944,1,0
152,224,114073,2,0,B|176:280|264:296|304:240,1,180,0|0
360,176,114461,1,0
440,216,114590,2,0,B|464:256|432:305,1,90
344,320,114849,5,8
272,264,114978,1,0
184,248,115107,1,8
96,280,115237,1,8
32,336,115366,5,8
16,248,115495,1,0
32,160,115625,1,8
104,104,115754,1,0
192,96,115883,1,8
192,96,116013,1,8
280,120,116142,1,8
280,120,116271,1,8
328,288,116400,5,4
400,344,116530,2,0,B|440:296|408:248,1,90,0|8
368,184,116788,1,0
496,24,116918,2,0,B|448:40|428:133|463:184,1,180,0|8
416,260,117306,1,0
368,184,117435,5,0
280,208,117564,1,0
200,160,117694,1,8
208,72,117823,1,0
208,72,117888,1,0
208,72,117952,2,0,B|160:56|128:104,1,90
72,272,118211,2,0,B|122:270|136:214,1,90,8|0
296,144,118469,6,0,B|232:160|208:240|248:296,2,180,0|8|0
432,256,119245,1,8
488,184,119375,1,0
424,120,119504,6,0,B|408:72|440:32,1,90
352,24,119763,2,0,B|304:8|264:40,1,90,8|0
256,128,120021,2,0,B|208:160|120:128|112:64,1,180,0|8
24,136,120409,2,0,B|84:143|116:231|84:279,1,180
136,352,120797,2,0,B|192:368|224:328,1,90,8|0
264,208,121056,6,0,B|304:160|416:192|416:256,2,180,0|8|0
184,256,121702,1,0
136,176,121831,2,0,B|120:128|152:88,1,90,8|0
80,32,122090,2,0,B|32:64|16:136|48:208,1,180,0|8
24,280,122478,1,0
88,344,122607,6,0,B|144:352|168:312,1,90
256,344,122866,2,0,B|290:299|268:258,1,90,8|0
344,216,123125,2,0,B|322:163|276:162,1,90,0|8
264,72,123383,2,0,B|208:64|184:104,1,90,8|0
112,48,123642,6,0,B|168:64|184:160|136:208,1,180,8|0
48,208,124030,1,8
96,288,124159,1,8
184,288,124288,1,8
240,216,124418,1,8
328,184,124547,1,8
376,312,124676,6,0,B|334:270|350:174|406:158,1,180,4|8
480,216,125064,1,0
488,128,125194,2,0,B|488:64|376:40|336:96,1,180,0|8
280,152,125581,1,0
280,152,125646,1,0
280,152,125711,6,0,B|232:168|192:120,1,90
72,72,125969,2,0,B|110:97|94:153,1,90,8|0
32,216,126228,1,0
32,216,126357,1,0
88,336,126487,2,0,B|128:368|192:352|208:304,1,135,8|0
232,280,126745,6,0,B|288:264|320:312,1,90
360,224,127004,1,8
440,272,127133,1,0
400,352,127263,2,0,B|352:224|480:192|424:80,1,270
320,8,127780,6,0,B|272:-16|224:32,1,90
208,104,128038,2,0,B|256:128|304:80,1,90,8|0
152,40,128297,1,0
88,104,128426,1,0
128,184,128556,1,8
104,272,128685,1,0
152,352,128814,2,0,B|168:296|272:280|312:328,1,180,0|8
336,240,129202,1,0
464,296,129331,6,0,B|512:264|523:171|480:128,1,180,0|8
400,160,129719,1,0
424,72,129849,5,8
344,24,129978,1,8
256,32,130107,1,8
200,104,130237,1,8
88,312,130366,5,8
168,360,130495,1,8
256,352,130625,1,8
312,280,130754,1,8
392,168,130883,6,0,B|440:192|424:264,1,90
120,216,131142,2,0,B|72:192|88:120,1,90
344,312,132176,5,0
336,224,132306,1,0
256,264,132435,1,0
264,352,132564,1,0
64,168,132952,5,0
120,96,133081,1,0
192,152,133211,1,0
136,224,133340,1,0
176,304,133469,5,0
264,320,133599,1,0
336,264,133728,1,0
424,272,133857,1,0
464,352,133987,1,0
424,272,134116,1,0
456,184,134245,5,0
400,16,134375,1,0
272,144,134504,1,0
480,88,134633,1,0
352,216,134763,1,0
296,48,134892,1,0
376,120,135021,5,4
256,192,139159,12,0,142133
480,128,142263,6,0,B|392:152|320:88,1,157.5
328,72,142780,2,0,B|256:40|200:96,1,135
120,184,143297,6,0,B|144:136|104:96,1,90
40,48,143814,1,0
224,176,144073,2,0,B|168:248|208:360,1,180
96,264,144849,2,0,B|48:256|16:296,1,90
304,344,145366,6,0,B|416:360|464:264,1,180
408,152,146142,2,0,B|296:136|248:232,1,180
216,304,146918,1,0
216,304,147176,1,0
88,264,147435,6,0,B|48:224|72:176,1,90,0|0
192,48,147952,2,0,B|206:102|161:132,1,90,0|0
240,240,148469,2,0,B|254:185|308:182,1,90,0|0
480,224,148987,2,0,B|440:264|392:240,1,90,0|0
408,64,149504,5,8
360,136,149763,1,8
360,136,149892,1,8
360,136,150021,2,0,B|304:144|280:88,1,90,8|0
232,24,150538,2,0,B|184:8|144:48,1,90,8|8
152,88,150926,1,8
160,136,151056,2,0,B|176:232,1,90,8|0
168,360,151573,6,0,B|248:384|304:320,1,135,8|0
328,360,152090,2,0,B|304:312|336:264,1,90,8|0
328,272,152737,1,8
328,272,152866,1,8
472,120,153125,2,0,B|504:184|464:264,1,135
472,248,153642,5,0
384,264,153771,1,0
336,184,153900,1,0
392,112,154030,1,0
344,40,154159,1,0
256,16,154288,1,0
168,40,154418,1,0
128,120,154547,1,0
168,200,154676,6,0,B|96:176|24:224,1,135
344,184,155194,2,0,B|416:208|488:160,1,135
256,104,155711,6,2,B|224:144|256:184|288:224|256:280,1,180,6|0
184,328,156099,1,0
264,368,156228,2,2,B|320:384|352:336,1,90,2|0
368,256,156487,1,0
368,256,156616,1,2
472,160,156745,2,0,B|424:184|400:272|456:344,2,180,0|2|0
432,80,157392,1,0
376,152,157521,2,0,B|280:128,1,90,2|0
128,216,157780,6,0,B|224:240,1,90,2|0
328,304,158038,2,0,B|300:208,1,90,2|0
368,8,158297,2,2,B|236:148,1,180,2|0
216,56,158685,2,2,B|280:32|352:96|336:168,1,180,2|0
424,136,159073,6,0,B|440:184|392:224,1,90,2|0
240,304,159331,2,0,B|250:254|311:243,1,90,2|0
272,112,159590,2,0,B|238:149|179:128,1,90,2|0
40,24,159849,5,0
40,24,160107,1,0
208,88,160366,2,2,B|192:184,1,90,2|0
120,120,160625,2,0,B|88:304,1,180,0|2
216,208,161013,1,0
232,360,161142,1,2
128,216,161271,1,0
264,280,161400,1,2
144,368,161530,1,0
176,288,161659,2,2,B|208:104,1,180,2|0
206,110,162047,1,0
272,232,162176,6,2,B|320:256|360:216,1,90,2|0
392,136,162435,2,2,B|336:160|352:224|352:224|408:232|440:304|400:368,1,270,2|0
328,304,162952,5,0
272,232,163081,1,0
280,144,163211,1,0
336,72,163340,1,0
232,320,163469,5,0
104,272,163599,1,0
56,144,163728,1,0
96,16,163857,1,0
272,8,163987,6,2,B|336:8|392:80|360:160,1,180,6|0
280,144,164375,1,0
328,224,164504,2,2,B|286:273|195:269|154:193,1,180,2|0
192,128,164892,1,2
104,144,165021,2,2,B|64:160|48:216|80:264,1,135,0|0
48,296,165280,2,2,B|104:288|136:328,1,90,2|0
208,368,165538,2,0,B|312:400|384:344,1,180,0|2
368,256,165926,1,0
472,208,166056,6,0,B|456:296,2,90,2|0|2
416,136,166444,1,0
448,48,166573,2,2,B|408:0|312:24|304:88,1,180,2|0
304,88,166961,1,2
272,216,167090,6,0,B|224:240|184:192,1,90
160,112,167349,2,0,B|184:16,1,90,2|0
56,72,167607,2,0,B|32:168,1,90,2|0
88,288,167866,2,0,B|112:192,1,90,2|0
240,72,168125,5,0
240,72,168254,1,0
240,72,168383,1,0
272,160,168513,1,0
352,120,168642,2,2,B|296:144|280:224|320:288,1,180,2|0
248,344,169030,1,0
120,312,169159,5,2
72,240,169288,1,0
144,48,169418,1,2
149,134,169547,1,0
248,224,169676,1,2
286,147,169806,1,0
488,128,169935,1,2
416,175,170064,1,0
424,264,170194,6,0,B|440:304,2,45
352,320,170452,2,0,B|336:360,2,45
296,200,170711,5,4
256,120,170840,1,0
296,40,170969,1,0
368,96,171099,1,0
208,192,171228,6,0,B|128:152,1,90
256,120,171487,2,0,B|336:160,1,90
384,288,171745,2,0,B|344:240|376:152|440:144,2,180,0|0|4
384,288,172392,5,0
384,288,172521,1,0
384,288,172650,1,0
288,192,172780,2,0,B|248:152|152:168|136:240,1,180
136,232,173297,5,0
96,152,173426,1,0
208,16,173685,1,0
248,96,173814,2,0,B|286:134|382:118|395:56,1,180
480,32,174202,1,0
416,152,174331,6,0,B|384:192|416:248,1,90
272,352,174719,2,0,B|304:312|272:256,1,90
304,184,174978,1,0
216,200,175107,1,0
192,288,175237,1,0
136,352,175366,5,0
48,248,175495,1,0
72,112,175625,1,0
176,32,175754,1,0
304,72,175883,5,0
200,216,176013,1,0
344,328,176142,1,0
464,192,176271,1,0
336,200,176400,5,4
336,200,176530,1,0
336,200,176659,1,0
336,200,176788,1,0
248,208,176918,2,0,B|192:200|192:128,1,90
224,64,177176,2,0,B|280:72|280:144,1,90
136,72,177435,5,0
136,72,177564,2,0,B|88:96|72:184|136:176|136:256|72:312,1,247.5
32,224,178048,1,0
120,208,178178,1,0
176,280,178307,1,0
352,240,178436,5,0
352,240,178565,1,0
352,240,178823,1,0
440,272,178953,2,0,B|472:232|456:176,1,90
440,8,179211,2,0,B|408:48|424:104,1,90
368,168,179470,5,0
280,192,179599,1,0
192,160,179729,1,0
144,80,179858,1,0
184,0,179987,5,0
280,96,180117,1,0
264,232,180246,1,0
168,328,180375,1,0
32,320,180504,5,4
192,232,180634,1,0
16,208,180763,1,0
144,336,180892,1,0
112,160,181022,2,0,B|136:112|96:64,1,90
224,144,181280,2,0,B|200:192|240:240,1,90
304,280,181539,5,0
464,200,181668,1,0
464,200,181927,1,0
424,120,182056,2,0,B|376:104|336:144,1,90
304,224,182315,2,0,B|256:240|220:204,1,90
184,120,182573,1,0
56,168,182703,2,0,B|8:192|-8:280|32:328,1,180
120,360,183091,5,0
184,296,183220,1,0
272,272,183349,1,0
360,288,183479,1,0
424,352,183608,5,0
360,288,183737,1,0
336,200,183867,1,0
352,112,183996,1,0
416,48,184125,5,0
352,112,184254,1,0
264,136,184384,1,0
176,120,184513,1,0
104,64,184642,6,0,B|40:64|8:160|64:208,1,180,4|0
136,248,185030,1,0
104,336,185160,2,0,B|56:360|16:312,1,90
208,192,185418,2,0,B|256:168|296:216,1,90
320,296,185677,1,0
464,192,185806,5,0
392,136,185936,1,0
440,56,186065,1,0
360,16,186194,2,0,B|312:0|272:40,1,90
248,120,186453,2,0,B|200:136|160:96,1,90
136,16,186711,1,0
224,208,186841,2,0,B|288:184|360:216|376:280,1,180
416,352,187229,5,0
472,280,187358,1,0
424,200,187487,1,0
456,112,187617,1,0
368,8,187746,5,0
280,24,187875,1,0
224,96,188004,1,0
240,184,188134,1,0
152,152,188263,5,0
192,280,188392,1,0
320,312,188522,1,0
432,240,188651,1,0
448,96,188780,6,0,B|264:64,1,180,4|0
64,192,189298,2,0,B|248:160,1,180
448,288,189815,2,0,B|264:256,1,180
64,376,190332,2,0,B|248:344,1,180
240,344,190720,1,0
328,320,190849,6,0,B|376:280|352:184|288:176,1,180
208,208,191237,1,0
168,128,191367,2,0,B|152:72|200:40,1,90
256,280,191625,2,0,B|272:336|224:368,1,90
160,312,191884,5,0
80,360,192013,2,0,B|24:328|8:248|48:192,1,180
128,200,192401,1,0
80,120,192530,2,0,B|112:64|192:48|237:81,1,180
248,128,192854,1,0
280,160,192918,6,0,B|328:192|424:168|432:112,1,180,4|0
408,24,193306,1,0
344,88,193436,2,0,B|392:280,1,180
168,88,193991,2,0,B|120:280,1,180
160,344,194378,1,0
80,376,194508,6,0,B|32:392|0:336,1,90
232,296,194766,2,0,B|280:280|312:336,1,90
392,368,195025,2,0,B|448:336|464:256|424:208,1,180
336,224,195413,1,0
336,224,195542,1,0
368,136,195672,1,0
288,104,195801,2,0,B|272:48|312:8,1,90
200,168,196059,5,0
112,192,196189,1,0
48,128,196318,1,0
312,328,196577,1,0
400,352,196707,1,0
464,288,196836,1,0
464,288,197094,6,0,B|432:240|448:192,1,90,4|0
504,136,197353,1,0
504,136,197482,1,0
416,32,197611,2,0,B|376:0|280:16|256:72,1,180
280,160,197999,1,0
136,120,198128,5,0
136,120,198258,1,0
48,112,198387,2,0,B|80:144|64:200,1,90
128,360,198646,2,0,B|99:260|155:188,2,180
208,312,199292,1,0
352,200,199551,1,0
432,248,199680,2,0,B|448:296|400:344,1,90
280,144,199939,2,0,B|264:96|312:48,1,90
384,24,200197,5,0
352,200,200327,2,0,B|296:256|232:216|232:216|176:208|152:256,1,225
104,336,200790,1,0
40,272,200919,1,0
72,184,201048,1,0
24,104,201178,6,0,B|104:64|136:112|176:176|240:128,1,225,4|0
272,56,201625,1,0
360,80,201754,2,0,B|424:80|464:160|424:216,1,180
408,304,202142,1,0
408,304,202271,2,0,B|344:304|304:224|344:168,1,180
272,112,202659,1,0
245,198,202789,2,0,B|189:206|157:166,1,90
342,171,203047,2,0,B|398:163|430:203,1,90
344,24,203311,5,4
130,202,203564,1,4
446,146,203823,1,4
234,324,204082,1,4
185,51,204340,1,4
391,297,204599,1,4
289,174,204858,1,0
289,174,205376,5,4
289,174,207444,1,0
456,104,207962,2,0,B|400:120|389:197|429:237,1,157.5,4|0
448,248,208479,2,0,B|398:226|366:266,1,90
328,352,208867,1,0
240,336,208996,1,0
216,248,209126,1,0
264,168,209255,1,0
224,88,209384,1,0
136,96,209513,1,4
136,96,209901,1,0
136,96,210031,6,0,B|160:160|120:240,1,135
88,248,210548,2,0,B|72:296|104:336,1,90
192,352,211065,1,0
192,352,211194,2,0,B|288:336,1,90
272,248,211582,6,0,B|326:238|360:272,1,90
432,312,212100,2,0,B|422:257|456:224,1,90
452,227,212488,1,0
504,152,212617,5,0
448,80,212746,1,0
360,112,212876,1,0
368,200,213005,1,0
296,248,213135,1,0
232,184,213264,1,0
264,96,213393,1,0
264,96,213651,6,0,B|248:40,1,45,4|0
176,104,213910,2,0,B|134:63,1,45
112,160,214169,2,0,B|55:145,1,45
88,240,214427,2,0,B|32:256,1,45
104,320,214686,6,0,B|160:304,1,45
168,224,214944,2,0,B|224:238,1,45
272,168,215203,2,0,B|313:208,1,45
392,184,215462,2,0,B|407:239,1,45
336,344,215720,6,0,B|323:300,1,45
160,48,215979,2,0,B|172:91,1,45
400,96,216238,2,0,B|357:108,1,45
112,288,216496,2,0,B|155:276,1,45
392,184,216755,6,0,B|435:172,1,45
120,200,217013,2,0,B|77:212,1,45,4|0
264,328,217272,2,0,B|276:371,1,45
248,56,217531,2,0,B|236:13,1,45,4|0
328,16,217789,5,0
399,76,217919,1,0
377,161,218048,1,0
290,189,218177,1,0
215,136,218307,1,0
124,129,218436,1,0
87,209,218565,1,0
135,286,218695,1,0
224,264,218824,5,0
160,144,218953,1,0
40,208,219082,1,0
104,328,219212,1,0
224,264,219341,5,0
304,104,219470,1,0
464,184,219600,1,4
384,344,219729,1,0
224,264,219858,5,0
224,264,220117,1,0
224,264,220375,1,0
224,264,220634,1,0
224,264,220893,1,0
224,264,221410,1,0
48,176,221927,6,2,B|109:204|184:152|169:89,1,180,6|0
248,144,222315,1,0
248,144,222444,2,2,B|304:160|336:120,1,90,2|0
352,40,222703,1,0
440,24,222832,1,2
440,24,222897,1,0
440,24,222962,1,0
504,88,223091,1,0
408,176,223220,2,2,B|360:216|368:296|424:336,1,180,2|0
419,333,223608,1,0
272,232,223738,6,0,B|224:216|184:256,1,90,2|0
16,288,223996,2,0,B|65:277|80:223,1,90,2|0
24,152,224255,1,0
24,152,224384,1,0
104,48,224513,2,2,B|159:9|249:49|246:113,1,180,2|0
360,248,224901,2,2,B|304:286|214:246|217:182,1,180,2|0
304,176,225289,5,2
360,248,225419,1,0
448,224,225548,2,0,B|434:179|466:139,1,90,2|0
432,56,225807,2,2,B|392:8|296:24|280:96,1,180,2|0
304,176,226194,1,0
208,32,226324,2,0,B|160:16|126:56,1,90
112,144,226582,6,2,B|64:136|48:96|48:96|88:184|32:288,1,270,2|0
80,360,227100,1,2
144,296,227229,2,0,B|200:280|240:328,1,90,0|2
304,264,227488,1,0
344,344,227617,2,0,B|320:288|344:208|408:192,1,180,2|2
488,168,228005,1,0
464,80,228134,2,0,B|432:40|376:64,1,90
320,128,228393,6,2,B|265:130|249:82,1,90,2|0
136,16,228651,2,2,B|81:47|80:144|150:116|147:229|85:258,1,270,2|0
120,344,229169,2,2,B|152:256|304:232|360:304,1,270,2|0
464,368,229686,1,2
496,240,229815,1,0
400,152,229944,1,0
424,16,230074,1,0
424,16,230138,1,0
424,16,230203,5,4
320,104,230332,1,4
80,64,230462,1,4
160,280,230591,1,4
208,24,230720,1,4
56,192,230850,1,4
288,240,230979,1,4
184,152,231108,2,0,B|183:76|303:36|359:100,1,225
384,136,231496,2,0,B|368:80|408:40,1,90
480,16,231755,1,0
464,104,231884,1,0
488,192,232013,2,0,B|504:248|464:288,1,90,2|0
400,224,232272,5,2
328,280,232401,2,0,B|297:242|313:194,1,90,0|2
224,208,232660,1,0
213,56,232789,2,2,B|158:24|71:81|92:158,1,180,2|0
97,230,233177,1,2
171,279,233307,1,0
268,140,233436,2,0,B|230:109|177:134,1,90,0|2
261,283,233694,2,0,B|267:225|217:204,1,90,0|2
97,230,233953,1,0
97,230,234082,2,0,B|56:277|96:368|169:363,2,180,2|0|0
8,72,234858,6,2,B|48:120|144:96|160:32,1,180,2|0
224,104,235246,1,0
224,104,235375,2,0,B|272:88|312:128,1,90,2|0
416,272,235634,2,0,B|366:261|351:207,1,90,2|0
224,240,235893,2,0,B|261:273|247:328,1,90,2|0
72,288,236151,2,0,B|56:240|95:200,1,90,2|0
168,152,236410,5,0
88,112,236539,1,0
16,160,236669,1,0
16,160,236733,1,0
16,160,236798,1,0
168,152,236927,6,0,B|203:116|187:68,1,90,4|0
256,8,237186,2,0,B|304:-8|339:27,1,90
320,112,237444,1,0
432,24,237574,1,0
392,168,237703,1,0
464,112,237832,1,0
472,200,237962,2,0,B|416:216|392:304|432:360,1,180
376,280,238350,1,0
304,224,238479,6,0,B|256:208|216:256,1,90,4|0
104,112,238738,2,0,B|114:161|175:172,1,90
104,336,238996,2,0,B|141:302|120:243,1,90
304,224,239255,2,0,B|256:208|215:256,1,90
288,304,239513,5,0
376,280,239643,1,0
384,192,239772,1,0
312,136,239901,1,0
376,72,240031,2,0,B|432:56|464:104,1,90
288,48,240289,2,0,B|232:64|200:16,1,90
160,104,240548,2,0,B|120:56|24:72|8:144,1,180
96,168,240936,1,0
72,256,241065,6,0,B|120:272|160:232,1,90
232,184,241324,1,0
280,256,241453,1,0
208,312,241582,2,0,B|256:272|344:288|368:360,1,180
448,320,241970,1,0
384,256,242100,2,0,B|368:176|440:160|424:80,1,180
336,104,242488,1,0
280,32,242617,6,0,B|232:16|184:56,1,90
112,208,242875,2,0,B|161:197|183:139,1,90
312,128,243134,2,0,B|274:161|284:223,1,90
376,360,243393,2,0,B|391:312|351:264,1,90
264,312,243651,6,0,B|208:312|192:256|192:256|144:216|64:232|40:296,1,270
16,200,244169,2,0,B|48:152|24:104,1,90
112,8,244427,2,0,B|108:65|153:95,1,90
128,176,244686,2,0,B|120:112|208:64|264:112,1,180
312,176,245074,1,0
352,256,245203,2,0,B|304:297|216:249|224:185,1,180
256,104,245591,1,0
336,56,245720,6,0,B|392:56|408:112,1,90
496,88,245979,2,0,B|480:176,1,90
376,288,246238,2,0,B|392:200,1,90
312,352,246496,2,0,B|256:352|240:296,1,90
264,168,246755,5,4
184,128,246884,1,0
104,168,247013,1,0
88,256,247143,1,0
16,200,247272,2,0,B|40:152|0:104,1,90
64,40,247531,1,0
64,40,247660,1,0
104,168,247789,6,0,B|160:208|240:184|256:112,1,180
216,40,248177,1,0
304,24,248307,1,0
304,24,248436,2,0,B|360:8|392:56,1,90
384,136,248694,1,0
464,96,248824,6,0,B|408:112|392:200|440:256,1,180
504,304,249212,1,0
440,368,249341,2,0,B|392:384|360:328,1,90
288,376,249600,2,0,B|250:342|282:286,1,90
192,304,249858,2,0,B|168:240|216:168|280:168,1,180
344,224,250246,1,0
432,160,250375,2,0,B|383:174|351:134,1,90
416,72,250634,1,4
416,72,250763,1,0
272,168,250893,6,0,B|224:120|136:136|112:216,1,180
96,280,251281,1,0
176,320,251410,6,0,B|168:392,2,60
224,280,251669,1,0
280,304,251755,2,0,B|346:274,2,60
224,280,252013,1,0
208,224,252100,2,0,B|149:181,2,60
224,280,252358,1,0
280,304,252444,1,0
336,280,252531,1,0
344,224,252617,1,0
368,168,252703,1,0
424,144,252789,1,0
480,168,252875,1,0
488,224,252962,5,4
416,280,253091,1,0
344,224,253220,1,0
360,136,253350,1,0
360,136,253867,1,0
312,56,253996,5,0
168,168,254255,1,0
240,0,254513,1,0
256,176,254772,1,0
224,88,254901,1,0
224,88,254966,1,0
224,88,255031,6,0,B|128:56,1,90,4|0
56,88,255289,2,0,B|32:128|72:176,1,90
176,352,255548,2,0,B|219:310|203:214|147:198,1,180
80,256,255936,1,0
80,256,256194,1,0
184,104,256324,5,0
264,64,256453,1,0
336,112,256582,2,0,B|392:120|416:56,1,90
488,32,256841,2,0,B|480:120,1,90
384,216,257100,5,0
360,304,257229,1,0
432,360,257358,1,0
456,272,257488,2,0,B|360:240|312:360|192:304,1,270
112,336,258005,2,0,B|72:280|80:200|136:168,1,180
256,224,258393,5,0
352,128,258522,1,0
272,16,258651,1,0
136,32,258781,1,0
136,32,259039,1,0
232,112,259169,6,0,B|208:152|144:144,1,90
72,104,259427,1,0
72,104,259557,2,0,B|136:112|160:192|112:248,1,180
56,312,259944,1,0
136,360,260074,2,0,B|192:360|208:304,1,90
208,224,260332,1,0
340,338,260462,5,0
288,264,260591,1,0
301,174,260720,1,0
368,112,260850,1,0
368,112,261108,1,0
368,112,261173,1,0
368,112,261238,5,4
323,39,261367,1,0
232,40,261496,1,0
168,104,261625,2,0,B|112:120|80:72,1,90
152,16,261884,5,0
272,152,262142,1,0
96,192,262401,1,0
96,192,262531,6,0,B|112:240|80:288,1,90
16,336,262789,1,0
16,336,262919,2,0,B|64:288|160:312|176:376,1,180
256,256,263307,5,0
344,232,263436,1,0
416,288,263565,1,0
384,368,263694,2,0,B|312:248|488:224|400:96,1,270
416,24,264212,2,0,B|368:-8|288:8|256:72,1,180
272,200,264600,5,0
144,240,264729,1,0
60,134,264858,1,0
126,15,264988,1,0
126,15,265246,1,0
260,64,265375,6,0,B|280:112|240:160,1,90,0|0
160,160,265634,1,0
296,352,265763,2,0,B|261:297|285:217|344:192,1,180
424,216,266151,1,0
416,128,266281,1,0
416,128,266539,1,0
336,80,266669,5,0
256,120,266798,1,0
168,104,266927,1,0
136,16,267057,1,0
88,280,267444,5,0
192,296,267574,1,0
296,312,267703,1,0
400,328,267832,1,0
