osu file format v7

[General]
AudioFilename: crossing days.mp3
AudioLeadIn: 0
PreviewTime: 20724
Countdown: 0
SampleSet: Soft
StackLeniency: 0.7
Mode: 0
LetterboxInBreaks: 1

[Editor]
Bookmarks: 7276,99966,106587,162862,242311
DistanceSpacing: 1
BeatDivisor: 4
GridSize: 8

[Metadata]
Title:Crossing Days
Artist:Shintani Ryoko
Creator:Ex Boy
Version:Ex Days
Source:Kurenai
Tags:

[Difficulty]
HPDrainRate:5
CircleSize:4
OverallDifficulty:7
SliderMultiplier:1.6
SliderTickRate:1

[Events]
//Background and Video events
0,0,"BG.jpg"
//Break Periods
2,20511,22928
2,100166,105687
2,163062,165273
2,167820,168583
2,171130,171893
2,186235,186790
2,187890,188445
2,189545,190100
//Storyboard Layer 0 (Background)
//Storyboard Layer 1 (Fail)
//Storyboard Layer 2 (Pass)
//Storyboard Layer 3 (Foreground)
//Storyboard Sound Samples
//Background Colour Transformations
3,100,255,255,255

[TimingPoints]
656,413.793103448276,4,1,1,60,1,0
23724,-100,4,2,1,60,0,0
33656,-100,4,1,1,60,0,0
33862,-100,4,2,1,60,0,0
41311,-100,4,2,1,40,0,0
41518,-100,4,2,1,60,0,0
66552,-100,4,2,1,30,0,0
66862,-100,4,2,1,60,0,0
84759,-100,4,2,1,40,0,0
85897,-100,4,2,1,60,0,0
99862,-100,4,1,1,60,0,0
100069,-100,4,2,1,60,0,0
112069,-100,4,2,1,40,0,0
112483,-100,4,2,1,60,0,0
125518,-100,4,2,1,40,0,0
126345,-200,4,2,1,40,0,0
130690,-100,4,2,1,60,0,0
138449,-100,4,2,1,40,0,0
138862,-100,4,1,1,60,0,0
138966,-100,4,2,1,60,0,0
145380,-100,4,2,1,40,0,0
145897,-100,4,2,1,60,0,0
152000,-100,4,2,1,40,0,0
152931,-100,4,2,1,60,0,0
158414,-100,4,2,1,40,0,0
172690,-100,4,2,1,60,0,0
176828,-100,4,2,1,40,0,0
177242,-100,4,2,1,60,0,0
185931,-100,4,1,1,60,0,0
198345,-100,4,2,1,40,0,0
198966,-100,4,2,1,60,0,0
211587,-100,4,2,1,40,0,0
212518,-100,4,2,1,60,0,0
225656,-100,4,2,1,60,0,0
238690,-100,4,1,1,80,0,0
238897,-100,4,2,1,1,0,0

[Colours]
Combo1 : 250,238,5
Combo2 : 245,63,118
Combo3 : 248,78,235
Combo4 : 100,92,245

[HitObjects]
256,48,7276,1,0
400,192,7690,1,0
256,336,8104,1,0
112,192,8518,1,0
112,192,8724,2,0,B|16:192,2,80
184,160,9345,1,0
256,192,9552,2,0,B|352:192,2,80
256,192,10173,1,0
464,344,10587,6,0,B|352:344|368:224,1,160
408,176,11207,1,0
336,136,11414,1,0
296,208,11621,1,0
144,248,12035,6,0,B|228:201|204:72,1,160
168,48,12656,1,0
128,112,12862,1,0
208,112,13069,1,0
248,48,13276,1,0
337,48,13483,2,0,B|288:112,1,80
248,176,13897,6,0,B|296:96|400:120,1,160
312,256,14724,2,0,B|262:319,2,80
384,216,15345,2,0,B|433:152,2,80
384,296,15966,1,0
384,216,16173,2,0,B|368:128|288:88,1,160
293,90,16793,1,0
104,192,17207,5,0
104,192,17414,1,0
256,344,17828,5,0
256,344,18035,1,0
408,192,18449,5,0
408,192,18656,1,0
256,40,19069,5,0
256,40,19276,1,0
256,192,19690,5,0
216,264,19897,1,0
256,280,20000,1,0
296,264,20104,1,0
256,192,20311,1,4
256,192,23828,5,8
176,56,24242,1,0
256,80,24449,1,8
336,104,24656,1,0
336,280,25069,6,0,B|168:328,1,160,0|8
182,323,25690,1,0
32,264,26104,6,0,B|80:232|80:144|24:120,1,160,8|0
34,125,26724,1,0
184,192,27138,1,8
184,112,27345,6,0,B|184:200,1,80
256,152,27759,1,8
256,232,27966,2,0,B|88:136,1,160
112,232,28587,1,0
184,192,28793,1,8
256,232,29000,1,0
184,272,29207,1,0
184,272,29414,1,8
256,312,29621,6,0,B|256:224,1,80
328,272,30035,2,0,B|248:320,1,80
248,232,30449,2,0,B|392:144,1,160,8|0
448,104,31069,1,8
368,104,31276,2,0,B|280:104,1,80
328,176,31690,2,0,B|416:176,1,80
448,104,32104,6,0,B|392:32|296:32,1,160,8|0
256,96,32724,1,8
200,32,32931,1,2
160,32,33035,1,2
120,48,33138,1,8
88,72,33242,1,2
64,104,33345,1,8
56,144,33449,1,2
56,184,33552,1,2
136,192,33759,5,4
216,200,33966,5,0
192,280,34173,1,8
128,328,34380,1,0
48,336,34587,2,0,B|128:312|208:360,1,160,8|0
192,280,35207,1,0
232,208,35414,2,0,B|336:208,2,80,8|0|0
232,208,36035,1,8
208,128,36242,5,0
232,208,36449,1,0
288,272,36656,1,0
360,312,36862,1,0
288,352,37069,2,8,B|264:264|336:192,1,160
392,160,37690,1,0
472,168,37897,6,0,B|384:176|312:120,1,160,8|0
256,80,38518,1,0
184,40,38724,2,0,B|96:40,1,80,8|0
48,192,39345,2,0,B|144:192|184:280,1,160,8|0
178,268,39966,1,0
336,112,40380,5,0
336,32,40587,5,0
408,72,40793,1,8
408,152,41000,1,0
336,192,41207,2,8,B|256:152,1,80
264,80,41621,1,0
192,32,41828,2,0,L|192:128,2,80,0|8|0
120,72,42449,1,0
120,152,42656,1,8
192,192,42862,6,0,L|296:192,1,80,8|0
232,264,43276,2,0,L|144:264,1,80
112,336,43690,2,8,L|272:336,1,160
272,336,44311,1,0
352,336,44518,1,8
408,280,44724,1,8
352,224,44931,1,0
296,280,45138,1,0
240,224,45345,2,0,B|192:144|248:64,1,160,8|0
304,24,45966,5,8
304,32,46069,1,8
304,40,46173,1,8
304,48,46276,1,8
304,56,46380,1,8
304,64,46483,1,8
304,72,46587,1,8
304,152,46793,5,0
304,152,46897,1,0
304,152,47000,2,8,B|408:176|464:152,2,160
240,104,48035,1,0
304,152,48242,2,0,B|336:200|312:264,1,80,8|0
296,304,48656,2,0,B|224:240,1,80,8|0
160,272,49069,2,0,B|224:328,1,80,8|0
144,360,49483,1,2
104,360,49587,1,2
64,352,49690,1,2
32,328,49793,1,2
8,296,49897,1,8
0,216,50104,5,0
40,224,50207,1,0
80,232,50311,1,8
80,232,50518,1,0
128,168,50724,1,8
128,168,50931,1,0
72,112,51138,2,0,B|40:80,4,40,8|0|0|0|8
128,168,51759,6,0,B|160:200,2,40,0|0|8
128,168,52173,1,0
152,88,52380,2,0,B|88:24,2,80,8|0|8
208,144,53000,1,8
208,144,53207,1,8
264,200,53414,5,0
184,224,53621,1,8
200,256,53724,1,0
232,280,53828,1,0
312,264,54035,2,0,B|376:336,2,80,8|0|8
344,192,54656,1,0
344,192,54862,2,0,B|440:192,1,80,8|0
424,112,55276,6,0,B|424:200,1,80,8|0
496,152,55690,2,0,B|496:56,1,80,8|0
424,32,56104,2,0,B|424:128,1,80,8|2
424,152,56414,1,2
424,192,56518,1,10
424,272,56724,5,0
320,304,56931,1,12
216,272,57138,1,12
320,232,57345,1,0
216,200,57552,1,12
112,232,57759,2,0,B|112:336,1,80,12|0
216,272,58173,2,12,B|216:184,1,80
320,232,58587,1,0
320,232,58793,2,12,B|320:328,1,80
256,96,59414,1,12
256,96,59621,1,12
304,32,59828,6,0,B|320:136,1,80,8|0
334,268,60242,2,0,B|240:224,1,80,8|0
114,177,60656,2,0,B|192:112,1,80,8|0
304,32,61069,2,0,B|248:176,1,120,8|0
248,184,61483,1,8
48,48,61690,6,0,B|128:112,2,80,0|8|0
16,160,62311,1,8
96,240,62518,1,0
208,224,62724,2,0,B|128:200|88:248,1,120,8|0
72,272,63138,1,8
256,336,63345,5,0
256,336,63552,2,8,B|216:308|297:228|248:172,3,160
136,144,65000,1,0
256,104,65207,1,8
376,144,65414,1,0
256,184,65621,1,8
136,144,65828,1,0
256,104,66035,2,0,B|256:16,2,80,8|0|8
256,120,66552,1,8
256,136,66656,1,8
256,152,66759,1,8
256,168,66862,6,8,B|176:216|89:159,2,160
416,328,68104,1,8
336,256,68311,1,0
360,144,68518,1,8
464,112,68724,2,0,B|496:80|496:16,2,80,0|8|0
360,144,69345,1,8
184,336,69759,6,8,B|260:395|339:329,1,160
328,48,70587,1,8
256,16,70793,1,0
184,48,71000,1,8
184,336,71414,1,8
256,368,71620,1,0
328,336,71828,2,8,B|376:296|384:240|360:168|320:136|256:136|208:144|176:176,1,320
168,192,72759,1,8
152,224,72862,1,8
144,264,72966,1,8
152,304,73069,6,0,B|208:304|224:256,1,80,8|0
262,342,73483,2,0,B|301:305|283:271,1,80,8|0
368,296,73897,2,0,B|368:240|320:224,1,80,8|0
408,186,74311,2,0,B|369:146|323:169,1,80,8|0
304,184,74621,1,0
280,216,74724,1,8
256,136,74931,6,0,B|240:48,2,80,0|8|0
122,168,75552,2,0,B|198:196,1,80,8|0
160,327,75966,2,0,B|256:240,1,120,8|0
280,216,76380,1,8
280,216,76587,5,0
296,136,76793,2,8,B|304:72|232:24|176:56,1,160
88,168,77621,2,8,B|80:232|152:280|208:248,1,160
232,184,78242,1,0
296,136,78449,2,8,B|304:72|232:24|176:56,1,160
152,120,79069,1,0
144,200,79276,2,8,B|120:288|32:312,1,160
256,336,80104,5,8
112,192,80518,1,8
256,48,80931,1,8
400,192,81345,1,8
400,192,81552,2,0,B|496:192,2,80,0|8|0
328,160,82173,1,8
256,192,82380,2,0,B|152:192,2,80,0|8|0
256,192,83000,5,8
416,192,83414,1,0
256,192,83828,1,8
176,192,84035,1,0
96,192,84242,1,8
176,328,84656,5,8
256,352,84862,1,8
296,344,84966,1,8
328,328,85069,1,8
360,304,85173,1,8
384,272,85276,1,8
400,232,85380,1,8
408,192,85483,1,8
408,152,85587,1,8
400,112,85690,1,8
384,72,85793,1,8
352,48,85897,5,8
83,180,86311,1,8
336,352,86724,5,10
336,352,86931,1,2
256,272,87138,1,8
335,192,87345,1,2
335,192,87552,1,10
414,112,87759,1,0
334,32,87966,1,10
334,32,88173,1,2
254,111,88380,1,8
177,192,88587,2,0,B|88:192,2,80,2|10|0
97,271,89207,1,10
415,113,89621,1,10
97,271,90035,5,10
97,271,90242,1,2
176,352,90449,1,8
288,352,90656,1,2
288,352,90862,1,10
392,320,91069,1,0
440,224,91276,1,10
440,224,91483,1,2
416,112,91690,1,8
328,40,91897,2,0,B|320:136,2,80,2|10|0
216,72,92518,2,10,B|280:80|304:144|242:209,1,160
104,192,93345,6,2,B|184:192,1,80,10|2
88,96,93759,1,8
220,129,93966,2,2,B|180:60,1,80,2|10
256,8,94380,1,0
332,60,94587,2,2,B|292:129,1,80,10|2
424,96,95000,1,8
408,192,95207,2,0,B|328:192,2,80,2|10|0
184,192,95828,1,10
328,192,96242,1,10
208,352,96656,5,10
208,352,96862,1,2
416,240,97276,5,2
416,240,97483,1,10
304,32,97897,5,10
304,32,98104,1,2
96,144,98518,5,2
96,144,98724,1,10
256,272,99138,6,0,B|288:216|224:160|264:104,1,160
257,117,99966,1,4
448,40,106587,5,8
368,40,106793,2,0,B|272:40,2,80,0|8|0
408,112,107414,2,0,B|320:112,1,80,8|0
360,184,107828,2,0,B|464:184,1,80,8|0
472,256,108242,2,0,B|368:256,2,80,8|0|8
224,32,109069,5,8
224,112,109276,1,0
184,176,109483,1,8
112,216,109690,1,0
32,216,109897,2,8,B|8:144|40:72|96:56,1,160
136,32,110518,1,0
176,104,110724,2,0,B|64:104,1,80,8|0
128,176,111138,2,8,B|216:176,1,80,8|8
240,176,111759,5,8
280,176,111966,1,8
320,176,112173,2,2,B|344:176,4,20
112,296,113000,5,0
80,312,113104,1,0
40,320,113207,2,8,B|8:248|48:184|96:176,1,160
152,224,113828,1,0
152,144,114035,2,8,B|224:112|288:152|296:200,1,160
304,224,114552,1,0
304,264,114656,1,0
376,304,114862,6,0,B|376:208,1,80,8|0
304,144,115276,2,0,B|304:224,1,80,8|0
232,304,115690,2,0,B|232:208,1,80,8|0
160,144,116104,2,0,B|160:224,1,80,8|0
80,232,116518,6,0,B|56:272,2,40,8|0|0
80,152,116931,2,0,B|56:112,2,40,8|0|0
152,192,117345,1,8
192,184,117449,1,0
232,192,117552,1,0
272,200,117656,1,0
312,192,117759,1,8
392,192,117966,5,0
392,192,118069,1,0
392,192,118173,2,0,B|448:168|456:104,2,80,8|0|8
320,232,118793,1,0
320,232,119000,2,0,B|264:256|256:320,2,80,8|0|8
424,312,119621,6,0,B|464:336,2,40,0|0|8
352,352,120035,1,0
312,352,120138,1,0
272,344,120242,1,8
240,320,120345,1,0
224,288,120449,1,0
208,208,120656,2,0,B|96:208,2,80,8|0|8
256,144,121276,1,0
336,128,121483,5,8
320,88,121587,1,0
288,72,121690,1,0
208,80,121897,1,8
208,80,122000,1,0
176,152,122207,1,0
176,152,122311,2,8,B|144:72|48:64,1,160
24,136,122931,5,0
64,208,123138,2,0,B|64:328,1,80,8|0
104,360,123552,1,8
144,288,123759,2,0,B|144:208,1,80,0|8
184,136,124173,1,0
224,208,124380,2,0,B|224:328,2,80,8|0|8
264,280,125000,5,0
375,279,125207,1,8
431,183,125414,1,0
376,86,125621,1,8
368,99,125724,1,8
360,113,125828,1,8
352,127,125931,1,8
344,141,126035,2,0,B|268:79,1,80,8|0
256,192,126449,2,10,L|248:200|264:208|248:216|264:224|248:232|264:240|248:248|264:256|248:264|264:264,5,160
256,264,131000,1,2
360,48,131414,5,8
304,192,131621,1,8
400,296,131828,5,8
256,240,132035,1,8
152,336,132242,5,8
208,192,132449,1,8
112,88,132656,5,0
112,88,132862,1,0
181,48,133069,2,0,L|250:7,1,80,8|0
181,127,133483,2,0,L|250:167,1,80,8|0
111,167,133897,2,0,L|111:288,1,120,8|0
111,298,134311,1,8
256,344,134518,6,0,B|320:360|344:320,2,80,0|8|0
191,296,135138,2,0,B|264:262,1,80,8|0
200,216,135552,2,0,B|240:160|312:176,1,120,8|0
320,176,135966,1,8
376,232,136173,5,0
384,152,136380,2,8,B|376:56|272:40,1,160
128,232,137207,2,8,B|136:328|240:344,1,160
226,341,137828,1,0
304,344,138035,2,0,B|376:344|408:312|416:288,1,120,8|0
432,264,138449,1,8
448,224,138552,1,8
448,184,138656,1,8
440,144,138759,1,8
424,104,138862,2,0,B|400:48|336:32|280:48,1,160,4|8
128,96,139690,5,8
384,160,140104,1,8
128,224,140518,1,8
384,288,140931,1,8
384,288,141138,1,0
384,288,141345,1,8
312,328,141552,1,0
312,248,141759,1,8
384,208,141966,2,0,B|384:112,2,80,0|8|0
384,288,142587,6,8,B|344:336|272:336|240:280,1,160
128,96,143414,1,8
197,64,143621,1,0
264,96,143828,1,8
384,288,144242,1,8
315,320,144449,1,0
248,288,144656,2,8,B|216:192|272:128,1,160
464,40,145483,5,8
464,56,145587,1,8
464,72,145690,1,8
464,88,145793,1,8
464,104,145897,2,0,B|384:144,1,80,8|0
320,104,146311,2,0,B|400:144,1,80,8|0
320,104,146724,2,0,B|240:144,1,80,8|0
176,104,147138,2,0,B|288:160,1,120,8|0
320,176,147552,1,8
392,216,147759,6,0,B|424:256|384:304,2,80,0|8|0
320,176,148380,1,8
320,176,148587,1,0
248,216,148793,2,0,B|208:256|208:312|264:336,1,120,8|0
248,328,149207,1,8
320,360,149414,5,0
368,296,149621,2,8,B|368:240|432:232|488:256|472:304,2,160
320,360,150656,1,0
280,288,150862,1,8
208,248,151069,1,0
128,240,151276,2,8,B|88:272|16:256|16:192|40:152,1,160
64,104,151897,1,0
120,48,152104,5,8
160,64,152207,1,8
184,96,152311,1,8
200,128,152414,1,8
208,168,152518,1,8
200,208,152621,1,8
184,240,152724,1,8
160,272,152828,1,8
128,288,152931,6,8,B|304:288,1,160
384,96,153759,2,8,B|208:96,1,160
200,176,154380,1,0
280,200,154587,1,8
304,120,154793,1,0
224,96,155000,1,8
200,176,155207,2,0,B|168:264,2,80,0|8|0
144,112,155828,5,8
368,272,156242,1,8
144,112,156656,1,8
144,112,156862,1,8
144,112,157069,1,8
368,272,157483,2,8,B|400:176|368:112,2,160
320,336,158518,5,8
320,296,158621,1,8
312,256,158724,1,8
296,216,158828,1,8
280,184,158931,1,8
256,152,159035,1,8
224,128,159138,1,8
192,112,159242,1,8
152,104,159345,1,8
256,192,159552,12,0,162862
56,88,166173,5,2
112,50,166380,1,0
178,64,166587,1,2
215,120,166793,1,0
201,186,167000,1,2
145,223,167207,1,0
79,210,167414,1,2
42,154,167620,1,0
456,296,169483,5,2
400,334,169690,1,0
334,320,169897,1,2
297,264,170103,1,0
311,198,170310,1,2
367,161,170517,1,0
433,174,170724,1,2
470,230,170930,1,0
0,192,172793,5,8
128,320,173207,1,8
256,192,173621,1,8
384,64,174035,1,8
512,192,174449,1,8
384,320,174862,1,8
256,192,175276,1,8
128,64,175690,1,8
0,192,176104,5,8
128,320,176518,1,8
256,192,176931,1,8
256,192,177035,1,8
256,192,177138,1,8
320,256,177345,1,8
384,320,177552,1,0
384,320,177759,1,8
512,192,178173,1,8
384,64,178587,1,8
256,192,179000,1,8
256,192,179414,6,0,B|160:192,1,80,8|0
256,192,179828,2,0,B|256:96,1,80,8|0
256,192,180242,2,0,B|360:192,1,80,8|0
256,192,180656,2,0,B|256:280,1,80,8|0
96,192,181069,6,0,B|176:192,1,80,8|0
256,32,181483,2,0,B|256:112,1,80,8|0
408,192,181897,2,0,B|328:192,1,80,8|0
256,352,182311,2,0,B|256:272,1,80,8|0
96,192,182724,6,8,B|152:120,1,80
256,352,183138,2,8,B|192:302,1,80
416,192,183552,2,8,B|360:264,1,80
255,32,183966,2,8,B|319:81,1,80
416,200,184380,5,8
400,192,184483,1,8
384,184,184587,1,8
264,32,184793,1,8
256,48,184896,1,8
248,64,185000,1,8
96,184,185207,1,8
112,192,185310,1,8
128,200,185414,1,8
248,352,185621,1,8
256,336,185724,1,8
264,320,185828,1,8
256,192,186035,5,4
256,192,187690,5,4
256,192,189345,5,4
256,88,191000,5,0
328,120,191207,1,0
360,192,191414,1,0
360,232,191518,2,0,B|352:272|312:312|264:328,2,120
360,192,192242,1,0
352,152,192345,1,0
328,120,192449,1,0
256,96,192656,5,0
96,32,193069,6,0,B|56:104,1,80
0,224,193483,2,0,B|72:184,1,80
192,128,193897,2,0,B|152:200,1,80
96,320,194311,2,0,B|168:280,1,80
288,224,194724,1,0
288,224,195138,1,0
216,40,195552,5,0
408,152,195966,1,0
408,152,196173,1,0
296,344,196587,1,0
296,344,196793,1,0
104,232,197207,1,0
104,232,197414,1,0
216,40,197828,1,0
240,120,198035,1,0
272,192,198242,1,0
304,264,198449,6,8,B|320:299,8,20
304,264,199069,1,0
382,243,199276,2,0,B|476:219,1,80,12|0
263,110,199690,2,0,B|282:187,1,80,8|0
228,286,200104,2,0,B|108:321,1,120,8|0
97,325,200518,1,8
64,248,200724,6,0,B|40:192|72:144,2,80,0|8|0
97,325,201345,1,8
152,264,201552,1,0
192,192,201759,2,0,B|208:128|184:72,1,120,8|0
176,56,202173,1,8
120,112,202380,5,0
64,168,202587,2,8,B|152:224|248:144,1,160
448,216,203414,2,8,B|360:160|264:240,1,160
272,288,204035,1,0
352,272,204242,2,8,B|368:168|320:104,1,160
272,56,204862,1,0
328,120,205069,2,0,B|448:120,2,80,8|0|8
200,288,205897,5,8
312,96,206311,1,8
200,288,206724,1,8
312,96,207138,1,8
312,96,207345,1,0
312,96,207552,1,8
240,56,207759,1,0
168,96,207966,2,0,B|72:96,2,80,8|0|8
48,328,208793,6,8,B|144:280|120:176,2,160
32,248,209828,1,0
112,272,210035,2,8,B|200:232|280:280,1,160
328,320,210656,2,0,B|240:360,1,80,0|8
264,272,211069,2,0,B|352:232,2,80,0|8|0
192,304,211690,5,8
232,288,211793,1,8
264,264,211897,1,8
288,232,212000,1,8
304,192,212104,1,8
312,152,212207,1,8
312,112,212311,1,8
304,72,212414,1,8
280,40,212518,6,0,B|200:64,1,80
320,120,212931,2,0,B|400:144,1,80,8|0
280,200,213345,2,0,B|160:240,1,120,8|0
144,248,213759,1,8
72,272,213966,6,0,B|88:320|136:320,2,80,0|8|0
88,192,214587,2,0,B|152:256,1,80,8|0
200,304,215000,2,0,B|200:176,1,120,8|0
200,160,215414,1,8
200,80,215621,5,0
120,64,215828,1,8
392,320,216242,1,8
120,64,216656,1,8
392,320,217069,1,8
392,320,217276,1,0
392,320,217483,2,8,B|432:232|384:152,1,160
312,240,218104,1,0
224,314,218311,2,8,B|184:248|224:160,1,160
32,32,219138,6,8,B|120:72|112:176,3,160
88,232,220587,1,0
64,304,220793,2,0,B|72:352|112:368,2,80,8|0|8
56,224,221414,2,0,B|56:176|112:160,1,80,0|8
256,32,222035,6,8,B|232:88|280:144|256:192,2,160
336,48,223069,1,0
392,104,223276,2,8,B|328:144|352:224|424:216,1,160
488,224,223897,1,0
408,216,224104,2,8,B|344:216|304:288|344:360,1,160
256,192,224931,5,0
256,192,225345,1,0
256,192,225759,6,0,B|136:72,1,160,8|0
64,96,226380,1,8
120,152,226587,2,0,B|240:272,1,160,8|0
216,344,227207,2,8,B|96:224,2,160,8|8|8
296,344,228242,2,8,B|416:224,1,160
256,192,229069,5,8
328,48,229483,1,0
400,88,229690,1,8
424,168,229897,1,8
256,192,230311,1,0
200,128,230518,2,8,B|320:272,1,160
376,280,231138,1,0
352,312,231242,1,0
312,328,231345,1,0
302,250,231552,2,8,B|200:128,1,160
56,56,232380,5,8
56,216,232793,1,0
136,200,233000,1,8
192,144,233207,1,8
184,304,233621,1,0
112,344,233828,2,0,B|16:344,2,80,8|0|8
256,264,234656,2,8,B|352:264,1,80
376,336,235069,2,0,B|280:336,1,80,0|8
256,192,235690,5,8
256,192,236311,1,8
256,192,236518,1,8
256,192,237138,1,8
256,192,237552,1,8
256,192,237966,1,8
256,192,238173,1,8
256,192,238587,1,8
256,192,238793,1,4
256,192,238845,12,0,242311
