osu file format v7

[General]
AudioFilename: crossing days.mp3
AudioLeadIn: 0
PreviewTime: 20724
Countdown: 0
SampleSet: Normal
StackLeniency: 0.3
Mode: 0
LetterboxInBreaks: 1

[Editor]
Bookmarks: 7276,89828,99966,128724
DistanceSpacing: 1
BeatDivisor: 4
GridSize: 8

[Metadata]
Title:Crossing Days
Artist:Shintani Ryoko
Creator:Ex Boy
Version:Boring Days
Source:Kurenai
Tags:

[Difficulty]
HPDrainRate:0
CircleSize:3
OverallDifficulty:3
SliderMultiplier:1
SliderTickRate:2

[Events]
//Background and Video events
0,0,"boring.jpg"
//Break Periods
2,20511,32319
2,46786,55491
//Storyboard Layer 0 (Background)
//Storyboard Layer 1 (Fail)
//Storyboard Layer 2 (Pass)
//Storyboard Layer 3 (Foreground)
//Storyboard Sound Samples
//Background Colour Transformations
3,100,255,255,255

[TimingPoints]
656,413.793103448276,4,1,1,60,1,0
86828,-100,4,2,1,2,0,0

[Colours]
Combo1 : 250,238,5
Combo2 : 245,63,118
Combo3 : 248,78,235
Combo4 : 100,92,245

[HitObjects]
56,48,7276,1,0
256,48,8104,1,0
456,48,8931,1,0
360,224,9759,1,0
152,224,10587,5,0
256,56,11414,1,0
256,208,12035,2,0,B|256:280,7,50
152,256,13897,6,0,B|264:256,1,100
352,256,14724,2,0,B|232:256,1,100
256,152,15552,2,0,B|256:272,1,100
256,352,16380,2,0,B|256:240,1,100
160,248,17207,6,0,B|160:176,1,50
56,192,17828,2,0,B|56:120,1,50
160,136,18449,2,0,B|160:200,1,50
256,152,19069,2,0,B|256:216,1,50
256,304,19690,5,0
256,152,20311,1,4
456,336,33759,5,0
256,336,34587,1,0
56,336,35414,1,0
192,192,36242,2,0,B|408:192,1,200
256,48,37897,2,0,B|464:48,1,200
408,192,39345,2,0,B|368:224|288:224|256:184,1,150
168,192,40380,5,0
168,288,40793,1,0
264,288,41207,1,0
264,192,41621,1,0
264,96,42035,1,0
360,96,42449,1,0
360,192,42862,1,0
360,288,43276,1,0
264,288,43690,6,0,B|152:288,1,100
168,192,44518,2,0,B|280:192,5,100
256,40,56931,6,0,B|256:112,1,50
256,192,57552,2,0,B|256:256,1,50
256,344,58173,2,0,B|256:280,1,50
256,192,58793,2,0,B|256:120,1,50
256,40,59414,1,0
152,40,59828,6,0,B|120:96|160:144,1,100
208,216,60656,2,0,B|240:272|200:320,1,100
120,256,61483,2,0,B|87:217|119:161,1,100
184,88,62311,2,0,B|222:55|278:87,1,100
336,168,63138,1,0
336,272,63552,6,0,B|400:256|432:320,7,100
464,216,66862,6,0,B|464:96,1,100
376,64,67690,2,0,B|376:176,1,100
288,216,68518,2,0,B|288:96,1,100
200,64,69346,2,0,B|200:176,1,100
256,192,70173,12,0,72656
56,192,73483,5,0
160,192,73897,1,0
256,192,74311,2,0,B|368:192,3,100
456,192,75966,2,0,B|408:160|416:96,1,100
328,56,76793,5,0
272,144,77207,1,0
216,232,77621,1,0
160,312,78035,1,0
104,232,78449,1,0
160,152,78862,1,0
104,72,79276,2,0,B|40:168,1,100
48,256,80104,6,0,B|88:288|160:272,1,100,4|0
224,216,80931,2,0,B|280:200|328:240,1,100
384,312,81759,2,0,B|440:272|432:216,1,100
368,152,82587,2,0,B|312:160|280:112,1,100
360,48,83414,6,0,B|480:48,1,100
464,152,84242,2,0,B|360:152,3,100
256,192,85897,5,0
256,192,86311,1,0
256,192,86724,1,0
256,192,86828,12,0,89621
