osu file format v9

[General]
AudioFilename: 01 - (Altersquid).mp3
AudioLeadIn: 0
PreviewTime: -1
Countdown: 1
SampleSet: Normal
StackLeniency: 0.7
Mode: 0
LetterboxInBreaks: 1

[Editor]
DistanceSpacing: 0.8
BeatDivisor: 4
GridSize: 8

[Metadata]
Title:IKA Love - (Altersquid)
Artist:Shinryaku! Ikamusume
Creator:LEEmakasi
Version:Insane
Source:
Tags:only insane

[Difficulty]
HPDrainRate:5
CircleSize:4
OverallDifficulty:5
ApproachRate:8
SliderMultiplier:1.4
SliderTickRate:1

[Events]
//Background and Video events
0,0,"naver_com_20110916_224957.jpg"
//Break Periods
//Storyboard Layer 0 (Background)
//Storyboard Layer 1 (Fail)
//Storyboard Layer 2 (Pass)
//Storyboard Layer 3 (Foreground)
//Storyboard Sound Samples
//Background Colour Transformations
3,100,163,162,255

[TimingPoints]
0,324.324324324324,4,1,0,100,1,0
63891,162.144633012647,4,1,0,92,1,1
98265,324.324324324324,4,1,0,100,1,0
146913,162.162162162162,4,1,0,100,1,1
162480,-133.333333333333,4,1,0,100,0,0
167021,324.324324324324,4,1,0,100,1,1
167669,-66.6666666666667,4,1,0,100,0,1
175453,-133.333333333333,4,2,0,100,0,0
198156,-100,4,1,0,100,0,1
202709,-100,4,1,0,100,0,0
219237,-66.6666666666667,4,1,0,100,0,1
237723,-66.6666666666667,4,1,0,100,0,0
239669,-66.6666666666667,4,1,0,100,0,1

[HitObjects]
104,96,2918,5,0
128,192,3081,1,0
168,288,3243,1,0
384,96,3405,1,0
352,192,3567,1,0
320,304,3729,1,0
256,192,3891,5,12
88,176,4216,2,2,B|96:104|144:72|184:72,1,140
424,232,4864,2,2,B|424:280|392:304|368:336|328:328,1,140
312,48,5513,2,2,B|360:48|408:72|424:136,1,140
80,240,6162,2,2,B|96:304|128:312|192:328,1,140
184,48,6810,2,2,B|144:64|144:64|136:96|136:96|72:136,1,140
320,336,7459,2,2,B|368:288|368:288|408:304|408:304|432:280,1,140
256,192,8108,5,0
288,160,8270,1,0
224,224,8432,1,0
224,160,8594,1,0
288,224,8756,1,0
256,192,9081,12,0,11675
312,80,11999,6,0,B|368:80|368:80|368:176,1,140
400,216,12486,1,0
336,216,12648,1,8
336,304,12810,2,0,B|264:304,2,70
176,288,13459,1,8
88,208,13621,1,8
176,104,13783,2,0,B|328:104,1,140
176,104,14270,1,2
336,56,14594,6,0,B|408:72|440:128|448:152,2,140
456,112,15405,1,0
256,56,15567,1,0
64,112,15729,1,0
176,64,15891,2,0,B|128:72|104:96,2,70
256,312,16378,2,0,B|256:160,1,140
256,136,16864,1,8
256,136,17027,1,8
72,288,17189,5,0
112,288,17351,1,0
224,296,17513,2,0,B|264:328|320:296,1,70
424,192,17837,1,2
384,304,17999,1,0
320,192,18162,1,0
272,72,18324,1,0
160,64,18486,6,0,B|104:120,1,70
96,264,18810,2,0,B|152:320,1,70
440,192,19135,2,2,B|288:192,1,140
128,56,19783,6,2,B|80:96|80:136|96:160|144:168,1,140
248,168,20270,1,0
352,176,20432,2,2,B|392:152|400:120|400:96|392:64|360:56,2,140
357,74,21243,1,0
120,64,21405,2,2,B|80:112|72:144|128:192,1,140
256,192,22054,5,8
88,312,22378,2,0,B|144:312|144:312|168:280|168:280|224:280,1,140
296,280,22864,1,0
400,64,23027,2,0,B|400:128|400:128|360:152|360:152|360:184,1,140
264,192,23513,1,0
208,136,23675,2,0,B|192:88|152:88,2,70
336,40,24162,1,8
161,88,24324,6,0,B|128:112|128:152,1,70
264,152,24648,1,10
432,200,24972,1,0
80,192,25297,1,0
256,320,25621,2,2,B|256:168,1,140
312,136,26108,1,0
208,128,26270,1,0
256,192,26594,2,2,B|256:336,1,140
264,112,27243,1,8
192,328,27567,5,2
128,304,27729,1,0
80,256,27891,1,2
64,192,28054,1,0
80,128,28216,1,2
256,192,28540,1,14
320,320,28864,5,2
376,280,29027,1,0
400,224,29189,1,2
416,160,29351,1,0
392,104,29513,1,2
256,72,29837,2,2,B|280:96|280:96|256:104|256:104|280:120|280:120|256:128|256:128|280:144|280:144|272:144,1,140
200,232,30486,5,2
272,168,30648,1,0
176,120,30810,1,2
320,256,30972,1,0
304,80,31135,1,0
72,208,31297,2,0,B|88:264|112:280,1,70
256,312,31621,1,0
416,248,31783,2,0,B|440:200|416:168,2,70
256,160,32432,5,2
96,80,32756,2,0,B|96:160,1,70
408,80,33081,2,0,B|408:152,1,70
120,256,33405,1,0
256,320,33567,1,2
384,264,33729,1,0
256,88,33891,6,2,B|304:112|296:128|232:136|240:160|280:160|256:216,1,140
256,232,34378,1,0
256,88,34702,1,2
256,184,35027,5,8
80,144,35351,2,2,B|120:80,1,70
432,168,35675,2,2,B|376:112,1,70
216,304,35999,2,8,B|256:336|288:296,2,70
336,184,36486,2,2,B|336:136|320:120|288:112|240:120,1,140
168,120,36972,2,2,B|176:184|208:192|272:192,1,140
256,304,37621,5,8
120,304,37945,1,8
72,240,38108,1,8
168,240,38270,1,8
32,176,38432,1,8
192,168,38594,2,2,B|224:120|272:120|320:176,1,140
448,160,39081,5,8
392,272,39243,1,8
376,64,39405,1,8
496,256,39567,1,8
280,272,39729,1,8
360,176,39891,2,2,B|312:136|256:136|216:160,1,140
144,168,40378,1,2
56,192,40540,6,0,B|56:264|56:264|104:288|104:288|128:288,1,140
256,304,41027,1,2
440,200,41189,2,0,B|448:248|448:248|432:304|432:304|384:304,1,140
256,64,41675,1,2
256,304,41837,1,8
256,192,42162,1,8
256,144,42324,1,2
192,104,42648,2,0,B|248:72|280:80|328:112,1,140
424,192,43135,1,4
88,184,43418,1,4
256,344,43621,2,2,B|256:200,1,140
160,256,44108,5,0
256,160,44270,1,0
104,112,44432,1,0
352,256,44594,1,0
424,104,44756,1,0
256,40,44918,1,2
256,336,45081,1,0
432,184,45405,2,0,B|392:224|344:232|296:232,1,140
224,240,45891,1,0
304,231,46054,6,0,B|368:224|400:216|432:184,1,140
392,88,46540,1,0
288,80,46702,2,0,B|208:96|144:136,1,140
104,56,47189,1,8
80,216,47351,1,8
128,312,47513,1,8
248,328,47675,2,2,B|248:176,1,140
248,64,48162,5,8
344,80,48324,1,2
408,144,48486,1,8
424,232,48648,1,10
392,304,48810,1,8
320,320,48972,1,2
248,336,49135,1,8
176,320,49297,1,2
96,240,49621,6,0,B|64:192|80:168,2,70
80,128,50108,2,2,B|120:64|184:48|200:48,1,140
200,48,50594,1,2
208,48,50756,1,2
320,56,50918,6,0,B|376:104|376:104|368:136|368:136|392:176,1,140
384,264,51405,1,8
296,320,51567,2,0,B|232:312|232:312|224:272|224:272|176:264,1,140
96,208,52054,1,8
176,128,52216,2,0,B|232:128|232:128|256:80|256:80|296:80,1,140
376,80,52702,1,0
184,200,52864,2,0,B|216:272|280:272|304:232,1,140
256,128,53513,5,0
320,200,53675,1,0
256,264,53837,1,0
192,192,53999,1,0
256,64,54162,5,0
384,200,54324,1,0
256,328,54486,1,0
136,192,54648,1,0
160,96,54810,5,0
344,96,54972,1,0
352,288,55135,1,0
176,280,55297,1,0
368,192,55621,5,0
200,168,55783,1,0
272,288,55945,1,0
280,88,56108,2,0,B|224:64|176:72|144:96,1,140
88,184,56594,1,8
256,136,56918,5,0
328,240,57081,1,0
184,240,57243,1,0
344,328,57405,2,0,B|416:320|448:240,1,140
448,160,57891,1,8
256,256,58216,5,0
336,136,58378,1,0
168,136,58540,1,0
256,192,58702,5,8
256,160,58864,1,8
256,128,59027,1,8
256,96,59189,1,8
256,64,59351,1,8
392,72,59675,5,2
256,192,59999,12,8,63567
304,64,63891,6,2,B|392:104|400:192,1,140
184,72,64215,1,10
88,160,64377,1,10
192,216,64539,2,2,B|176:256|176:256|120:280|120:280|104:336,1,140
336,296,64863,2,8,B|328:248|328:248|296:216|296:216|312:168,1,140
312,80,65188,2,0,B|256:32|216:32|176:96,2,140
104,128,65674,1,8
256,192,65998,5,8
256,192,66079,1,8
256,192,66161,1,8
328,64,66485,6,8,B|400:104|416:192,2,140
248,64,66971,1,8
184,72,67133,2,8,B|120:96|128:96|128:96|120:144|120:144|80:176,1,140
136,248,67458,2,8,B|184:224|184:224|200:160|200:160|240:136,1,140
288,224,67782,2,8,B|264:248|264:248|264:304|264:304|208:344,1,140
160,208,68106,1,8
152,56,68268,5,8
256,192,68593,1,8
256,192,68674,1,8
256,192,68755,1,8
136,288,69079,5,8
264,112,69241,1,8
352,296,69403,1,8
128,96,69566,1,8
368,56,69728,1,8
208,200,69890,1,8
440,320,70052,1,8
336,192,70214,1,8
448,96,70376,2,2,B|472:160|464:224|432:256,1,140
336,256,70701,5,10
256,192,70863,1,10
184,272,71025,1,10
104,192,71187,1,10
264,272,71349,2,10,B|176:184|176:184|304:72,1,280
360,80,71836,1,8
184,80,71998,2,8,B|304:176|304:176|176:264,1,280
128,248,72484,1,8
48,184,72646,1,8
112,112,72808,5,8
352,128,72971,1,8
384,152,73052,1,8
408,192,73133,1,8
320,312,73295,5,8
288,320,73376,1,8
248,320,73457,1,8
224,168,73619,5,8
184,152,73700,1,8
144,152,73781,1,8
160,312,73943,6,0,B|72:248|56:160|64:88|120:48,1,280
168,56,74430,1,8
240,56,74592,2,8,B|296:64|296:64|320:104|320:104|368:112,2,140
80,152,75078,1,8
176,264,75241,2,8,B|216:264|216:264|256:224|256:224|328:224,1,140
216,128,75565,2,8,B|296:160|296:160|304:192|304:192|296:232,1,140
432,216,75889,2,0,B|376:256|376:256|344:248|344:248|296:208,1,140
256,176,76376,5,8
256,176,76538,1,8
136,304,76862,2,8,B|80:248|80:248|80:160,1,140
128,120,77186,1,8
200,64,77349,2,8,B|272:32|272:32|336:80,2,140
184,192,77835,1,8
256,216,77997,5,8
256,176,78159,2,8,B|296:104|296:104|376:136,1,140
256,176,78484,2,8,B|312:224|312:224|240:272,1,140
256,176,78808,2,8,B|184:176|184:176|200:96,1,140
256,48,79132,1,8
448,112,79456,2,2,B|448:216|448:216|400:280|400:280|304:312,2,280
320,104,80267,1,8
192,104,80429,1,8
80,128,80591,1,8
48,240,80754,2,10,B|120:280|120:280|200:248|200:248|296:288|296:288|328:288,1,280
400,280,81240,6,8,B|456:192|456:192|368:120|368:120|312:184,1,280
288,240,81726,1,8
256,72,82051,6,8,B|168:72|168:72|120:128,1,140
88,184,82375,2,8,B|88:272|88:272|144:312,1,140
432,128,82699,2,8,B|344:128,1,70
304,168,82861,2,8,B|376:168,1,70
360,64,83024,2,8,B|360:160,1,70
408,240,83186,2,8,B|408:152,1,70
296,288,83348,2,8,B|264:312|216:280,1,70
232,240,83510,2,8,B|264:216|272:216|304:240,1,70
304,176,83672,2,8,B|272:200|224:168,1,70
240,128,83834,2,8,B|280:104|304:136,1,70
256,48,83996,5,8
224,80,84078,1,8
208,120,84159,1,8
232,160,84240,1,8
264,184,84321,1,8
296,216,84402,1,8
312,256,84483,1,8
288,288,84564,2,8,B|160:264|112:200|112:72,2,280
368,272,85577,1,8
432,168,85942,6,8,B|408:72|368:32|192:32,2,280
368,272,86915,5,8
208,72,87239,5,8
120,160,87564,1,8
120,264,87888,1,8
216,320,88212,1,8
248,192,88536,2,0,B|336:192|368:112,2,140
248,192,89023,2,0,B|320:192|368:272|336:336|192:328,1,280
96,328,89509,5,0
96,264,89671,1,0
96,216,89834,1,0
96,104,90158,2,0,B|176:56|176:56|224:120|224:120|328:32,1,280
392,56,90807,1,0
432,56,90969,1,0
440,144,91131,6,0,B|440:216|440:216|368:280,1,140
304,304,91455,2,0,B|144:304,1,140
96,240,91779,2,0,B|48:184|48:184|48:96,1,140
256,184,92104,5,0
328,40,92428,2,0,B|408:120|408:120|376:160|376:160|424:232|424:232|416:280,1,280
128,336,93077,2,0,B|64:256|64:256|128:200|128:200|48:104,1,280
168,112,93725,2,0,B|224:48|224:48|296:48|296:48|368:120|368:120|416:120,1,280
256,152,94374,2,0,B|256:304|256:304|176:320|176:320|232:320,1,280
288,64,95022,2,0,B|392:184,2,140
224,64,95671,6,0,B|104:168,2,140
256,128,96319,6,0,B|256:272,2,140
160,64,96968,6,0,B|88:64|64:144|72:176,1,140
72,240,97292,2,0,B|72:304|120:344|176:344,1,140
336,344,97617,2,0,B|432:336|464:296|464:264,1,140
464,128,97941,2,0,B|432:48|328:40,1,140
200,112,98265,2,0,B|152:144|136:184,1,70
144,248,98589,2,0,B|168:288|216:320,1,70
320,280,98913,2,0,B|368:256|384:216,1,70
336,160,99237,6,0,B|320:120|280:112,1,70
192,168,99562,2,0,B|200:112|240:104,1,70
280,264,99886,2,0,B|336:248|336:208,1,70
192,216,100210,2,0,B|192:240|232:272,1,70
256,192,100535,1,0
256,192,100859,1,0
256,192,101183,1,0
256,192,101508,12,0,102481
296,64,102805,6,0,B|384:72|392:184,2,140
232,56,103616,1,0
176,48,103778,2,0,B|128:56|96:104,1,70
200,160,104102,1,0
320,288,104265,1,0
280,56,104427,1,0
152,288,104589,1,0
152,288,104751,1,0
392,64,105075,6,0,B|464:120|400:200,1,140
336,256,105724,1,0
256,280,105886,1,0
184,248,106048,1,0
256,112,106210,1,0
336,168,106373,1,0
256,280,106535,1,0
192,176,106697,1,0
256,208,107021,5,0
256,64,107346,2,0,B|256:216,1,140
408,64,107994,6,0,B|464:128|408:224,1,140
360,272,108643,1,0
272,184,108805,1,0
192,288,108967,1,0
96,272,109129,2,0,B|64:200|104:128,1,140
168,72,109616,1,0
256,64,109778,5,0
256,64,109940,1,0
416,96,110264,2,0,B|464:192|424:248,1,140
256,296,110751,1,0
128,192,110913,1,0
256,96,111075,1,0
256,192,111237,2,0,B|408:192,1,140
472,192,111724,1,8
396,192,111886,2,0,B|232:192,1,140
256,96,112373,1,0
152,176,112535,1,0
176,272,112859,6,0,B|216:320|304:320,1,140
320,248,113346,1,8
384,288,113508,1,0
464,280,113670,1,8
448,208,113832,2,8,B|472:160|464:128,2,70
384,192,114319,2,0,B|360:152|416:104,1,70
384,192,114643,1,2
288,216,114805,1,8
288,216,114967,1,4
288,216,115129,1,8
256,80,115454,5,0
112,184,115778,1,0
256,304,116102,1,0
160,256,116264,1,8
408,184,116427,1,0
320,88,116589,1,0
256,192,116751,1,0
184,304,116913,1,0
112,184,117075,1,0
184,80,117237,1,0
256,192,117400,1,0
328,304,117562,1,0
408,184,117724,2,0,B|304:72,1,140
128,72,118373,6,0,B|80:144,1,70
136,320,118697,2,0,B|80:256,1,70
464,192,119021,1,0
272,192,119183,1,0
128,192,119346,1,0
208,184,119508,6,0,B|240:128|280:120|312:144|336:184,1,140
464,192,119994,1,0
328,208,120156,2,0,B|328:256|320:272|296:280|280:280,1,70
80,184,120643,5,8
200,264,120967,5,8
368,80,121129,1,8
376,288,121292,1,8
160,72,121454,1,8
272,176,121616,1,8
256,64,121940,5,4
128,192,122264,1,8
440,80,122427,1,8
144,120,122589,1,8
272,104,122751,1,8
280,280,122913,1,8
400,136,123237,5,0
416,184,123319,1,0
400,224,123400,1,0
384,288,123562,2,0,B|256:312|80:240,2,280
392,192,125021,1,0
160,152,125183,1,0
272,80,125346,1,0
264,184,125508,1,0
184,64,125670,1,0
376,88,125832,5,0
392,192,125994,1,8
440,272,126156,2,0,B|304:320|144:280,2,280
392,56,127616,1,0
400,176,127778,1,0
144,184,127940,1,0
264,192,128102,1,0
256,56,128264,1,0
264,192,128427,1,0
368,56,128751,2,0,B|448:88|448:176,1,140
432,240,129237,5,0
384,312,129400,2,0,B|288:312,1,70
208,312,129724,2,8,B|144:280|112:248|120:200,2,140
264,248,130535,5,8
328,168,130697,1,8
240,88,130859,1,8
184,184,131021,1,8
248,176,131183,1,4
248,176,131346,2,2,B|88:176,1,140
108,176,131832,1,8
248,176,131994,2,2,B|400:176,1,140
388,176,132481,1,8
248,176,132643,2,2,B|248:80,2,70
248,48,133129,5,2
128,176,133454,2,2,B|200:256|256:248|256:248,1,140
328,232,133940,1,0
352,152,134102,1,0
328,80,134264,1,0
128,80,134589,1,0
80,184,134751,5,0
128,288,134913,1,0
384,296,135237,5,0
424,192,135400,1,0
384,80,135562,1,0
128,80,135886,1,0
80,184,136048,1,0
128,288,136210,1,0
256,328,136535,6,0,B|320:264,1,70
305,278,136859,2,0,B|248:224,1,70
254,230,137183,2,0,B|312:176,1,70
305,182,137508,2,0,B|248:128,1,70
254,134,137832,2,0,B|192:72|112:144,1,140
80,192,138319,1,0
208,264,138643,5,8
152,288,138805,1,0
248,304,138967,1,8
352,304,139129,5,8
384,288,139292,1,8
408,256,139454,1,8
424,224,139616,1,8
360,128,139940,5,0
336,88,140021,1,0
304,64,140102,1,0
264,56,140183,1,0
72,168,140427,1,8
96,128,140589,1,8
128,96,140751,1,8
168,64,140913,1,8
128,256,141237,5,0
152,296,141319,1,0
192,320,141400,1,0
232,320,141481,1,0
256,192,141724,5,8
256,184,141886,1,8
264,192,142048,1,8
256,200,142210,1,8
248,192,142373,1,8
256,192,143021,12,0,146589
368,80,146913,6,2,B|208:80,1,140
128,144,147237,2,2,B|288:144,1,140
376,160,147561,1,8
464,272,147723,1,2
376,352,147885,1,8
288,256,148048,1,2
304,112,148210,2,8,B|264:40|264:40|240:112,1,140
240,176,148534,2,2,B|224:264|144:312,2,140
384,72,149021,5,8
408,104,149102,1,8
416,136,149183,1,8
367,330,149345,1,2
440,224,149507,2,2,B|440:328|336:336,1,140
304,272,149831,1,10
240,328,149994,1,10
64,128,150156,2,8,B|80:48|192:48,1,140
224,128,150480,1,2
288,40,150642,1,2
384,112,150804,6,8,B|424:128|440:176,1,70
400,192,150967,2,8,B|360:176|352:136,1,70
344,104,151129,2,8,B|272:96|224:208,1,140
264,200,151615,1,8
264,200,151696,1,8
264,200,151777,1,8
176,56,152102,6,8,B|80:72|72:168,1,140
64,192,152345,1,8
120,200,152426,2,8,B|184:176|216:96,1,140
272,80,152669,1,8
320,112,152750,2,8,B|272:152|232:192|256:256,1,140
344,216,153075,1,8
392,312,153237,2,2,B|464:192,1,140
432,128,153561,1,8
296,264,153723,6,0,B|248:328|152:272,1,140
128,184,154048,1,0
112,336,154210,1,0
328,336,154372,1,0
224,264,154534,1,0
312,152,154696,2,8,B|312:72|200:48,1,140
472,160,155021,2,8,B|400:192|368:288,1,140
160,304,155345,2,8,B|216:216|304:232,1,140
464,328,155669,2,8,B|384:288|352:216,1,140
80,248,155994,5,8
136,144,156156,1,8
168,312,156318,1,8
208,80,156480,1,8
248,352,156642,1,8
256,192,156967,2,2,B|296:272|376:232|392:160|360:112|288:112|272:144|248:208,1,280
360,184,157453,1,8
184,136,157615,1,2
184,224,157777,1,2
80,208,157940,2,2,B|160:336,1,140
216,280,158264,6,2,B|360:336,1,140
320,240,158588,2,2,B|472:208,1,140
368,128,158913,2,8,B|256:40|216:80|176:88|96:152,1,280
96,232,159399,2,8,B|104:272|144:296,2,70
168,136,159885,2,8,B|200:24|352:32|312:192,1,280
168,136,160372,1,0
440,216,160534,2,8,B|424:288|304:288,2,140
256,176,161021,5,8
384,136,161183,2,2,B|256:32|256:32|144:128,1,280
120,176,161669,1,2
168,264,161994,5,8
200,288,162075,1,8
240,272,162156,1,12
320,56,162480,6,0,B|384:72|416:136,1,104.999996870756
392,224,162804,1,8
272,208,162967,2,8,B|224:184|184:128,1,104.999996870756
88,136,163291,1,8
88,240,163453,2,8,B|144:272|168:320,1,104.999996870756
384,56,163777,2,2,B|440:72|448:152,2,104.999996870756
328,144,164264,5,8
200,256,164426,1,8
216,152,164588,1,8
320,256,164750,1,8
144,64,164912,2,8,B|88:96|80:152,1,104.999996870756
88,240,165237,2,2,B|96:328|160:344|256:328,2,209.999993741512
80,160,166048,1,2
120,64,166210,1,8
256,64,166372,5,0
256,96,166453,1,0
256,128,166534,1,0
256,160,166615,1,0
256,192,166696,1,0
256,224,166777,1,0
256,256,166858,1,0
256,288,166940,1,0
256,320,167021,5,0
112,304,167345,2,8,B|120:296|120:296|112:288|112:288|120:280|120:280|112:272|112:272|120:264|120:264|112:256|112:256|120:248|120:248|112:240|112:240|120:232,1,70
352,56,167669,2,8,B|432:88|448:168|456:208|440:248,1,209.999993741512
184,64,168318,2,8,B|112:72|56:136|56:248,1,209.999993741512
208,144,168804,1,8
312,248,168966,1,8
304,144,169129,1,8
208,240,169291,1,8
256,80,169453,5,8
256,304,169615,1,8
368,192,169777,1,8
144,192,169939,1,8
256,192,170102,2,8,B|184:112,1,104.999996870756
256,192,170426,2,8,B|344:104,1,104.999996870756
256,192,170750,2,8,B|336:280,1,104.999996870756
256,192,171075,2,8,B|168:280,1,104.999996870756
376,120,171561,2,2,B|304:72|304:72|232:96|232:96|160:64,1,209.999993741512
256,184,172048,5,2
168,288,172210,6,2,B|272:272|272:272|312:304|312:304|400:272,1,209.999993741512
256,104,172858,5,2
296,120,173021,1,2
320,160,173183,1,2
320,200,173345,1,2
296,248,173507,1,2
256,256,173669,1,2
216,232,173831,5,2
200,192,173993,1,2
216,144,174156,1,2
256,144,174318,1,2
280,184,174480,1,2
248,192,174642,1,2
248,192,174804,6,2,B|296:160|296:224|256:248|240:248|208:224|192:200|192:176|200:144|224:112|232:144,1,209.999993741512
336,72,175777,2,8,B|408:88|448:152|440:256,2,209.999993741512
256,64,177399,1,8
424,208,178048,2,8,B|416:128|392:80|272:64,1,209.999993741512
208,72,179021,5,8
264,144,179345,1,8
200,208,179669,1,8
256,264,179993,1,8
200,320,180318,1,8
120,312,180642,2,0,B|72:256|120:200,1,104.999996870756
256,72,181291,5,0
368,192,181615,1,0
256,184,181939,1,0
256,304,182264,1,0
144,192,182588,1,0
256,184,182912,1,0
256,184,183237,6,0,B|272:96|328:112,1,104.999996870756
256,184,183885,2,0,B|320:216|312:288,1,104.999996870756
256,184,184534,2,0,B|232:248|168:240,1,104.999996870756
256,184,185183,2,0,B|192:136|224:80,1,104.999996870756
320,48,185831,1,0
368,80,185993,1,8
400,128,186156,1,0
408,248,186480,5,0
376,296,186642,1,8
320,328,186804,1,0
192,56,187129,1,0
144,88,187291,1,8
112,136,187453,1,0
88,232,187777,5,0
128,280,187939,1,8
176,304,188102,1,10
216,312,188264,2,2,B|328:320|328:312,1,104.999996870756
256,200,188750,1,0
344,88,188912,2,2,B|232:88,1,104.999996870756
304,200,189399,1,2
432,264,189561,6,2,B|432:144,1,104.999996870756
216,200,190048,1,2
104,288,190210,2,2,B|80:192|96:168,1,104.999996870756
256,80,191020,5,10
344,192,191345,1,10
368,168,191507,1,10
256,304,191831,1,10
216,280,191993,1,10
144,184,192318,1,10
256,80,192642,5,10
256,120,192804,1,10
344,200,193129,1,10
376,200,193291,1,10
256,280,193615,1,10
112,192,193939,5,10
64,192,194102,1,10
256,80,194426,1,10
256,32,194588,1,10
256,192,194912,1,10
256,320,195237,1,10
392,192,195561,5,10
440,192,195723,1,10
392,192,195885,1,10
344,192,196048,1,10
256,192,196210,12,2,198156
88,312,198480,6,0,B|208:320|224:240,1,140
88,312,198966,1,2
213,268,199129,1,2
472,64,199291,2,8,B|448:136|352:160,1,140
472,64,199777,1,8
372,154,199939,1,8
256,48,200102,6,0,B|200:56|200:56|184:104|184:104|128:120,1,140
96,192,200588,1,0
200,240,200750,2,0,B|272:232|272:192,1,70
424,192,201075,2,0,B|432:224|392:256,1,70
288,328,201399,6,2,B|168:336|136:288,1,140
176,104,201885,2,2,B|256:72|336:112,2,140
96,152,202858,1,0
88,200,203020,1,0
112,240,203183,1,0
368,240,203507,5,0
384,192,203669,1,0
368,144,203831,1,0
184,104,203993,6,2,B|248:56|328:120,1,140
184,104,204480,1,2
368,64,204642,1,2
272,232,204804,1,2
104,192,204966,1,2
392,272,205129,1,2
256,184,205291,6,8,B|176:192|112:128,1,140
304,88,205939,2,8,B|384:120|424:208,1,140
208,88,206588,2,2,B|128:96|80:160,1,140
256,192,207075,1,8
304,296,207237,2,2,B|392:272|432:192,1,140
256,192,207804,12,2,211453
120,184,211777,5,2
176,248,211939,1,2
224,184,212102,1,2
280,240,212264,1,2
320,184,212426,1,2
368,248,212588,1,2
424,192,212750,5,8
408,128,213075,5,10
344,64,213237,1,2
280,128,213399,1,2
224,64,213561,1,2
176,136,213723,1,2
128,64,213885,1,2
80,136,214048,1,8
256,192,214372,12,8,217615
256,336,218264,5,0
256,304,218345,1,0
256,272,218426,1,0
256,240,218507,1,0
256,208,218588,1,0
256,176,218669,1,0
256,144,218750,1,0
256,104,218831,1,0
256,64,218912,5,8
256,64,219237,1,8
184,176,219561,2,2,B|120:280,1,104.999996870756
320,64,219885,2,0,B|392:176,1,104.999996870756
336,264,220210,1,8
152,96,220372,1,8
80,192,220534,1,8
152,288,220696,1,8
376,96,220858,6,10,B|456:144|464:216,1,104.999996870756
448,200,221102,1,8
432,232,221183,1,8
320,304,221345,2,8,B|256:320|200:296,2,104.999996870756
136,248,221831,2,0,B|72:192|88:136|112:88|192:80,1,209.999993741512
200,168,222318,1,8
376,72,222480,6,2,B|400:152|400:152|368:176|368:176|392:256|392:256|392:288,1,209.999993741512
376,72,222966,1,2
280,48,223129,1,2
184,64,223291,1,2
112,128,223453,6,2,B|80:224|80:224|136:264|136:264|120:336,1,209.999993741512
256,192,223939,1,8
256,192,224102,1,8
400,184,224264,5,8
400,184,224345,1,8
400,184,224426,1,8
288,176,224588,1,8
184,64,224750,2,0,B|104:64|112:160,1,104.999996870756
320,312,225075,2,0,B|384:312|416:232,1,104.999996870756
456,192,225399,6,8,B|360:136,1,104.999996870756
416,104,225723,2,8,B|304:192,1,104.999996870756
320,96,226048,2,8,B|344:208,1,104.999996870756
264,176,226372,2,8,B|400:208,1,104.999996870756
344,296,226696,5,8
304,320,226777,1,8
272,288,226858,1,8
160,248,227020,2,8,B|152:216|152:216|168:184|168:184|144:136,1,104.999996870756
256,56,227345,1,2
408,192,227507,1,2
256,344,227669,1,2
128,192,227831,1,2
184,112,227993,5,10
336,120,228156,1,10
336,288,228318,1,10
176,248,228642,2,8,B|176:176|224:160,1,104.999996870756
176,248,228966,2,8,B|256:280|224:360,1,104.999996870756
176,248,229291,2,8,B|128:288|64:248,1,104.999996870756
184,96,229615,6,10,B|264:56|288:64|352:72|416:128,1,209.999993741512
432,192,230102,1,0
368,280,230264,1,8
296,280,230426,1,0
224,280,230588,1,8
96,80,230750,2,8,B|120:112|120:112|160:104|160:104|208:160,1,104.999996870756
256,192,231075,1,2
360,56,231237,6,2,B|480:104|472:264,1,209.999993741512
256,192,231723,1,12
256,192,231885,1,8
96,200,232048,5,8
96,200,232129,1,8
96,200,232210,1,8
168,296,232372,1,8
208,96,232534,6,8,B|256:56|312:104,1,104.999996870756
376,192,232858,2,8,B|328:240|272:200,1,104.999996870756
376,192,233183,1,8
256,80,233345,1,8
168,192,233507,1,8
256,304,233669,1,8
64,208,233831,2,2,B|200:40,1,209.999993741512
256,40,234318,1,8
256,40,234480,1,0
256,168,234642,5,8
280,192,234723,1,8
248,200,234804,1,8
256,336,234966,1,0
416,256,235129,2,0,B|456:192|408:128,1,104.999996870756
416,256,235453,2,0,B|368:320|304:312,1,104.999996870756
320,200,235777,2,8,B|208:112,2,104.999996870756
328,232,236183,5,8
360,192,236264,1,8
256,192,236426,2,8,B|216:248|152:184,1,104.999996870756
256,192,236750,2,8,B|312:128|376:208,1,104.999996870756
256,344,237075,5,4
256,256,237237,5,4
256,128,237399,5,4
344,88,237723,2,0,B|424:184,1,104.999996870756
368,208,238048,2,0,B|296:104,1,104.999996870756
192,120,238372,2,0,B|112:208,1,104.999996870756
72,160,238696,2,0,B|152:72,1,104.999996870756
256,48,239020,5,0
256,80,239102,1,0
256,112,239183,1,0
256,144,239264,1,0
256,176,239345,1,0
256,208,239426,1,0
256,240,239507,1,0
256,272,239588,1,0
256,304,239669,1,0
120,304,239993,5,0
120,256,240075,1,0
120,200,240156,1,0
120,144,240237,1,0
168,96,240318,2,8,B|256:40|256:40|376:112,1,209.999993741512
352,160,240966,2,8,B|256:208|256:208|144:144,1,209.999993741512
256,120,241615,6,8,B|176:224|176:224|256:312,1,209.999993741512
256,120,242264,2,8,B|344:224|344:224|264:304,1,209.999993741512
376,64,242912,2,0,B|440:80|448:144,1,104.999996870756
136,64,243237,2,0,B|88:80|64:136,1,104.999996870756
48,272,243561,2,2,B|208:336|376:336|496:248,1,419.999987483025
256,88,244372,5,8
336,200,244534,1,8
184,200,244696,1,8
256,136,245020,5,8
256,176,245183,2,2,B|264:184|264:184|256:192|256:192|264:200|264:200|256:208|256:208|264:216|264:216|256:224|256:224|264:232|264:232|256:240|256:240|264:248|264:248|256:256|256:256|264:264|264:264|256:272|256:272|264:280|264:280|256:288|256:288|264:296|264:296|256:304|256:304|264:312|264:312|256:320|256:320|264:328,1,209.999993741512
360,48,245831,2,4,B|448:80|488:160|480:256,1,209.999993741512
176,48,246480,2,4,B|96:88|56:144|48:248,1,209.999993741512
128,192,247129,2,4,B|144:128|192:104,2,104.999996870756
408,200,247777,2,4,B|400:136|352:96,2,104.999996870756
256,328,248426,5,0
88,192,248588,1,0
256,56,248750,1,0
400,192,248912,1,0
256,280,249075,1,0
160,192,249237,1,0
256,96,249399,1,0
336,192,249561,1,0
256,240,249723,1,0
256,144,249885,1,0
256,192,250048,5,4
256,192,250372,12,0,252966
256,48,253615,6,8,B|376:64|440:152|440:200,1,209.999993741512
432,224,254264,2,8,B|416:320|352:336|232:336,1,209.999993741512
216,336,254912,2,8,B|96:296|64:248|56:184,1,209.999993741512
64,168,255561,2,8,B|104:72|176:24|248:32,1,209.999993741512
256,192,256210,12,8,258156
256,192,258480,12,8,263507
