osu file format v12

[General]
AudioFilename: 06 Akitsuiri.mp3
AudioLeadIn: 2000
PreviewTime: 46371
Countdown: 0
SampleSet: Soft
StackLeniency: 0.7
Mode: 0
LetterboxInBreaks: 1
WidescreenStoryboard: 0

[Editor]
Bookmarks: 47469,70883,94298
DistanceSpacing: 1.5
BeatDivisor: 4
GridSize: 4

[Metadata]
Title:Akitsuiri
TitleUnicode:秋黴雨
Artist:Shinobu
ArtistUnicode:忍
Creator:Oriance
Version:Normal
Source:星空のメモリア-Wish upon a shooting star-
Tags:Hoshizora no Memoria Yume Ototsu Kogasaka You Stars Hibarigasaki original soundtrack OST visual novel
BeatmapID:341032
BeatmapSetID:136253

[Difficulty]
HPDrainRate:4
CircleSize:4
OverallDifficulty:4
ApproachRate:5
SliderMultiplier:1.3
SliderTickRate:1

[Events]
//Background and Video events
0,0,"BG.jpg",0,0
//Break Periods
//Storyboard Layer 0 (Background)
//Storyboard Layer 1 (Fail)
//Storyboard Layer 2 (Pass)
//Storyboard Layer 3 (Foreground)
//Storyboard Sound Samples
//Background Colour Transformations
3,100,163,162,255

[TimingPoints]
640,731.707317073171,4,2,1,20,1,0
47469,-100,4,2,1,30,0,1
69420,-100,4,2,1,20,0,0
70883,-100,4,2,1,30,0,1
94298,-100,4,2,1,20,0,0

[Colours]
Combo1 : 142,40,255
Combo2 : 0,64,128
Combo3 : 128,128,255

[HitObjects]
176,128,640,2,0,P|216:80|296:84,1,130,2|0,0:0|0:0,0:0:0:0:
264,168,1737,1,0,0:0:0:0:
356,136,2103,1,0,0:0:0:0:
196,244,2835,1,0,0:0:0:0:
12,180,3566,2,0,P|48:112|112:84,1,130,2|0,0:0|0:0,0:0:0:0:
112,184,4664,1,0,0:0:0:0:
204,148,5030,1,2,0:0:0:0:
432,56,6493,6,0,P|440:120|428:140,1,65,2|0,0:0|0:0,0:0:0:0:
344,96,7225,1,0,0:0:0:0:
376,188,7591,1,0,0:0:0:0:
280,168,7957,1,2,0:0:0:0:
84,316,9420,6,0,P|36:268|28:188,2,130,2|0|0,0:0|0:0|0:0,0:0:0:0:
472,240,12347,6,0,P|416:200|352:192,1,130,2|0,0:0|0:0,0:0:0:0:
268,152,13444,1,0,0:0:0:0:
172,160,13810,2,0,P|189:99|240:62,2,130,0|0|2,0:0|0:0|0:0,0:0:0:0:
268,152,15640,5,0,2:0:0:0:
332,80,16005,1,0,2:0:0:0:
400,148,16371,1,0,2:0:0:0:
332,216,16737,2,0,P|264:250|200:212,1,130,0|0,0:0|0:0,0:0:0:0:
88,88,18200,6,0,P|96:128|80:160,1,65,2|0,0:0|0:0,0:0:0:0:
36,232,18932,2,0,P|36:272|52:296,1,65,2|0,0:0|0:0,0:0:0:0:
128,232,19664,2,0,P|160:232|200:240,1,65,2|0,0:0|0:0,0:0:0:0:
320,312,20396,2,0,P|288:312|248:304,2,65,2|0|2,0:0|0:0|0:0,0:0:0:0:
410,348,21493,5,0,0:0:0:0:
473,273,21859,1,0,0:0:0:0:
421,191,22225,1,2,0:0:0:0:
328,216,22591,1,2,0:0:0:0:
204,40,24054,6,0,P|172:56|136:148,1,130,2|0,0:0|0:0,0:0:0:0:
228,128,25152,1,0,0:0:0:0:
268,216,25518,2,0,P|312:169|320:104,1,130
148,196,26981,1,2,0:0:0:0:
160,292,27347,6,0,P|200:280|224:252,1,65
312,160,28079,2,0,P|272:168|248:192,1,65,0|2,0:0|0:0,0:0:0:0:
128,64,29908,6,0,P|68:132|68:180,1,130,2|0,0:0|0:0,0:0:0:0:
164,156,31005,1,0,0:0:0:0:
124,244,31371,1,2,0:0:0:0:
392,312,32835,6,0,L|424:240,1,65,2|0,0:0|0:0,0:0:0:0:
368,168,33566,2,0,L|384:88,1,65
312,36,34298,1,0,0:0:0:0:
76,64,35761,6,0,P|76:120|140:176,1,130,2|0,0:0|0:0,0:0:0:0:
176,88,36859,1,0,0:0:0:0:
223,172,37225,2,0,P|204:236|148:268,1,130
176,88,38688,1,2,0:0:0:0:
272,88,39054,6,0,P|324:100|348:121,1,65
428,80,39786,2,0,P|452:104|468:144,1,65,0|2,0:0|0:0,0:0:0:0:
360,296,40883,1,0,0:0:0:0:
164,304,41615,6,0,L|124:248,1,65,2|0,0:0|0:0,0:0:0:0:
144,116,42347,2,0,L|192:180,1,65,2|0,0:0|0:0,0:0:0:0:
316,184,43079,2,0,L|268:128,1,65,2|0,0:0|0:0,0:0:0:0:
300,16,43810,2,0,L|356:80,1,65,2|0,0:0|0:0,0:0:0:0:
408,136,44542,6,0,P|408:232|304:280,1,195,2|2,0:0|0:0,0:0:0:0:
244,240,46005,1,2,0:0:0:0:
152,208,46371,6,0,P|148:252|152:280,1,65
120,124,47103,2,0,P|121:91|115:59,1,65,0|4,0:0|0:1,0:0:0:0:
312,64,48200,5,8,0:1:0:0:
404,96,48566,2,0,P|432:148|428:240,1,130,0|0,1:0|0:0,0:0:0:0:
348,176,49664,1,8,0:1:0:0:
352,272,50030,1,0,0:0:0:0:
264,232,50396,6,0,L|192:272,1,65,0|0,1:0|1:0,0:0:0:0:
112,284,51127,1,8,0:1:0:0:
24,328,51493,2,0,P|16:272|56:204,1,130
140,173,52591,1,8,0:1:0:0:
60,116,52957,2,0,P|92:100|124:76,1,65,0|0,0:0|1:0,0:0:0:0:
212,108,53688,6,0,P|244:84|276:76,1,65,0|8,0:0|0:1,0:0:0:0:
352,124,54420,1,0,1:0:0:0:
420,56,54786,2,0,P|444:136|420:200,1,130,0|8,0:0|0:1,0:0:0:0:
444,276,55883,2,0,P|380:268|356:252,1,65,0|0,0:0|1:0,0:0:0:0:
292,224,56615,5,0,1:0:0:0:
276,320,56981,2,0,P|236:304|204:272,2,65,8|0|0,0:1|0:0|0:0,0:0:0:0:
80,274,58079,2,0,P|109:288|132:312,2,65,0|8|0,0:0|0:1|0:0,0:0:0:0:
56,180,59176,6,0,P|72:140|152:76,1,130,0|8,1:0|0:1,0:0:0:0:
232,72,60274,2,0,L|304:64,1,65,0|0,1:0|0:0,0:0:0:0:
396,64,61005,1,0,0:0:0:0:
468,132,61371,1,8,0:1:0:0:
468,228,61737,1,0,0:0:0:0:
400,300,62103,5,0,1:0:0:0:
304,304,62469,2,0,L|216:320,1,65,0|8,1:0|0:1,0:0:0:0:
104,240,63200,2,0,P|144:272|160:296,2,65
16,200,64298,1,8,0:1:0:0:
56,112,64664,1,0,0:0:0:0:
144,152,65030,6,0,B|200:136|212:88|212:88|256:80,1,130,0|8,1:0|0:1,0:0:0:0:
340,80,66127,2,0,P|348:112|348:144,1,65,0|0,1:0|0:0,0:0:0:0:
320,296,66859,2,0,P|312:256|312:232,1,65,0|8,0:0|0:1,0:0:0:0:
240,164,67591,1,0,0:0:0:0:
212,256,67957,6,0,P|156:216|144:136,2,130,0|8|0,1:0|0:1|0:0,0:0:0:0:
328,100,70152,1,8,0:1:0:0:
464,240,70883,6,0,P|448:304|384:344,1,130,4|8,0:1|0:1,0:0:0:0:
304,312,71981,2,0,P|256:288|152:280,1,130,0|0,1:0|0:0,0:0:0:0:
84,292,73079,2,0,P|76:332|76:364,2,65,8|0|0,0:1|0:0|1:0,0:0:0:0:
32,208,74176,2,0,P|16:176|16:136,1,65,0|8,1:0|0:1,0:0:0:0:
88,84,74908,2,0,B|180:64|172:160|280:136,1,195,0|8,0:0|0:1,0:0:0:0:
456,160,76737,6,0,P|456:112|440:80,2,65,0|0|8,1:0|0:0|0:1,0:0:0:0:
416,248,77835,2,0,P|416:288|432:328,1,65,0|0,1:0|0:0,0:0:0:0:
272,352,78566,2,0,P|304:336|336:336,2,65,0|8|0,0:0|0:1|0:0,0:0:0:0:
176,332,79664,2,0,P|80:316|8:180,1,260,0|0,1:0|0:0,0:0:0:0:
196,136,81859,1,8,0:1:0:0:
368,48,82591,6,0,P|408:72|432:104,1,65,0|0,1:0|0:0,0:0:0:0:
400,180,83322,2,0,P|429:207|452:217,2,65,8|0|0,0:1|1:0|0:0,0:0:0:0:
308,144,84420,1,0,0:0:0:0:
288,240,84786,2,0,P|272:304|216:360,1,130,8|0,0:1|1:0,0:0:0:0:
132,340,85883,2,0,L|60:292,1,65,0|8,1:0|0:1,1:0:0:0:
64,176,86615,2,0,L|128:224,2,65
64,80,87713,1,8,0:1:0:0:
260,80,88444,6,0,P|316:48|400:68,1,130,0|8,1:0|0:1,0:0:0:0:
336,144,89542,1,0,1:0:0:0:
432,140,89908,6,0,P|464:196|448:280,1,130,0|8,0:0|0:1,0:0:0:0:
372,216,91005,1,0,0:0:0:0:
356,312,91371,6,0,P|300:344|220:332,1,130,0|8,1:0|0:1,0:0:0:0:
276,248,92469,2,0,L|236:176,1,65
124,140,93200,2,0,L|172:220,1,65,0|8,0:0|0:1,0:0:0:0:
328,104,94298,6,0,P|384:120|432:176,1,130,0|8,1:0|0:1,0:0:0:0:
336,196,95396,2,0,P|320:228|296:252,1,65,0|0,1:0|0:0,0:0:0:0:
204,264,96127,2,0,P|180:285|164:313,1,65,0|8,0:0|0:1,0:0:0:0:
120,124,97225,6,0,P|56:156|36:232,1,130,2|0,0:0|0:0,0:0:0:0:
132,216,98322,1,0,0:0:0:0:
76,296,98688,1,0,0:0:0:0:
220,164,99420,2,0,P|284:132|356:140,1,130,0|2,0:0|0:0,0:0:0:0:
436,108,100518,6,0,P|436:180|388:224,1,130
300,220,101615,1,2,0:0:0:0:
48,288,103079,6,0,P|40:248|48:200,1,65,2|0,0:0|0:0,0:0:0:0:
104,96,103810,2,0,P|112:136|104:184,2,65,0|0|2,0:0|0:0|0:0,0:0:0:0:
448,248,106005,6,0,P|408:298|384:304,1,65,2|0,0:0|0:0,0:0:0:0:
360,212,106737,1,0,0:0:0:0:
308,296,107103,1,0,0:0:0:0:
256,212,107469,2,0,P|264:172|288:140,2,65,0|0|2,0:0|0:0|0:0,0:0:0:0:
152,376,108932,6,0,P|96:336|72:256,1,130,2|0,0:0|0:0,0:0:0:0:
16,204,110030,2,0,L|0:124,1,65
80,32,110761,2,0,L|96:104,1,65,0|0,0:0|0:0,0:0:0:0:
284,144,111859,6,0,P|332:88|412:64,2,130,2|0|0,0:0|0:0|0:0,0:0:0:0:
452,240,114054,1,0,0:0:0:0:
264,296,114786,6,0,P|232:320|184:328,1,65,2|0,0:0|0:0,0:0:0:0:
136,192,115518,2,0,P|152:224|152:264,2,65,2|0|2,0:0|0:0|0:0,0:0:0:0:
192,112,116615,2,0,P|200:80|234:45,1,65,0|2,0:0|0:0,0:0:0:0:
292,120,117347,1,0,0:0:0:0:
388,116,117713,6,0,P|380:164|292:220,1,130,2|0,0:0|0:0,0:0:0:0:
284,308,118810,2,0,L|212:332,1,65,2|2,0:0|0:0,0:0:0:0:
