osu file format v12

[General]
AudioFilename: 06 Akitsuiri.mp3
AudioLeadIn: 2000
PreviewTime: 46371
Countdown: 0
SampleSet: Soft
StackLeniency: 0.7
Mode: 0
LetterboxInBreaks: 1
WidescreenStoryboard: 0

[Editor]
Bookmarks: 47469,70883
DistanceSpacing: 1.4
BeatDivisor: 4
GridSize: 8

[Metadata]
Title:Akitsuiri
TitleUnicode:秋黴雨
Artist:Shinobu
ArtistUnicode:忍
Creator:Oriance
Version:Easy
Source:星空のメモリア-Wish upon a shooting star-
Tags:Hoshizora no Memoria Yume Ototsu Kogasaka You Stars Hibarigasaki original soundtrack OST visual novel
BeatmapID:341033
BeatmapSetID:136253

[Difficulty]
HPDrainRate:2
CircleSize:4
OverallDifficulty:2
ApproachRate:2
SliderMultiplier:1
SliderTickRate:1

[Events]
//Background and Video events
0,0,"bg.jpg",0,0
//Break Periods
//Storyboard Layer 0 (Background)
//Storyboard Layer 1 (Fail)
//Storyboard Layer 2 (Pass)
//Storyboard Layer 3 (Foreground)
//Storyboard Sound Samples
//Background Colour Transformations
3,100,163,162,255

[TimingPoints]
640,731.707317073171,4,2,1,20,1,0
47469,-100,4,2,1,35,0,1
69420,-100,4,2,1,25,0,0
70883,-100,4,2,1,35,0,1
94298,-100,4,2,1,20,0,0

[Colours]
Combo1 : 142,40,255
Combo2 : 0,64,128
Combo3 : 128,128,255

[HitObjects]
40,64,640,2,0,P|24:144|40:224,1,150,2|0,0:0|0:0,0:0:0:0:
72,272,2103,1,0,0:0:0:0:
208,240,2835,1,0,0:0:0:0:
320,328,3566,2,0,P|368:352|416:352,2,100,2|0|2,0:0|0:0|0:0,0:0:0:0:
472,88,6493,6,0,P|471:162|432:224,1,150,2|0,0:0|0:0,0:0:0:0:
384,280,7957,1,2,0:0:0:0:
192,72,9420,6,0,B|144:103|96:87|96:87|56:127|63:177,1,200,2|0,0:0|0:0,0:0:0:0:
312,304,12347,6,0,P|392:272|424:200,1,150,2|0,0:0|0:0,0:0:0:0:
448,152,13810,1,0,0:0:0:0:
312,168,14542,1,0,0:0:0:0:
232,56,15274,6,0,P|184:104|168:192,1,150,2|0,0:0|0:0,0:0:0:0:
158,251,16737,2,0,P|135:273|61:291,1,100,2|0,0:0|0:0,0:3:0:0:
208,312,18200,6,0,P|256:288|320:288,1,100,2|0,0:0|0:0,0:0:0:0:
368,312,19298,1,0,0:0:0:0:
424,264,19664,2,0,P|448:216|440:168,1,100,2|0,0:0|0:0,0:0:0:0:
400,112,20761,1,0,0:0:0:0:
336,80,21127,2,0,B|240:64|256:136|136:120,1,200,2|2,0:0|0:0,0:0:0:0:
408,88,24054,6,0,P|363:150|280:128,1,150,2|0,0:0|0:0,0:0:0:0:
336,80,25518,1,0,0:0:0:0:
192,48,26249,2,0,P|144:56|96:104,1,100,0|2,0:0|0:0,0:0:0:0:
48,136,27347,2,0,P|48:184|16:240,1,100
72,288,28444,1,2,0:0:0:0:
352,280,29908,6,0,P|392:248|408:200,2,100,2|0|2,0:0|0:0|0:0,0:0:0:0:
184,56,32835,6,0,P|120:112|96:192,1,150,2|0,0:0|0:0,0:0:0:0:
88,240,34298,1,2,0:0:0:0:
352,344,35761,6,0,P|392:304|440:288,1,100,2|0,0:0|0:0,0:0:0:0:
472,232,36859,1,0,0:0:0:0:
480,160,37225,2,0,P|456:112|320:48,1,200,0|2,0:0|0:0,0:0:0:0:
72,160,40152,2,0,P|40:200|32:256,1,100
168,248,41615,6,0,P|216:248|280:272,1,100,2|0,0:0|0:0,0:0:0:0:
328,296,42713,1,0,0:0:0:0:
392,264,43079,2,0,P|440:232|456:96,1,200,2|2,0:0|0:0,0:0:0:0:
320,128,45274,5,0,0:0:0:0:
248,128,45640,2,0,L|200:104,1,50,2|2,0:0|0:0,0:0:0:0:
408,296,47469,5,4,0:1:0:0:
408,160,48200,2,0,P|336:168|288:240,1,150,8|0,0:1|0:0,0:0:0:0:
256,288,49664,2,0,P|184:296|152:280,1,100,8|0,0:1|1:0,0:0:0:0:
40,208,51127,6,0,P|72:168|128:152,1,100,8|0,0:1|0:0,0:0:0:0:
152,88,52225,2,0,P|136:56|120:40,2,50,0|8|0,0:0|0:1|0:0,0:0:0:0:
224,80,53322,5,0,1:0:0:0:
360,32,54054,2,0,P|376:96|352:144,1,100,8|0,0:1|0:0,0:0:0:0:
320,184,55152,1,0,0:0:0:0:
376,232,55518,2,0,P|392:256|416:271,2,50,8|0|0,0:1|0:0|1:0,0:0:0:0:
240,248,56981,6,0,P|184:264|112:320,1,150,8|0,0:1|0:0,0:0:0:0:
48,288,58444,2,0,P|24:232|24:176,1,100,8|0,0:1|1:0,0:0:0:0:
112,72,59908,6,0,B|160:40|232:64|232:64|240:112|288:128,1,200,8|8,0:1|0:1,0:0:0:0:
304,56,61737,1,0,0:0:0:0:
352,112,62103,6,0,P|344:160|216:176,1,200,0|0,1:0|0:0,0:0:0:0:
80,216,64298,2,0,P|48:256|32:304,1,100,8|0,0:1|1:0,0:0:0:0:
168,320,65761,5,8,0:1:0:0:
224,272,66127,2,0,P|232:248|224:208,2,50,0|0|0,1:0|0:0|0:0,0:0:0:0:
280,320,67225,2,0,P|352:312|384:288,1,100,8|0,0:1|1:0,0:0:0:0:
440,176,68688,6,0,B|400:144|400:80|400:80|368:32|312:40,1,200,8|8,0:1|0:1,0:0:0:0:
304,176,70883,6,0,P|248:168|208:120,1,100,4|8,0:1|0:1,0:0:0:0:
176,80,71981,2,0,P|96:80|32:136,1,150,0|8,1:0|0:1,0:0:0:0:
32,256,73810,2,0,P|24:312|56:360,1,100,0|8,1:0|0:1,0:0:0:0:
96,296,74908,2,0,B|176:272|168:336|256:296,1,150,0|8,0:0|0:1,0:0:0:0:
376,264,76737,6,0,P|384:224|432:184,1,100,0|8,1:0|0:1,0:0:0:0:
448,256,77835,2,0,P|496:208|472:128,1,150,0|8,1:0|0:1,0:0:0:0:
360,64,79664,2,0,B|304:32|264:48|264:48|272:112|208:144,1,200,0|0,1:0|0:0,0:0:0:0:
128,40,81859,1,8,0:1:0:0:
48,152,82591,6,0,P|64:208|104:248,1,100,0|8,1:0|0:1,0:0:0:0:
48,296,83688,2,0,P|112:336|200:336,1,150,0|8,1:2|0:1,2:2:0:0:
312,280,85518,2,0,P|328:240|392:216,1,100,0|8,1:0|0:1,0:0:0:0:
384,288,86615,2,0,P|424:272|432:168,1,150,0|8,0:0|0:1,0:0:0:0:
384,48,88444,5,0,1:0:0:0:
112,96,89908,5,0,0:0:0:0:
264,328,91371,6,0,P|336:288|352:208,1,150,0|0,1:0|0:0,0:0:0:0:
160,144,93566,2,0,L|248:224,1,100,8|0,0:1|1:0,0:0:0:0:
288,336,95030,2,0,B|352:336|368:272|368:272|336:232|352:168,1,200,8|8,0:1|0:1,0:0:0:0:
208,184,97225,6,0,P|128:176|80:128,1,150,2|0,0:0|0:0,0:0:0:0:
48,64,98688,1,0,0:0:0:0:
184,72,99420,2,0,P|232:48|288:48,1,100,0|2,0:0|0:0,0:0:0:0:
336,88,100518,2,0,P|360:136|448:184,1,150,0|2,0:0|0:0,0:0:0:0:
200,328,103079,6,0,P|120:328|64:272,1,150,2|0,0:0|0:0,0:0:0:0:
32,224,104542,1,2,0:0:0:0:
296,120,106005,6,0,P|336:88|400:80,1,100,2|0,0:0|0:0,0:0:0:0:
456,88,107103,2,0,L|520:120,1,50,0|0,0:0|0:0,0:0:0:0:
280,288,108932,6,0,P|216:264|128:272,1,150,2|0,0:0|0:0,0:0:0:0:
64,256,110396,2,0,B|96:176|79:152|79:152|16:128|24:72,1,200,0|2,0:0|0:0,0:0:0:0:
96,80,112225,6,0,P|144:64|256:72,1,150
384,56,114054,1,0,0:0:0:0:
408,192,114786,6,0,P|360:192|296:160,1,100,2|0,0:0|0:0,0:0:0:0:
248,144,115884,1,0,0:0:0:0:
184,176,116249,2,0,B|176:240|104:224|112:312,1,150,2|0,0:0|0:0,0:0:0:0:
184,296,117713,2,0,P|256:320|328:288,1,150,2|2,0:0|0:0,0:0:0:0:
344,224,119176,5,2,0:0:0:0:
