osu file format v9

[General]
AudioFilename: 16..mp3
AudioLeadIn: 0
PreviewTime: 75724
Countdown: 0
SampleSet: Soft
StackLeniency: 0.2
Mode: 0
LetterboxInBreaks: 1

[Editor]
Bookmarks: 19324,75724
DistanceSpacing: 0.8
BeatDivisor: 2
GridSize: 32

[Metadata]
Title:Nagisa~Saka no Shita no Wakare
Artist:Shinji Orito, Magome Togoshi
Creator:Magical Pokie
Version:Small Dream
Source:CLANNAD
Tags:OST Furukawa Okazaki Dango Daikazoku

[Difficulty]
HPDrainRate:1
CircleSize:3
OverallDifficulty:1
ApproachRate:2
SliderMultiplier:1
SliderTickRate:0.5

[Events]
//Background and Video events
0,0,"CLANNAD.jpg"
//Break Periods
2,36397,37037
//Storyboard Layer 0 (Background)
//Storyboard Layer 1 (Fail)
//Storyboard Layer 2 (Pass)
//Storyboard Layer 3 (Foreground)
//Storyboard Sound Samples
//Background Colour Transformations
3,100,163,162,255

[TimingPoints]
19397,600,4,2,1,34,1,0
32224,-100,4,2,1,19,0,0
32824,-100,4,2,1,34,0,0
35824,-100,4,2,1,19,0,0
36424,-100,4,2,1,34,0,0
57124,-100,4,2,1,34,0,0
57424,-100,4,2,1,19,0,0
58024,-100,4,2,1,34,0,0
58324,-100,4,2,1,34,0,0
76924,-100,4,1,1,44,0,1
76961,-100,4,2,1,44,0,1
114124,-100,4,2,1,18,0,0

[Colours]
Combo1 : 255,255,255
Combo2 : 255,128,128
Combo3 : 255,128,0
Combo4 : 0,255,0

[HitObjects]
96,80,19397,6,0,B|96:232,1,100,0|8
160,192,20597,2,0,B|288:192,1,100,0|8
320,160,21797,2,0,B|320:32,1,100,0|8
256,64,22997,2,0,B|128:64,1,100,0|2
96,96,24197,5,0
64,160,24797,1,8
64,224,25397,1,0
96,288,25997,2,0,B|224:288,1,100,0|8
256,288,27197,2,0,B|384:288|384:288,1,100,0|8
224,192,28997,5,0
288,192,29597,1,8
352,192,30197,1,0
416,192,30797,1,8
480,192,31397,1,0
480,192,31997,2,0,B|480:64,2,100,8|4|8
480,192,33797,6,0,B|352:192,1,100,0|8
384,192,34997,2,0,B|288:96,1,100,0|8
314,121,36197,1,4
480,256,38597,6,0,B|480:96,1,100,0|8
416,160,39797,2,0,B|416:288,1,100,0|8
352,256,40997,2,0,B|352:128,1,100,0|8
288,160,42197,2,0,B|288:288,1,100,0|8
224,256,43397,5,0
160,256,43997,1,8
160,192,44597,1,0
224,192,45197,1,8
288,192,45797,1,0
288,128,46397,1,8
224,128,46997,1,0
96,96,48197,5,8
96,160,48797,1,0
160,160,49397,1,8
224,160,49997,1,0
288,160,50597,1,8
288,96,51197,1,0
352,96,51797,1,8
352,160,52397,1,8
352,224,52997,6,0,B|192:224,4,100,0|8|0|0|0
192,160,56597,5,0
288,288,57797,5,4
224,288,58397,1,8
160,288,58997,1,8
96,288,59597,2,8,B|96:160,3,100,8|0|8|0
160,192,61997,1,4
224,192,62597,5,0
288,192,63197,1,8
352,192,63797,2,0,B|480:192,3,100,8|0|8|0
480,256,66197,6,8,B|448:288|416:288|384:256,1,100
384,192,67397,5,0
320,192,67997,1,8
256,192,68597,1,8
192,192,69197,1,0
128,192,69797,2,0,B|64:192|64:320,3,100,8|0|8|0
256,192,72197,12,4,74597
256,64,75797,5,0
256,64,76397,1,0
256,64,76997,1,0
256,64,77597,6,0,B|0:64,2,200,0|8|0
256,128,80597,1,0
256,192,81197,5,8
192,224,81797,1,0
128,192,82397,1,8
128,192,82997,2,0,B|128:64,1,100,0|8
192,96,84197,2,0,B|320:96,2,100,0|8|0
320,256,86597,5,8
480,256,87797,5,0
480,96,88997,5,8
320,96,90197,5,0
256,96,90797,1,8
192,96,91397,1,0
256,192,92597,12,0,94097
160,192,96197,1,8
224,192,96797,1,0
288,192,97397,1,8
352,192,97997,2,0,B|480:32,1,200,0|8
416,0,99797,6,0,B|256:192|128:-64,2,300,0|8|0
320,128,104597,5,8
256,96,105797,2,0,B|0:96,3,200,0|8|0|8
32,160,109997,6,0,B|32:320,1,100,0|8
256,192,111797,12,4,114197
