osu file format v5

[General]
AudioFilename: Gym Leader Battle.mp3
AudioLeadIn: 0
PreviewTime: -1
Countdown: 1
SampleSet: Soft
StackLeniency: 0.7
Mode: 0
LetterboxInBreaks: 1
EditorBookmarks: 10840,23281,28576,50193,55928,68017,73399,84868

[Metadata]
Title:Gym Leader Battle
Artist:Shinji Miyazaki
Creator:kingcobra52
Version:Normal
Source:Pokemon
Tags:

[Difficulty]
HPDrainRate:4
CircleSize:4
OverallDifficulty:5
SliderMultiplier:1
SliderTickRate:2

[Events]
//Background and Video events
0,0,"dp1-49170_2.jpg"
//Break Periods
2,40070,50087
//Storyboard Layer 0 (Background)
//Storyboard Layer 1 (Failing)
//Storyboard Layer 2 (Passing)
//Storyboard Layer 3 (Foreground)
//Storyboard Sound Samples
//Background Colour Transformations
3,100,163,162,255

[TimingPoints]
1927,353.148911124191,4,2,0,100,1

[Colours]
Combo1 : 0,244,0
Combo2 : 255,0,128
Combo3 : 5,5,240
Combo4 : 255,255,0
Combo5 : 255,0,0

[HitObjects]
168,72,11815,1,0
256,72,12168,1,0
344,72,12521,1,0
432,72,12874,1,0
432,72,13051,2,0,B|432:176,1,100
432,264,13757,2,0,B|432:320,5,50
248,312,15346,1,0
112,192,16052,1,2
248,72,16759,1,2
384,192,17465,5,0
384,280,17818,1,0
296,280,18171,1,0
208,280,18524,1,0
208,280,18701,2,0,B|160:240|112:280,1,100
104,184,19407,2,0,B|40:184,5,50,0|0|0|0|0|0
208,88,20997,5,0
336,208,21703,1,0
472,88,22409,1,2
336,208,23115,1,0
336,296,23469,6,2,B|336:336,2,25
200,296,24175,6,2,B|200:336,2,25
64,296,24881,6,2,B|64:336,2,25
64,72,25941,6,2,B|64:32,2,25
200,72,26647,6,2,B|200:24,2,25
336,72,27353,6,2,B|336:32,2,25
144,192,28413,5,4
96,272,28766,2,0,B|16:184|104:88,1,200
192,88,29825,2,0,B|276:179|196:267,1,200
104,264,30885,1,0
104,176,31238,6,2,B|64:128|112:80,3,100
192,64,32650,6,2,B|240:32|288:64,3,100
368,88,34063,5,4
368,88,34240,2,0,B|424:224|288:312,1,250,4|2
208,304,35476,1,4
208,304,35652,2,0,B|136:240|144:144|208:80,1,250,4|2
256,192,36888,12,4,39890
56,200,51014,5,0
104,280,51367,1,0
192,280,51720,1,0
192,280,51897,2,0,B|208:320|304:344|376:320|424:280|440:224,1,300,0|2
440,136,53310,1,2
328,56,53839,5,0
264,120,54193,1,0
200,56,54546,1,0
200,56,54722,2,0,B|120:64|88:128|152:168|200:192|144:280|88:256|48:240,1,300,0|2
64,336,56135,6,4,B|128:336,3,50
200,336,57018,1,0
288,312,57371,1,0
344,240,57724,1,0
344,240,57901,2,0,B|392:192|352:144,1,100
296,80,58607,2,0,B|272:56|232:72,5,50
80,120,60196,5,0
128,288,60902,1,0
304,288,61609,1,2
360,120,62315,5,0
432,168,62668,1,0
440,256,63021,1,0
384,328,63374,1,0
384,328,63551,2,0,L|328:328|288:272,1,100
272,208,64257,2,0,B|248:152,5,50
80,104,65846,5,0
80,280,66553,1,0
256,280,67259,1,2
256,104,67965,1,0
344,104,68318,6,2,B|384:104,2,25
456,176,69025,6,2,B|504:176,2,25
344,256,69731,6,2,B|384:256,2,25
120,256,70791,6,2,B|88:256,2,25
48,144,71497,6,2,B|16:144,2,25
120,32,72203,6,2,B|80:32,2,25
280,192,73263,5,4
280,104,73616,2,0,B|368:24|464:112,1,200
456,200,74675,2,0,B|365:284|277:204,1,200
280,296,75735,1,0
192,295,76088,6,2,B|147:265|96:296,3,100
104,208,77500,6,2,B|152:176|200:208,3,100
200,112,78914,5,4
200,112,79090,2,0,B|232:88|272:80|320:88|320:152|400:160|440:112,1,250,4|2
432,208,80325,1,4
431,208,80502,2,0,B|400:248|320:240|320:176|272:168|232:176|200:200,1,250,4|2
256,192,81738,12,4,84563
256,192,85976,5,4
72,56,86859,2,4,L|232:56,1,150
256,192,88801,5,4
432,328,89684,2,4,L|272:328,1,150
144,328,90743,1,4
80,208,91273,1,4
144,88,91803,1,4
280,64,92332,5,4
400,128,92862,1,4
