osu file format v9

[General]
AudioFilename: Shinji Hosoe - Dragon Spirit Medley.mp3
AudioLeadIn: 2000
PreviewTime: 2818
Countdown: 0
SampleSet: Normal
StackLeniency: 0.5
Mode: 1
LetterboxInBreaks: 1

[Editor]
DistanceSpacing: 1
BeatDivisor: 4
GridSize: 32

[Metadata]
Title:Dragon Spirit Medley
Artist:Shinji Hosoe
Creator:AIR315
Version:Taiko Futsuu
Source:Taiko no Tatsujin
Tags:Namco game Niva tutuhaha 12BARRY21 Firce777

[Difficulty]
HPDrainRate:5
CircleSize:5
OverallDifficulty:5
ApproachRate:5
SliderMultiplier:1.4
SliderTickRate:2

[Events]
//Background and Video events
0,0,"BG.jpg"
//Break Periods
//Storyboard Layer 0 (Background)
//Storyboard Layer 1 (Fail)
//Storyboard Layer 2 (Pass)
//Storyboard Layer 3 (Foreground)
//Storyboard Sound Samples
//Background Colour Transformations
3,100,163,162,255

[TimingPoints]
76,342.857142857143,4,1,0,100,1,0
76876,-100,4,1,0,100,0,1
91961,-100,4,1,0,100,0,0

[Colours]
Combo1 : 0,0,255
Combo2 : 255,0,0

[HitObjects]
256,192,1447,5,0
256,192,2133,6,0,B|416:192,1,140
256,192,2818,5,0
256,192,3161,1,0
256,192,3504,1,0
256,192,4190,1,0
256,192,4533,5,8
256,192,4875,5,0
256,192,5047,1,0
256,192,5218,1,0
256,192,5561,1,0
256,192,5904,1,0
256,192,6247,1,0
256,192,6933,1,0
256,192,7275,5,8
256,192,7618,5,0
256,192,7790,1,0
256,192,7961,5,8
256,192,8304,5,0
256,192,8647,1,0
256,192,8990,1,0
256,192,9675,1,0
256,192,10018,5,8
256,192,10361,5,0
256,192,10533,1,0
256,192,10704,1,0
256,192,11047,1,0
256,192,11390,1,0
256,192,11733,1,0
256,192,12418,1,0
256,192,12761,5,8
256,192,13104,1,8
256,192,13276,1,8
256,192,13447,1,8
256,192,13790,5,0
256,192,14133,1,0
256,192,14476,1,0
256,192,15161,1,0
256,192,15504,5,8
256,192,15847,5,0
256,192,16018,1,0
256,192,16190,1,0
256,192,16533,1,0
256,192,16876,1,0
256,192,17218,1,0
256,192,17904,1,0
256,192,18247,5,8
256,192,18590,5,0
256,192,18761,1,0
256,192,18933,5,8
256,192,19276,5,0
256,192,19618,1,0
256,192,19961,1,0
256,192,20647,1,0
256,192,20990,5,8
256,192,21333,1,8
256,192,21504,1,8
256,192,21676,1,8
256,192,22018,5,0
256,192,22361,1,0
256,192,22704,1,0
256,192,23047,1,0
256,192,23390,5,8
256,192,23733,1,8
256,192,24076,1,8
256,192,24418,1,8
256,192,24761,5,4
256,192,26133,1,0
256,192,27504,1,0
256,192,28190,1,0
256,192,28533,1,0
256,192,28876,1,0
256,192,29218,5,8
256,192,29733,1,8
256,192,29904,1,8
256,192,30247,5,0
256,192,30933,5,8
256,192,31618,5,0
256,192,32304,5,8
256,192,32990,5,0
256,192,33676,1,0
256,192,34018,5,8
256,192,34361,12,0,35047
256,192,35733,5,0
256,192,36076,1,0
256,192,36418,1,0
256,192,37104,1,0
256,192,37275,1,0
256,192,37447,5,8
256,192,37790,5,0
256,192,38475,1,0
256,192,38818,1,0
256,192,39161,1,0
256,192,39847,1,0
256,192,40018,1,0
256,192,40190,5,8
256,192,40533,5,0
256,192,40704,1,0
256,192,40875,5,8
256,192,41390,5,0
256,192,41561,1,0
256,192,41904,1,0
256,192,42075,1,0
256,192,42590,1,0
256,192,42933,1,0
256,192,43104,1,0
256,192,43447,5,8
256,192,43618,1,8
256,192,43961,5,0
256,192,44304,1,0
256,192,44647,1,0
256,192,45333,1,0
256,192,45504,1,0
256,192,45675,5,8
256,192,46018,5,0
256,192,46704,1,0
256,192,47390,5,8
256,192,48075,5,0
256,192,48761,5,8
256,192,49447,5,0
256,192,49790,1,0
256,192,50133,5,8
256,192,50475,1,8
256,192,50818,5,4
256,192,52190,1,0
256,192,52361,1,0
256,192,53561,1,0
256,192,53733,1,0
256,192,54933,1,0
256,192,55275,5,8
256,192,55618,5,0
256,192,56304,1,0
256,192,56475,1,0
256,192,56647,1,0
256,192,56990,1,0
256,192,57161,1,0
256,192,57333,1,0
256,192,57675,1,0
256,192,58018,5,8
256,192,58361,5,0
256,192,59047,1,0
256,192,59218,1,0
256,192,59390,1,0
256,192,59733,5,8
256,192,59904,1,8
256,192,60075,1,8
256,192,60418,5,0
256,192,60761,5,8
256,192,61104,5,0
256,192,61790,1,0
256,192,61961,1,0
256,192,62133,1,0
256,192,62475,1,0
256,192,62647,1,0
256,192,62818,1,0
256,192,63161,1,0
256,192,63847,5,8
256,192,64533,5,0
256,192,64875,1,0
256,192,65218,5,8
256,192,65390,1,8
256,192,65561,1,8
256,192,65733,1,8
256,192,65904,5,0
256,192,67275,1,0
256,192,67961,5,8
256,192,68475,5,0
256,192,70018,1,0
256,192,70704,5,8
256,192,70875,1,8
256,192,71218,5,0
256,192,72761,1,0
256,192,73447,5,8
256,192,73961,5,0
256,192,74818,1,0
256,192,74990,1,0
256,192,75333,1,4
256,192,76704,1,0
256,192,77218,5,8
256,192,77561,5,0
256,192,78247,1,0
256,192,78590,5,8
256,192,78933,5,0
256,192,79104,1,0
256,192,79447,1,0
256,192,79961,5,8
256,192,80304,5,0
256,192,80990,1,0
256,192,81333,5,8
256,192,81675,5,0
256,192,81847,1,0
256,192,82190,1,0
256,192,82704,5,8
256,192,83047,5,0
256,192,83733,1,0
256,192,84075,5,8
256,192,84418,5,0
256,192,84590,1,0
256,192,84933,1,0
256,192,85447,5,8
256,192,85790,5,0
256,192,86475,6,0,B|416:192,3,140
256,192,87847,5,0
256,192,88533,5,8
256,192,89218,5,0
256,192,89904,5,8
256,192,90590,5,0
256,192,90933,1,0
256,192,91276,5,8
256,192,91618,1,8
256,192,91961,5,4
256,192,93333,1,0
256,192,96076,1,0
256,192,96590,5,8
256,192,96933,1,8
256,192,97447,5,0
256,192,98133,1,0
256,192,98818,1,4
256,192,100190,5,8
256,192,100533,1,8
256,192,100876,1,8
256,192,101218,1,8
256,192,101561,5,0
256,192,101733,1,0
256,192,102076,1,0
256,192,102418,1,0
256,192,102933,1,0
256,192,103618,1,4
256,192,104304,1,0
256,192,104647,5,8
256,192,104990,5,0
256,192,105676,1,0
256,192,105847,1,0
256,192,106018,5,8
256,192,106361,5,0
256,192,107047,1,0
256,192,107390,5,8
256,192,107733,5,0
256,192,108418,1,0
256,192,108590,1,0
256,192,108761,5,8
256,192,109104,5,0
256,192,109276,1,0
256,192,109447,5,8
256,192,109790,5,0
256,192,110133,5,8
256,192,110476,5,0
256,192,111161,1,0
256,192,111333,1,0
256,192,111504,5,8
256,192,111847,5,0
256,192,112533,1,0
256,192,112876,5,8
256,192,113390,5,0
256,192,113733,1,0
256,192,114247,5,8
256,192,114590,5,0
256,192,114761,1,0
256,192,114933,1,0
256,192,115104,1,0
256,192,115276,1,0
256,192,115618,5,8
256,192,115961,5,0
256,192,116304,1,0
256,192,116476,1,0
256,192,116818,1,0
256,192,116990,5,8
256,192,117333,5,0
256,192,117676,1,0
256,192,117847,1,0
256,192,118190,1,0
256,192,118361,5,8
256,192,118704,5,0
256,192,119047,1,0
256,192,119218,1,0
256,192,119561,1,0
256,192,119733,1,0
256,192,120076,1,0
256,192,120761,1,4
256,192,121790,1,0
256,192,121961,1,0
256,192,122476,5,8
256,192,122818,5,0
256,192,122990,1,0
256,192,123161,1,0
256,192,123504,1,4
256,192,124361,1,4
256,192,124704,1,4
256,192,125218,5,8
256,192,125561,5,0
256,192,125733,1,0
256,192,125904,1,0
256,192,126247,12,0,126933
256,192,127618,5,0
256,192,127961,5,0
256,192,128304,1,0
256,192,128990,1,0
256,192,129333,1,0
256,192,129676,1,0
256,192,129847,1,0
256,192,130018,5,8
256,192,130361,5,0
256,192,130704,1,0
256,192,131047,1,0
256,192,131733,1,0
256,192,131904,1,0
256,192,132076,5,8
256,192,132418,5,0
256,192,132590,1,0
256,192,132761,5,8
256,192,133104,5,0
256,192,133447,1,0
256,192,133790,1,0
256,192,134476,1,0
256,192,134818,1,0
256,192,135161,1,0
256,192,135333,1,0
256,192,135504,5,8
256,192,135847,5,0
256,192,136190,1,0
256,192,136533,1,0
256,192,137218,1,0
256,192,137390,1,0
256,192,137561,5,8
256,192,137904,1,8
256,192,138076,1,8
256,192,138247,1,8
256,192,138418,1,8
256,192,138590,5,0
256,192,138933,1,0
256,192,139276,1,0
256,192,139447,1,0
256,192,139618,1,0
256,192,139961,1,0
256,192,140133,1,0
256,192,140304,1,0
256,192,140647,1,0
256,192,140818,1,0
256,192,140990,5,8
256,192,141333,5,0
256,192,141676,1,0
256,192,142018,1,0
256,192,142190,1,0
256,192,142361,1,0
256,192,142704,1,0
256,192,142876,1,0
256,192,143047,1,0
256,192,143390,1,0
256,192,143561,1,0
256,192,143733,5,8
256,192,144076,5,0
256,192,144418,1,0
256,192,144761,1,0
256,192,144933,1,0
256,192,145104,1,0
256,192,145447,1,0
256,192,145618,1,0
256,192,145790,1,0
256,192,146133,1,0
256,192,146304,1,0
256,192,146476,1,0
256,192,146647,1,0
256,192,146818,1,4
256,192,147161,1,4
256,192,147504,1,4
256,192,147847,1,4
256,192,148190,5,12
256,192,148533,1,12
256,192,148876,1,12
256,192,149218,1,12
256,192,149561,6,0,B|480:192,1,210
256,192,150247,1,0
256,192,152304,1,4
