osu file format v9

[General]
AudioFilename: Shinji Hosoe - Dragon Spirit Medley.mp3
AudioLeadIn: 0
PreviewTime: 2818
Countdown: 0
SampleSet: Soft
StackLeniency: 0.5
Mode: 0
LetterboxInBreaks: 1

[Editor]
DistanceSpacing: 1
BeatDivisor: 4
GridSize: 4

[Metadata]
Title:Dragon Spirit Medley
Artist:Shinji Hosoe
Creator:AIR315
Version:Insane
Source:Taiko no Tatsujin
Tags:Namco game Niva tutuhaha 12BARRY21 Firce777

[Difficulty]
HPDrainRate:8
CircleSize:4
OverallDifficulty:7
ApproachRate:9
SliderMultiplier:1.76
SliderTickRate:2

[Events]
//Background and Video events
0,0,"BG.jpg"
//Break Periods
2,93533,95133
//Storyboard Layer 0 (Background)
//Storyboard Layer 1 (Fail)
//Storyboard Layer 2 (Pass)
//Storyboard Layer 3 (Foreground)
//Storyboard Sound Samples
//Background Colour Transformations
3,100,163,162,255

[TimingPoints]
76,342.857142857143,4,2,1,70,1,0
2818,-100,4,2,1,80,0,1
24761,-100,4,2,1,60,0,0
46704,-100,4,2,1,70,0,0
52190,-100,4,2,1,60,0,0
54933,-100,4,2,1,70,0,0
65904,-100,4,2,1,50,0,0
76018,-100,4,2,1,60,0,0
76361,-100,4,2,1,70,0,0
76704,-100,4,2,1,80,0,0
91961,-100,4,2,1,70,0,0
104304,-100,4,2,1,60,0,0
115276,-100,4,2,1,70,0,0
120761,-100,4,2,1,60,0,0
121790,-100,4,2,1,70,0,0
123504,-100,4,2,1,60,0,0
124361,-100,4,2,1,70,0,0
127618,-100,4,2,1,80,0,1
148190,-100,4,2,1,60,0,1
149561,-100,4,2,1,50,0,0
152304,-100,4,2,1,100,0,0

[Colours]
Combo1 : 0,255,255
Combo2 : 255,0,0
Combo3 : 255,128,0
Combo4 : 255,255,0
Combo5 : 0,255,0

[HitObjects]
256,192,1447,5,8
164,52,2133,5,8
184,52,2218,1,8
208,52,2304,1,8
232,52,2390,1,8
256,52,2476,1,8
276,52,2561,1,8
300,52,2647,1,8
324,52,2733,1,8
344,52,2818,6,0,B|408:52|424:100|408:148|344:148,1,176,4|8
256,148,3333,1,0
168,148,3504,2,0,B|124:148,2,44
256,148,3847,1,8
256,148,4018,1,0
256,236,4190,6,0,B|256:280,2,44
256,148,4533,1,8
256,148,4704,1,0
344,148,4875,2,0,B|388:148,2,44
256,148,5218,1,8
256,148,5390,1,0
336,64,5561,6,0,B|316:44|288:32|256:24|224:32|196:44|176:64,1,176,0|8
128,140,6075,1,0
112,228,6247,2,0,B|68:228,2,44
104,316,6590,2,0,B|152:316|184:284,1,88,8|0
400,228,6933,6,0,B|444:228,2,44
408,316,7275,2,0,B|360:316|328:284,1,88,8|0
188,192,7618,1,0
256,108,7790,1,0
324,192,7961,1,8
20,288,8304,6,0,B|80:352|80:352|168:352,1,176,4|8
256,352,8818,1,0
344,352,8990,2,0,B|388:352,2,44
256,352,9333,1,8
256,352,9504,1,0
168,352,9675,6,0,B|124:352,2,44
256,264,10018,1,8
256,264,10190,1,0
344,264,10361,2,0,B|388:264,2,44
256,264,10704,1,8
256,264,10876,1,0
168,264,11047,6,0,B|124:264,2,44
256,176,11390,1,8
256,176,11561,1,0
344,176,11733,2,0,B|388:176,2,44
256,176,12076,1,8
256,176,12247,1,0
168,176,12418,6,0,B|124:176,2,44,8|8|8
256,88,12761,2,0,B|256:44,2,44,8|8|8
344,176,13104,2,0,B|388:176,7,44,8|8|8|8|8|8|8|8
412,176,13790,6,0,B|472:176|472:176|496:192|512:224|496:256|472:272,1,176,4|8
392,312,14304,1,0
304,324,14476,2,0,B|304:368,2,44
292,236,14818,2,0,B|280:216|256:208|232:216|220:236,1,88,8|0
208,324,15161,6,0,B|208:368,2,44
120,312,15504,2,0,B|76:304|44:272,1,88,8|0
8,192,15847,2,0,B|8:148,2,44
84,120,16190,1,8
160,192,16361,1,0
236,120,16533,6,0,B|412:120,1,176,0|8
476,184,17047,1,0
412,248,17218,2,0,B|368:248,2,44
484,312,17561,2,0,B|452:344|404:344,1,88,8|0
256,344,17904,5,8
232,344,17990,1,8
208,344,18076,1,8
296,232,18247,1,8
280,216,18333,1,8
264,200,18418,1,8
408,192,18590,1,8
408,168,18676,1,8
408,148,18761,1,8
408,124,18847,1,8
408,100,18933,2,0,B|408:56,3,44,8|8|8|8
408,32,19276,6,0,B|324:44|248:100,1,176,4|8
188,164,19790,1,0
148,244,19961,2,0,B|132:284,2,44
256,224,20304,1,8
188,164,20476,1,0
256,312,20647,6,0,B|256:356,2,44
324,164,20990,1,8
256,224,21161,1,0
364,244,21333,2,0,B|380:284,2,44,8|8|8
256,104,21676,2,0,B|256:60,3,44,8|8|8|8
256,40,22018,5,4
40,192,22361,1,4
256,344,22704,1,4
472,192,23047,1,4
180,152,23390,6,0,B|124:84,1,88,8|0
216,268,23733,2,0,B|148:324,1,88,8|0
332,232,24076,2,0,B|388:300,1,88,8|0
296,116,24418,2,0,B|364:60,1,88,8|0
256,192,24761,5,4
132,240,25018,2,0,B|112:280,1,44,0|2
24,260,25276,2,0,B|64:180,1,88
380,240,25704,2,0,B|400:280,1,44,0|2
488,260,25961,2,0,B|448:180,1,88
256,16,26390,6,0,B|256:60,1,44,0|2
256,148,26647,2,0,B|256:236,1,88
256,324,26990,2,0,B|256:368,2,44,0|0|2
168,236,27333,1,0
344,236,27504,5,0
428,80,27761,1,0
408,72,27847,2,0,B|328:40,2,88,2|0|0
428,304,28447,1,0
408,312,28533,2,0,B|328:344,2,88,2|0|0
256,192,29133,5,0
236,192,29218,2,0,B|148:192,2,88,2|0|0
340,108,29733,2,0,B|368:76,2,44,8|8|8
340,276,30076,2,0,B|368:308,2,44,8|8|4
60,192,30504,6,0,B|92:160,1,44,0|2
148,96,30761,1,0
204,32,30933,1,0
60,192,31190,2,0,B|92:224,1,44,0|2
148,288,31447,1,0
204,352,31618,1,0
412,192,31876,6,0,B|368:192,1,44,0|2
280,192,32133,1,0
192,192,32304,1,0
104,192,32476,2,0,B|60:192,2,44,0|0|2
192,192,32818,1,0
328,144,32990,5,0
407,102,33161,1,0
411,192,33333,1,8
162,129,33676,5,0
59,75,33847,1,0
54,192,34018,1,8
156,320,34361,5,0
255,194,34533,1,0
327,340,34704,1,8
256,57,35047,5,8
383,150,35218,1,8
334,300,35390,1,8
177,300,35561,1,0
128,150,35733,1,4
456,56,36076,5,8
336,184,36418,2,0,B|304:216,2,44
412,136,36761,2,0,B|460:136|460:136|480:156|488:196|480:236|460:256,1,176,8|0
368,328,37275,5,0
256,356,37447,1,8
144,328,37618,1,0
50,254,37790,2,0,B|32:236|24:196|32:156|52:136|52:136|100:136,1,176,0|8
168,192,38304,2,0,B|168:240|168:240|188:260|228:268|268:260|286:241,1,176
478,241,38818,6,0,B|478:193|478:193|458:173|418:165|378:173|360:192,1,176,8|0
288,244,39333,1,0
240,316,39504,2,0,B|164:316|164:316|156:284|136:256|100:248,1,176,8|0
32,192,40018,6,0,B|96:128,2,88,0|8|0
12,280,40533,1,0
100,248,40704,2,0,B|132:216,2,44,0|0|8
256,192,41218,5,0
423,137,41390,2,0,B|339:164,2,88,0|8|0
359,334,41904,2,0,B|307:263,2,88,0|0|8
152,334,42418,2,0,B|204:263,2,88
88,137,42933,6,0,B|172:164,2,88,8|0|0
255,16,43447,2,0,B|255:104,2,88,0|8|0
256,192,43961,5,0
256,192,44304,1,8
256,192,44647,1,0
256,192,44733,1,0
256,192,44818,1,0
256,192,44990,1,8
416,120,45333,6,0,B|344:72,1,88
256,92,45675,2,0,B|182:43,2,88,8|0|0
96,64,46190,1,0
96,64,46275,1,0
96,64,46361,1,8
228,216,46704,5,4
256,168,46875,1,0
283,216,47047,1,8
214,156,47390,5,0
256,228,47561,1,0
296,156,47733,1,8
193,246,48075,5,0
256,138,48247,1,0
316,246,48418,1,8
161,111,48761,5,0
256,274,48933,1,0
347,111,49104,1,8
168,56,49447,6,0,B|80:72,1,88
344,56,49790,2,0,B|432:72,1,88,8|0
184,140,50133,2,0,B|112:192,1,88
328,140,50475,2,0,B|400:192,1,88,8|0
200,224,50818,6,0,B|152:296,1,88
312,224,51161,2,0,B|360:296,1,88,8|0
256,288,51504,1,0
256,288,51675,1,0
256,288,51847,2,0,B|256:332,2,44,8|8|0
160,108,52190,5,8
352,108,52361,1,8
256,288,53047,2,0,B|256:336,2,44
256,192,53390,1,0
148,276,53561,5,8
364,276,53733,1,8
256,40,54418,1,8
256,192,54590,1,8
256,192,54675,1,8
256,192,54761,1,0
212,104,54933,6,0,B|204:80|180:68|156:68|132:80|132:80|88:148,1,176,4|8
300,280,55447,2,0,B|308:304|332:316|356:316|380:304|380:304|424:236,1,176
464,156,55961,1,8
60,60,56304,5,0
84,144,56475,1,0
128,220,56647,1,8
196,276,56818,1,0
280,304,56990,1,0
368,312,57161,2,0,B|412:312,2,44,0|0|8
428,148,57675,6,0,B|396:112|396:112|388:76|352:56|316:76|308:112,1,176,0|8
84,236,58190,2,0,B|116:272|116:272|124:308|160:328|196:308|204:272,1,176
220,184,58704,1,8
452,60,59047,5,0
428,144,59218,1,0
384,220,59390,1,8
316,276,59561,1,0
232,304,59733,2,0,B|240:348,2,44,8|8|0
144,312,60075,2,0,B|144:356,2,44,8|8|0
100,236,60418,6,0,B|124:176|124:176|160:184|196:168|220:132,1,176,4|8
412,236,60933,2,0,B|388:176|388:176|352:184|316:168|292:132,1,176
256,52,61447,1,8
64,32,61790,5,0
143,169,61961,1,0
172,60,62133,1,8
35,140,62304,1,0
61,250,62475,1,0
84,256,62561,1,0
104,260,62647,1,0
124,264,62733,1,0
144,268,62818,1,8
164,272,62904,1,0
184,276,62990,1,0
204,280,63075,1,0
224,284,63161,6,0,B|312:300,2,88,0|0|8
288,100,63847,2,0,B|200:84,2,88,0|0|8
440,192,64533,5,0
264,192,64704,1,0
352,192,64875,1,8
176,192,65047,1,0
44,192,65218,2,0,B|88:192,7,44,8|8|8|8|8|8|8|8
100,172,65904,6,0,B|119:128|151:92|191:72|231:64,1,176,4|2
316,76,66418,1,0
404,96,66590,2,0,B|492:108,1,88
404,184,66933,2,0,B|492:196,1,88,2|0
322,329,67447,6,0,B|237:307,1,88,0|2
152,284,67790,1,0
67,261,67961,1,0
67,261,68047,1,0
67,261,68133,1,0
256,192,68475,1,2
368,120,68818,6,0,B|424:52,2,88,0|2|0
144,120,69333,2,0,B|88:52,2,88,0|0|2
256,192,69847,1,0
148,264,70190,6,0,B|92:332,2,88,0|2|0
364,264,70704,2,0,B|420:332,2,88,0|0|2
256,192,71218,1,0
120,108,71561,5,2
392,108,71904,1,0
192,300,72247,5,2
320,300,72418,1,0
256,100,72761,5,0
256,100,72847,1,0
256,100,72933,2,0,B|256:12,2,88,0|2|0
256,192,73447,2,0,B|256:280,2,88,0|0|2
184,312,73961,2,0,B|200:352|256:368|312:352|328:312,1,176
360,196,74475,6,0,B|376:108,1,88,2|0
416,164,74818,2,0,B|432:76,1,88
472,132,75161,2,0,B|488:44,1,88,2|0
40,252,75675,6,0,B|32:296,2,44
40,252,76018,1,8
76,80,76361,1,8
208,196,76704,1,4
244,24,77047,6,0,B|416:64,1,176
464,140,77561,1,0
484,228,77733,1,0
464,316,77904,1,8
120,124,78247,6,0,B|188:68,2,88,0|0|8
392,260,78933,2,0,B|324:316,2,88,0|0|8
472,192,79447,2,0,B|440:160|392:148|344:160|312:192,1,176
40,192,79961,6,0,B|72:224|120:236|168:224|200:192,1,176,8|0
256,124,80475,1,0
40,56,80647,2,0,B|72:24|120:12|168:24|200:56,1,176,8|0
256,124,81161,5,0
472,192,81333,2,0,B|440:224|392:236|344:224|312:192,1,176,8|0
220,44,81847,2,0,B|256:124,2,88,0|8|4
320,272,82533,6,0,B|296:296|296:296|284:328|256:336|228:328|216:296|216:296|192:272,2,176
292,116,83390,2,0,B|300:80|300:80|284:56|256:48|228:56|212:80|212:80|220:116,1,176,8|0
191,273,83904,6,0,B|240:200,2,88,0|8|0
120,292,84418,2,0,B|168:218,2,88,0|0|8
56,372,84933,2,0,B|24:339|12:292|24:243|56:212,1,176
144,140,85447,5,8
252,108,85618,1,0
176,156,85790,5,8
324,176,85961,1,0
208,172,86133,5,8
360,264,86304,1,0
40,40,86647,5,8
112,88,86818,2,0,B|148:112,2,44,8|8|8
418,119,87161,2,0,B|379:138,2,44,8|8|8
237,368,87504,2,0,B|244:296,3,44,8|8|8|8
244,304,87847,5,4
167,260,88018,1,0
211,183,88190,1,8
288,227,88361,1,0
176,301,88533,5,0
122,209,88704,1,0
214,155,88876,1,8
268,247,89047,1,0
111,255,89218,5,0
111,131,89390,1,0
235,131,89561,1,8
235,255,89733,1,0
54,170,89904,5,0
133,31,90076,1,0
272,111,90247,1,8
193,249,90418,1,0
440,140,90590,6,0,B|360:176,1,88
420,204,90933,2,0,B|340:240,1,88,8|0
300,368,91276,6,0,B|380:332,1,88
320,304,91618,2,0,B|400:268,1,88,8|0
420,260,91876,1,0
440,252,91961,1,4
140,64,92647,6,0,B|216:156,2,117.333333333333,8|0|0
96,236,93333,1,4
128,104,95733,5,0
212,128,95904,1,0
276,188,96076,2,0,B|372:336,1,176,4|0
380,204,96590,2,0,B|366:247|328:279|280:290|237:276,1,176,8|8
76,204,97276,2,0,B|156:244,2,88,8|0|8
344,60,97961,5,8
364,52,98047,1,8
384,44,98133,1,0
480,192,98304,2,0,B|432:212,3,29.3333333333333,8|8|8|0
368,176,98647,1,0
284,204,98818,1,4
256,192,100190,5,8
140,192,100418,2,0,B|80:192,1,58.6666666666667,8|8
155,134,100647,2,0,B|103:104,1,58.6666666666667,8|8
198,91,100876,2,0,B|168:39,1,58.6666666666667,8|8
256,76,101104,2,0,B|256:16,1,58.6666666666667,0|0
314,91,101333,2,0,B|344:39,2,58.6666666666667,8|8|4
256,192,101733,6,0,B|372:324,2,176,0|0|8
20,72,102761,1,0
20,72,102847,1,0
20,72,102933,6,0,B|44:72|44:72|60:56|52:36|76:20|100:36|92:56|108:72|108:72|124:72|124:72|140:56|132:36|156:20|180:36|172:56|188:72|188:72|212:72,1,264,4|0
232,76,103533,1,0
252,84,103618,2,0,B|296:100|324:132,1,88,4|0
260,300,103961,2,0,B|216:284|188:252,1,88
252,84,104304,6,0,B|340:116|392:188,1,176,4|8
408,276,104818,1,0
260,300,104990,2,0,B|220:280,2,44
320,232,105333,2,0,B|340:316,2,88,8|0|0
252,84,105847,6,0,B|292:104,2,44,0|0|8
172,48,106190,1,0
44,44,106361,1,0
88,120,106533,1,0
156,172,106704,1,8
240,200,106876,1,0
328,192,107047,5,0
388,296,107218,2,0,B|352:272,2,44,0|0|8
256,328,107561,1,0
124,296,107733,2,0,B|160:272,2,44,0|0|0
256,328,108076,1,8
256,328,108247,1,0
256,192,108418,5,0
256,16,108590,2,0,B|256:60,2,44,0|0|8
432,192,108933,2,0,B|388:192,2,44,0|0|0
256,368,109276,2,0,B|256:324,2,44,0|0|8
80,192,109618,2,0,B|124:192,2,44
256,192,109961,5,0
256,192,110047,1,0
256,192,110133,2,0,B|308:120,1,88,8|0
340,40,110476,1,0
360,48,110561,1,0
376,64,110647,1,0
428,152,110818,2,0,B|452:236,2,88,8|0|0
304,328,111333,5,0
304,328,111418,1,0
304,328,111504,1,8
272,244,111676,1,0
272,244,111761,1,0
272,244,111847,1,0
160,316,112018,1,0
160,316,112104,1,0
160,316,112190,1,8
96,152,112361,1,0
96,152,112447,1,0
96,152,112533,6,0,B|136:92|136:92|184:72|184:72|236:68,1,176,0|8
320,88,113047,2,0,B|408:108,1,88
384,192,113390,2,0,B|472:212,2,88,8|0|8
348,280,113904,5,8
256,312,114076,1,8
130,265,114247,2,0,B|90:249,1,44,8|8
110,193,114418,2,0,B|84:158,1,44,8|8
129,120,114590,2,0,B|124:77,1,44,8|8
182,66,114761,2,0,B|198:26,1,44,8|8
254,46,114933,2,0,B|289:20,3,44,8|8|8|8
332,8,115276,6,0,B|420:20|420:20|460:48|444:96,1,176,4|8
428,184,115790,1,0
412,272,115961,2,0,B|404:320,2,44
428,184,116304,2,0,B|344:164,2,88,8|0|0
252,196,116818,5,0
232,184,116904,1,0
212,172,116990,1,8
152,100,117161,1,0
64,76,117333,2,0,B|40:160,1,88
64,244,117676,2,0,B|40:328,2,88,8|0|0
296,80,118190,5,0
276,84,118276,1,0
256,88,118361,2,0,B|168:108,1,88,8|0
216,304,118704,1,0
236,300,118790,1,0
256,296,118876,2,0,B|344:276,1,88,0|8
480,328,119218,1,0
412,140,119561,6,0,B|428:180,2,44,8|8|8
204,36,119904,2,0,B|244:20,2,44,8|8|8
100,244,120247,2,0,B|84:204,6,44,8|8|8|8|8|8|4
472,40,121104,5,8
400,152,121361,1,0
388,172,121447,2,0,B|340:244,1,88
124,212,121790,2,0,B|172:140,2,88,4|4|0
456,328,122304,5,0
456,328,122390,1,0
456,328,122476,1,8
324,328,122647,1,0
324,328,122733,1,0
324,328,122818,1,0
192,328,122990,1,0
192,328,123076,1,0
192,328,123161,1,8
60,328,123333,1,0
60,328,123418,1,0
60,328,123504,1,0
124,192,123676,6,0,B|124:236,2,44,0|0|8
112,104,124018,2,0,B|160:108|192:140,1,88,0|0
400,104,124361,2,0,B|324:148|300:244,1,176,4|4
60,328,125218,5,8
256,56,125561,1,0
452,328,125904,1,8
136,192,126247,5,4
148,192,126333,1,8
160,192,126418,1,8
172,192,126504,1,8
184,192,126590,1,8
196,192,126676,1,8
208,192,126761,1,8
220,192,126847,1,8
232,192,126933,1,8
260,192,127018,1,8
288,192,127104,1,8
316,192,127190,1,8
344,192,127276,2,0,B|364:192,7,22,8|8|8|8|8|8|8|8
376,192,127618,6,0,B|424:192|424:192|444:168|456:136|444:100|424:76,1,176,4|8
344,36,128133,1,0
256,28,128304,2,0,B|212:28,2,44
212,100,128647,1,8
144,156,128818,1,0
64,192,128990,6,0,B|20:192,2,44
144,228,129333,1,8
212,284,129504,1,0
256,356,129676,2,0,B|212:356,2,44
300,284,130018,1,8
368,228,130190,1,0
448,192,130361,6,0,B|408:116|320:76,1,176,0|8
256,136,130876,1,0
192,76,131047,2,0,B|148:76,2,44
160,160,131390,2,0,B|72:160,1,88,8|0
40,244,131733,6,0,B|84:244,2,44
160,328,132076,2,0,B|72:328,1,88,8|0
336,260,132418,1,0
160,192,132590,1,0
336,124,132761,1,8
24,28,133104,6,0,B|78:66|78:66|90:64|90:64|80:77|80:77|92:76|92:76|147:115,1,176,4|8
256,192,133618,1,0
256,280,133790,2,0,B|256:324,2,44
256,192,134133,1,8
256,192,134304,1,0
256,104,134476,6,0,B|256:60,2,44
344,192,134818,1,8
344,192,134990,1,0
344,280,135161,2,0,B|344:324,2,44
344,192,135504,1,8
344,192,135676,1,0
344,104,135847,6,0,B|344:60,2,44
256,192,136190,1,8
256,192,136361,1,0
168,280,136533,2,0,B|168:324,2,44
168,192,136876,1,8
168,192,137047,1,0
168,104,137218,6,0,B|168:60,2,44,8|8|8
80,192,137561,2,0,B|36:192,2,44,8|8|8
168,280,137904,1,8
192,280,137990,1,8
216,280,138076,1,8
236,280,138161,1,8
260,280,138247,1,8
284,280,138333,1,8
304,280,138418,1,8
328,280,138504,1,8
352,280,138590,6,0,B|428:280|428:280|436:244|452:212|480:196,1,176,4|8
492,112,139104,1,0
408,144,139276,1,0
388,152,139361,1,0
368,160,139447,1,0
332,80,139618,2,0,B|252:112,1,88,8|0
204,296,139961,6,0,B|260:272,2,44
128,256,140304,1,8
72,188,140476,1,0
88,84,140647,2,0,B|32:108,2,44
176,96,140990,1,8
256,136,141161,1,0
300,212,141333,6,0,B|336:296|436:312,1,176,0|8
464,228,141847,1,0
456,140,142018,2,0,B|428:108,2,44
372,164,142361,1,8
308,100,142533,1,0
136,192,142704,6,0,B|92:192,2,44,8|8|8
376,192,143047,2,0,B|420:192,2,44,8|8|8
256,56,143390,1,8
256,80,143476,1,8
256,100,143561,1,8
256,124,143647,1,8
256,148,143733,1,8
256,168,143818,1,8
256,192,143904,1,8
256,216,143990,1,8
256,240,144076,6,0,B|220:308|220:308|160:316|140:264,1,176,4|8
116,180,144590,1,0
64,112,144761,2,0,B|64:68,2,44
12,180,145104,1,8
64,252,145276,1,0
168,276,145447,5,0
344,108,145618,1,0
168,108,145790,1,8
344,276,145961,1,0
388,192,146133,1,8
368,192,146218,1,8
344,192,146304,1,8
320,192,146390,1,8
296,192,146476,1,8
276,192,146561,1,8
252,192,146647,1,8
228,192,146733,1,8
208,192,146818,6,0,B|120:192,1,88,4|0
256,144,147161,2,0,B|256:56,1,88,4|0
304,192,147504,2,0,B|392:192,1,88,4|0
256,240,147847,2,0,B|256:328,1,88,4|0
190,126,148190,6,0,B|222:158,3,44,12|8|8|8
321,126,148533,2,0,B|289:158,3,44,12|8|8|8
321,257,148876,2,0,B|289:225,3,44,12|8|8|8
206,241,149218,2,0,B|222:225,7,22,12|8|8|8|8|8|8|8
256,192,149561,12,8,151618
256,192,152304,5,4
