osu file format v13

[General]
AudioFilename: MpibPkxkKeKR.128.mp3
AudioLeadIn: 0
PreviewTime: 162269
Countdown: 1
SampleSet: Soft
StackLeniency: 0.3
Mode: 0
LetterboxInBreaks: 1
WidescreenStoryboard: 0

[Editor]
Bookmarks: 32,24478,46698,55592,162269,197810,233387
DistanceSpacing: 0.7
BeatDivisor: 4
GridSize: 4
TimelineZoom: 1.1

[Metadata]
Title:Roots
TitleUnicode:Roots
Artist:Shinichi Osawa
ArtistUnicode:Shinichi Osawa
Creator:The Girls
Version:Hard
Source:
Tags:Afghanistan Roots Refinished Electronica Electronic EDM DJ
BeatmapID:478624
BeatmapSetID:202261

[Difficulty]
HPDrainRate:5
CircleSize:4
OverallDifficulty:5
ApproachRate:6
SliderMultiplier:1.8
SliderTickRate:2

[Events]
//Background and Video events
0,0,"ref00007.jpg",0,0
//Break Periods
2,50787,54537
2,158010,161204
//Storyboard Layer 0 (Background)
//Storyboard Layer 1 (Fail)
//Storyboard Layer 2 (Pass)
//Storyboard Layer 3 (Foreground)
//Storyboard Sound Samples
//Background Colour Transformations
3,100,163,162,255

[TimingPoints]
2254.49440576904,555.555555555556,4,2,1,20,1,0
140032,-66.6666666666667,4,2,1,20,0,0
142254,-100,4,2,1,20,0,0
144476,-200,4,2,1,20,0,0
146698,-100,4,2,1,20,0,0
162254,-100,4,2,2,40,0,1
180032,-57.1428571428571,4,2,2,40,0,1
182254,-100,4,2,2,40,0,1
197810,-100,4,2,2,40,0,0

[Colours]
Combo1 : 104,168,232
Combo2 : 164,224,82
Combo3 : 169,243,169

[HitObjects]
256,192,46698,12,0,50587,0:0:0:0:
224,104,55587,6,0,P|160:168|192:240,1,180,0|8,0:0|0:0,0:0:0:0:
256,184,56421,1,0,0:0:0:0:
272,272,56698,2,0,P|320:256|336:216,1,90
416,200,57254,2,0,P|400:152|360:136,1,90,8|0,0:0|0:0,0:0:0:0:
352,56,57810,6,0,P|304:72|288:112,1,90
208,120,58365,2,0,P|224:168|264:184,2,90,8|0|0,0:0|0:0|0:0,0:0:0:0:
291,102,59199,1,0,0:0:0:0:
208,120,59477,2,0,P|229:157|211:197,1,90,8|0,0:0|0:0,0:0:0:0:
136,152,60032,6,0,L|136:248,1,90
56,240,60587,2,0,P|63:286|96:312,1,90,8|0,0:0|0:0,0:0:0:0:
176,312,61143,2,0,P|209:283|215:240,1,90
240,160,61698,1,8,0:0:0:0:
304,96,61976,1,0,0:0:0:0:
392,96,62254,5,0,0:0:0:0:
480,96,62532,1,0,0:0:0:0:
480,184,62810,2,0,L|384:184,1,90,8|0,0:0|0:0,0:0:0:0:
408,264,63365,2,0,L|304:264,1,90
248,312,63921,1,8,0:0:0:0:
176,264,64198,1,0,0:0:0:0:
248,216,64476,5,0,0:0:0:0:
176,168,64754,1,0,0:0:0:0:
248,120,65032,2,0,P|168:80|96:136,1,180,8|0,0:0|0:0,0:0:0:0:
96,208,65865,2,0,P|168:254|256:208,1,180
248,120,66698,5,0,0:0:0:0:
328,144,66976,1,0,0:0:0:0:
376,72,67254,2,0,P|416:144|360:224,1,180,8|0,0:0|0:0,0:0:0:0:
296,264,68087,2,0,B|248:248|208:256|208:256|216:216|192:160,1,180
256,112,68921,5,0,0:0:0:0:
328,160,69198,1,0,0:0:0:0:
256,192,69476,12,0,70587,0:0:0:0:
192,224,70865,5,0,0:0:0:0:
264,272,71142,1,0,0:0:0:0:
256,192,71420,12,0,72531,0:0:0:0:
296,216,72810,5,8,0:0:0:0:
336,144,73087,1,0,0:0:0:0:
416,120,73365,6,0,L|416:232,1,90
416,296,73921,2,0,L|304:296,2,90,8|0|0,0:0|0:0|0:0,0:0:0:0:
368,224,74754,1,0,0:0:0:0:
296,176,75032,1,8,0:0:0:0:
224,224,75310,1,0,0:0:0:0:
176,296,75587,6,0,P|136:312|88:296,1,90
56,224,76143,2,0,L|56:104,1,90,8|0,0:0|0:0,0:0:0:0:
128,96,76698,1,0,0:0:0:0:
208,88,76976,2,0,P|200:136|168:168,2,90,0|8|0,0:0|0:0|0:0,0:0:0:0:
298,84,77810,6,0,P|332:113|376:120,1,90,0|0,0:0|0:0,0:0:0:0:
371,202,78366,2,0,P|342:236|336:280,1,90,8|0,0:0|0:0,0:0:0:0:
253,283,78921,2,0,P|219:254|176:248,1,90,0|0,0:0|0:0,0:0:0:0:
190,320,79476,1,8,0:0:0:0:
136,128,79754,1,0,0:0:0:0:
352,240,80032,5,0,0:0:0:0:
312,40,80310,1,0,0:0:0:0:
384,72,80587,2,0,B|352:160|256:176|256:176|144:192|104:296,1,360,8|8,0:0|0:0,0:0:0:0:
192,320,81976,1,0,0:0:0:0:
280,320,82254,6,0,B|336:296|392:328|392:328|424:272,1,180,0|8,0:0|0:0,0:0:0:0:
384,200,83087,1,0,0:0:0:0:
448,128,83365,1,0,0:0:0:0:
472,216,83643,1,0,0:0:0:0:
448,128,83921,1,8,0:0:0:0:
384,64,84198,1,0,0:0:0:0:
288,64,84476,6,0,B|184:64|184:64|136:112|160:160,1,180,0|8,0:0|0:0,0:0:0:0:
72,128,85310,2,0,P|96:200|192:208,1,180
264,160,86143,1,8,0:0:0:0:
264,320,86421,1,0,0:0:0:0:
304,240,86698,6,0,B|352:200|352:200|352:168,1,90
432,176,87254,2,8,B|432:136|432:136|384:96,1,90,0|0,0:0|0:0,0:0:0:0:
392,32,87810,2,0,B|344:32|344:32|320:72,1,90
256,32,88365,2,8,B|232:80|232:80|184:80,1,90
120,136,88921,5,0,0:0:0:0:
176,304,89198,1,0,0:0:0:0:
64,256,89476,1,8,0:0:0:0:
232,192,89754,1,0,0:0:0:0:
176,304,90032,2,0,L|96:344,1,90
120,136,90587,2,0,L|200:96,1,90,8|0,0:0|0:0,0:0:0:0:
288,64,91143,6,0,P|320:112|360:120,2,90,0|0|8,0:0|0:0|0:0,0:0:0:0:
424,72,91976,1,0,0:0:0:0:
440,152,92254,2,0,B|456:192|456:192|440:240,1,90
416,320,92810,1,8,0:0:0:0:
341,272,93088,2,0,P|300:289|280:328,2,90,0|0|0,0:0|0:0|0:0,0:0:0:0:
416,320,93921,5,8,0:0:0:0:
440,240,94198,1,0,0:0:0:0:
440,152,94476,1,0,0:0:0:0:
424,72,94754,1,0,0:0:0:0:
272,224,95032,1,8,0:0:0:0:
288,64,95310,1,0,0:0:0:0:
128,216,95587,5,0,0:0:0:0:
80,144,95865,1,0,0:0:0:0:
136,72,96142,1,8,0:0:0:0:
216,112,96421,1,0,0:0:0:0:
208,200,96698,1,0,0:0:0:0:
136,72,96976,1,0,0:0:0:0:
288,64,97254,2,0,B|328:104|392:64|392:64|368:136,1,180,8|0,0:0|0:0,0:0:0:0:
432,264,98087,5,0,0:0:0:0:
304,200,98364,1,8,0:0:0:0:
448,176,98643,5,0,0:0:0:0:
344,280,98920,1,0,0:0:0:0:
368,128,99198,1,0,0:0:0:0:
344,280,99476,2,0,B|272:248|248:288|248:288|208:272|192:304|192:304|176:304,1,180,8|0,0:0|0:0,0:0:0:0:
104,304,100309,5,0,0:0:0:0:
144,224,100586,1,8,0:0:0:0:
128,144,100865,2,0,P|88:160|64:208,2,90,0|0|0,0:0|0:0|0:0,0:0:0:0:
224,144,101698,2,0,L|416:144,1,180,8|0,0:0|0:0,0:0:0:0:
368,64,102531,5,0,0:0:0:0:
456,72,102808,1,8,0:0:0:0:
400,144,103087,1,0,0:0:0:0:
320,176,103364,1,0,0:0:0:0:
336,256,103642,1,0,0:0:0:0:
416,232,103921,2,0,P|392:320|312:336,1,180,8|0,0:0|0:0,0:0:0:0:
200,280,105032,5,8,0:0:0:0:
112,184,105587,1,0,0:0:0:0:
200,88,106143,1,8,0:0:0:0:
368,88,106698,5,0,0:0:0:0:
368,120,106976,1,0,0:0:0:0:
368,152,107254,1,8,0:0:0:0:
368,192,107532,1,0,0:0:0:0:
368,224,107810,1,0,0:0:0:0:
368,256,108087,1,0,0:0:0:0:
368,288,108365,1,8,0:0:0:0:
368,320,108643,1,0,0:0:0:0:
232,280,108921,6,0,P|232:232|192:208,1,90
128,184,109476,2,0,P|176:184|200:144,1,90,8|0,0:0|0:0,0:0:0:0:
224,80,110032,2,0,P|224:128|264:152,1,90
328,176,110587,2,0,P|280:176|256:216,2,90,8|0|0,0:0|0:0|0:0,0:0:0:0:
352,264,111421,6,0,P|392:240|416:184,1,90
392,112,111976,2,0,P|351:89|290:96,1,90
232,152,112532,2,0,P|232:198|269:247,1,90,0|8,0:0|0:0,0:0:0:0:
280,328,113087,1,0,0:0:0:0:
352,264,113365,6,0,L|448:264,1,90
352,184,113921,1,8,0:0:0:0:
442,104,114198,2,0,L|352:104,1,90
440,184,114754,1,0,0:0:0:0:
352,184,115032,1,8,0:0:0:0:
352,264,115310,1,0,0:0:0:0:
280,328,115587,5,0,0:0:0:0:
40,128,116143,2,0,B|40:272|40:272|128:136|184:240|216:168,1,360,8|8,0:0|0:0,0:0:0:0:
40,128,117532,1,0,0:0:0:0:
120,80,117810,6,0,B|184:40|224:80|224:80|272:40|272:40|312:80|312:80|352:40|432:80,1,360
432,160,119198,1,0,0:0:0:0:
332,157,119476,2,0,P|338:203|376:240,1,90,8|0,0:0|0:0,0:0:0:0:
466,237,120032,6,0,P|460:192|431:159,1,90,0|0,0:0|0:0,0:0:0:0:
384,64,120587,2,0,B|336:64|336:64|296:104,1,90,8|0,0:0|0:0,0:0:0:0:
224,72,121143,2,0,L|224:168,1,90
64,64,121698,2,0,B|112:64|112:64|152:104,1,90,8|0,0:0|0:0,0:0:0:0:
72,160,122254,5,0,0:0:0:0:
128,312,122532,1,0,0:0:0:0:
24,264,122810,1,8,0:0:0:0:
184,208,123087,1,0,0:0:0:0:
72,160,123365,2,0,P|65:241|33:265,1,90
128,312,123921,2,0,P|134:230|166:206,1,90,8|0,0:0|0:0,0:0:0:0:
248,128,124476,6,0,P|184:56|88:56,1,180,0|8,0:0|0:0,0:0:0:0:
72,136,125310,1,0,0:0:0:0:
104,232,125587,2,0,B|160:208|168:160,1,90
280,208,126143,2,0,P|274:156|242:124,1,90,8|0,0:0|0:0,0:0:0:0:
200,272,126698,6,0,B|248:320|328:296|328:296|424:192,1,270
416,72,127810,1,0,0:0:0:0:
416,200,128087,1,0,0:0:0:0:
320,136,128365,1,8,0:0:0:0:
416,200,128643,1,0,0:0:0:0:
312,256,128921,6,0,B|224:256|216:344|216:344|136:336|96:272,1,270
40,200,130032,1,0,0:0:0:0:
104,80,130310,1,0,0:0:0:0:
224,56,130587,1,8,0:0:0:0:
352,80,130865,1,0,0:0:0:0:
432,128,131143,6,0,P|448:168|504:184,2,90,0|0|8,0:0|0:0|0:0,0:0:0:0:
352,168,131976,2,0,B|368:224|416:256|416:256|376:280|360:320,1,180
80,64,133087,1,0,0:0:0:0:
112,144,133365,6,0,P|104:192|64:232,2,90,0|0|0,0:0|0:0|0:0,0:0:0:0:
168,72,134198,2,0,B|216:72|216:72|240:56|240:56|296:80|344:56,1,180
288,264,135310,1,0,0:0:0:0:
256,192,135587,12,0,136421,0:0:0:0:
216,152,136698,6,0,L|136:72,1,90
296,232,137254,2,0,L|376:312,1,90,8|0,0:0|0:0,0:0:0:0:
256,192,137810,12,0,138644,0:0:0:0:
216,232,138921,6,0,L|136:312,1,90
296,152,139476,2,0,L|376:72,1,90,8|0,0:0|0:0,0:0:0:0:
128,64,140032,6,0,P|168:256|352:320,2,405.000015449525,0|0|0,0:0|0:0|0:0,0:0:0:0:
184,160,142254,6,0,P|280:256|400:216,2,270,0|0|0,0:0|0:0|0:0,0:0:0:0:
280,192,144476,6,0,P|344:184|368:120,2,135,0|0|0,0:0|0:0|0:0,0:0:0:0:
144,120,146698,6,0,P|80:112|56:128,1,90,0|0,0:0|0:0,0:0:0:0:
104,192,147254,2,0,P|88:248|56:264,1,90
16,320,147810,2,0,B|0:352|-24:368|-24:368|48:344|104:336|104:336|152:336|192:352,1,270
256,352,148921,1,0,0:0:0:0:
334,346,149198,6,0,B|360:336|408:336|408:336|464:344|536:368|536:368|512:352|496:320,1,270
448,262,150310,2,0,P|414:235|408:192,1,90
451,123,150865,2,0,P|410:107|368:120,1,90,0|0,0:0|0:0,0:0:0:0:
256,40,151421,6,0,P|262:83|294:114,1,90,0|0,0:0|0:0,0:0:0:0:
280,252,151976,2,0,P|314:224|324:181,2,90,0|0|0,0:0|0:0|0:0,0:0:0:0:
252,184,152810,1,0,0:0:0:0:
224,116,153087,2,0,P|189:143|179:186,1,90,0|0,0:0|0:0,0:0:0:0:
52,244,153643,2,0,P|93:260|135:247,1,90,0|0,0:0|0:0,0:0:0:0:
248,328,154199,6,0,P|241:284|209:253,1,90,0|0,0:0|0:0,0:0:0:0:
179,186,154754,2,0,P|189:143|224:116,1,90,0|0,0:0|0:0,0:0:0:0:
300,104,155310,1,0,0:0:0:0:
292,184,155587,2,0,P|376:132|288:24,2,270,0|0|0,0:0|0:0|0:0,0:0:0:0:
300,104,157810,5,0,0:0:0:0:
112,152,162254,5,0,0:0:0:0:
120,120,162393,1,0,0:0:0:0:
144,96,162532,2,0,B|176:72|176:72|216:104,1,90,0|8,0:0|0:0,0:0:0:0:
240,128,162948,1,0,0:0:0:0:
256,144,163087,2,0,B|288:176|288:176|336:136,1,90
344,128,163504,1,0,0:0:0:0:
368,104,163643,2,0,B|400:72|400:72|440:104,1,90,0|8,0:0|0:0,0:0:0:0:
448,128,164060,1,0,0:0:0:0:
448,168,164198,1,0,0:0:0:0:
432,200,164337,1,0,0:0:0:0:
416,224,164476,5,0,0:0:0:0:
392,256,164615,1,0,0:0:0:0:
368,280,164754,2,0,L|288:352,1,90,0|8,0:0|0:0,0:0:0:0:
264,352,165170,1,0,0:0:0:0:
232,344,165310,2,0,L|165:283,1,90
144,264,165726,1,0,0:0:0:0:
120,240,165865,2,0,P|88:200|88:160,1,90,0|8,0:0|0:0,0:0:0:0:
88,128,166282,1,0,0:0:0:0:
104,96,166420,1,0,0:0:0:0:
128,72,166559,1,0,0:0:0:0:
160,56,166698,5,0,0:0:0:0:
192,56,166837,1,0,0:0:0:0:
224,64,166975,1,0,0:0:0:0:
248,88,167114,1,0,0:0:0:0:
256,112,167254,1,8,0:0:0:0:
280,136,167393,1,0,0:0:0:0:
304,160,167531,1,0,0:0:0:0:
336,176,167670,1,0,0:0:0:0:
368,184,167810,1,0,0:0:0:0:
400,192,167948,1,0,0:0:0:0:
432,184,168086,1,0,0:0:0:0:
464,176,168225,1,0,0:0:0:0:
488,192,168365,6,0,B|488:288|488:288|416:336,1,180,8|0,0:0|0:0,0:0:0:0:
320,328,169060,5,0,0:0:0:0:
320,328,169198,1,0,0:0:0:0:
248,268,169337,1,0,0:0:0:0:
248,268,169476,1,8,0:0:0:0:
252,184,169615,1,0,0:0:0:0:
252,184,169754,1,0,0:0:0:0:
176,136,169893,1,0,0:0:0:0:
176,136,170032,1,0,0:0:0:0:
320,328,170587,1,8,0:0:0:0:
152,264,171004,1,0,0:0:0:0:
56,256,171143,6,0,P|72:320|97:344,1,90
152,264,171560,1,0,0:0:0:0:
128,168,171698,2,0,P|193:174|221:196,1,90,8|0,0:0|0:0,0:0:0:0:
320,104,172254,1,0,0:0:0:0:
376,248,172532,1,0,0:0:0:0:
424,136,172810,2,0,L|472:104,2,45,8|0|0,0:0|0:0|0:0,0:0:0:0:
272,208,173365,6,0,L|184:272,1,90
136,304,173782,1,0,0:0:0:0:
72,260,173921,2,0,L|0:208,1,90,8|0,0:0|0:0,0:0:0:0:
200,261,174476,2,0,P|216:213|200:173,1,90
112,144,175032,1,8,0:0:0:0:
144,48,175171,1,0,0:0:0:0:
240,80,175310,1,0,0:0:0:0:
72,260,175587,6,0,L|64:308,1,45,0|0,0:0|0:0,0:0:0:0:
191,222,175865,2,0,L|207:166,1,45,0|0,0:0|0:0,0:0:0:0:
288,288,176143,2,0,L|312:344,1,45,8|0,0:0|0:0,0:0:0:0:
384,208,176421,2,0,L|408:152,1,45
432,80,176698,2,0,B|425:48|383:40,1,45
320,72,176976,2,0,B|314:101|292:103,1,45
211,103,177254,2,0,B|189:101|184:72,1,45,8|0,0:0|0:0,0:0:0:0:
99,46,177532,2,0,B|78:48|72:80,1,45
72,168,177810,5,0,0:0:0:0:
72,256,177948,1,0,0:0:0:0:
128,320,178087,2,0,P|144:304|144:272,1,45
232,256,178365,2,0,P|226:234|198:218,1,45,8|0,0:0|0:0,0:0:0:0:
272,160,178643,2,0,P|257:142|236:137,1,45
152,88,178921,1,2,0:0:0:0:
392,72,179476,1,10,0:0:0:0:
369,220,179893,5,0,0:0:0:0:
328,288,180032,2,0,P|291:259|248:258,1,78.7500007510185
176,216,180310,2,0,P|204:179|205:136,1,78.7500007510185
256,80,180587,2,0,P|292:108|335:109,1,78.7500007510185,8|0,0:0|0:0,0:0:0:0:
400,152,180865,2,0,P|371:188|370:231,1,78.7500007510185
312,160,181143,2,0,P|305:206|326:243,1,78.7500007510185
248,224,181421,2,0,P|265:267|302:289,1,78.7500007510185
208,304,181698,2,0,P|244:332|287:333,2,78.7500007510185,8|0|0,0:0|0:0|0:0,0:0:0:0:
32,200,182254,5,0,0:0:0:0:
40,168,182393,1,0,0:0:0:0:
56,136,182532,1,0,0:0:0:0:
80,112,182671,1,0,0:0:0:0:
112,96,182810,2,0,L|208:96,1,90,8|0,0:0|0:0,0:0:0:0:
152,176,183365,2,0,L|264:176,1,90
272,160,183782,1,0,0:0:0:0:
296,136,183921,1,8,0:0:0:0:
311,103,184060,1,0,0:0:0:0:
320,72,184199,1,0,0:0:0:0:
424,160,184476,6,0,P|432:192|464:200,1,45
384,272,184754,2,0,P|382:249|367:233,1,45
280,224,185032,2,0,P|288:256|320:264,1,45,8|0,0:0|0:0,0:0:0:0:
240,344,185310,2,0,P|238:321|223:305,1,45
112,260,185587,2,0,P|109:283|127:299,1,45
184,216,185865,2,0,P|181:194|166:178,1,45
265,187,186143,2,0,P|262:210|280:226,1,45,8|0,0:0|0:0,0:0:0:0:
336,152,186421,2,0,P|334:130|318:114,1,45
256,72,186698,5,0,0:0:0:0:
180,127,186837,1,0,0:0:0:0:
209,216,186976,1,0,0:0:0:0:
302,216,187115,1,0,0:0:0:0:
331,127,187254,1,8,0:0:0:0:
302,216,187393,5,0,0:0:0:0:
209,216,187532,1,0,0:0:0:0:
180,127,187671,1,0,0:0:0:0:
256,72,187810,1,2,0:0:0:0:
256,304,188365,1,10,0:0:0:0:
102,164,188921,5,0,0:0:0:0:
102,164,189060,2,0,L|70:100,1,45
166,212,189337,1,0,0:0:0:0:
166,212,189476,2,0,L|237:216,1,45,8|0,0:0|0:0,0:0:0:0:
94,244,189754,1,0,0:0:0:0:
94,244,189893,2,0,L|54:303,1,45
256,304,190310,2,8,L|288:336,2,45,0|0|0,0:0|0:0|0:0,0:0:0:0:
102,164,190866,1,0,0:0:0:0:
256,88,191143,6,0,L|256:32,1,45
320,128,191421,2,0,L|368:100,1,45,8|0,0:0|0:0,0:0:0:0:
323,201,191698,2,0,L|371:229,1,45,8|0,0:0|0:0,0:0:0:0:
256,236,191976,2,0,L|255:292,1,45
192,208,192254,1,0,0:0:0:0:
360,104,192532,2,0,L|320:128,2,45,0|8|0,0:0|0:0|0:0,0:0:0:0:
424,64,192949,1,0,0:0:0:0:
424,144,193088,1,0,0:0:0:0:
192,208,193365,6,8,L|208:256,2,45,0|0|0,0:0|0:0|0:0,0:0:0:0:
120,168,193782,2,0,L|153:130,2,45,0|8|0,0:0|0:0|0:0,0:0:0:0:
120,248,194198,2,0,L|70:237,2,45,0|0|8,0:0|0:0|0:0,0:0:0:0:
272,64,194754,2,0,L|224:64,1,45
227,64,195032,1,8,0:0:0:0:
344,104,195310,1,0,0:0:0:0:
344,232,195588,6,0,L|344:304,2,45,0|0|0,0:0|0:0|0:0,0:0:0:0:
416,200,196004,2,0,L|416:256,2,45,0|8|0,0:0|0:0|0:0,0:0:0:0:
488,160,196421,2,0,L|488:208,1,45
488,205,196698,1,2,0:0:0:0:
416,64,196976,6,0,L|368:64,1,45
312,120,197254,1,10,0:0:0:0:
176,40,197532,1,0,0:0:0:0:
