osu file format v14

[General]
AudioFilename: kokorodamashii no arika.mp3
AudioLeadIn: 0
PreviewTime: 43208
Countdown: 0
SampleSet: None
StackLeniency: 0.7
Mode: 0
LetterboxInBreaks: 0
WidescreenStoryboard: 1

[Editor]
Bookmarks: 78350
DistanceSpacing: 1.4
BeatDivisor: 2
GridSize: 4
TimelineZoom: 1.6

[Metadata]
Title:Kokorodamashii no arika
TitleUnicode:心魂の在処
Artist:Shingaki Tarusuke&Tai Yuki&Yamashita Seiichiro
ArtistUnicode:新垣樽助&泰勇気&山下誠一郎
Creator:Sandrew
Version:Normal
Source:刀剣乱舞‐花丸‐
Tags:へし切長谷部 宗三左文字 薬研藤四郎 touken ranbu -hanamaru- ed ending
BeatmapID:1205352
BeatmapSetID:519614

[Difficulty]
HPDrainRate:3
CircleSize:3
OverallDifficulty:4
ApproachRate:5
SliderMultiplier:1.2
SliderTickRate:1

[Events]
//Background and Video events
0,0,"49710946_p0.jpg",0,0
//Break Periods
//Storyboard Layer 0 (Background)
//Storyboard Layer 1 (Fail)
//Storyboard Layer 2 (Pass)
//Storyboard Layer 3 (Foreground)
//Storyboard Sound Samples

[TimingPoints]
2066,428.571428571429,4,3,1,40,1,0
2708,-100,4,3,1,40,0,0
16208,428.571428571429,4,3,1,40,1,0
42350,-100,4,3,1,50,0,0
43636,-100,4,3,1,60,0,1
55636,-100,4,3,1,60,0,0
57350,-100,4,3,1,60,0,1
84779,-100,4,3,1,40,0,0

[HitObjects]
104,56,2066,6,0,P|80:68|76:120,1,60,0|0,0:0|0:0,0:0:0:0:
148,128,2494,1,8,0:0:0:0:
296,48,2923,2,0,P|360:44|408:104,2,120
328,124,3994,1,2,0:0:0:0:
328,124,4208,2,0,L|292:204,1,60,0|2,0:0|0:0,0:0:0:0:
148,128,4851,2,0,P|132:192|152:252,1,120
100,312,5494,1,0,0:0:0:0:
268,308,5923,6,0,L|348:304,1,60,2|0,0:0|0:0,0:0:0:0:
395,253,6351,2,0,P|411:310|388:364,2,120
424,172,7423,1,2,0:0:0:0:
424,172,7637,2,0,L|440:104,1,60,0|2,0:0|0:0,0:0:0:0:
276,64,8280,1,0,0:0:0:0:
276,64,8494,2,0,L|256:184,1,120
92,140,9351,6,0,L|78:198,1,60,2|0,0:0|0:0,0:0:0:0:
124,268,9780,2,0,P|67:282|15:253,2,120
208,284,10851,1,2,0:0:0:0:
208,284,11066,2,0,L|276:292,1,60,0|2,0:0|0:0,0:0:0:0:
420,364,11708,2,0,P|436:304|416:224,1,120,0|0,0:0|0:0,0:0:0:0:
460,172,12351,1,0,0:0:0:0:
292,156,12780,6,0,L|160:140,1,120,2|0,0:0|0:0,0:0:0:0:
112,200,13423,1,0,0:0:0:0:
96,116,13637,2,0,L|64:64,2,60
160,60,14280,1,2,0:0:0:0:
160,60,14494,2,0,L|236:64,1,60,0|2,0:0|0:0,0:0:0:0:
388,36,15137,6,0,B|428:84|388:120|388:120|420:156|368:228,1,180,0|0,0:0|0:0,0:0:0:0:
220,168,16208,6,0,L|144:188,1,60,2|0,0:0|0:0,0:0:0:0:
96,236,16636,2,0,L|88:320,1,60,8|0,0:0|0:0,0:0:0:0:
160,344,17065,2,0,P|216:356|264:320,1,120,0|8,0:0|0:0,0:0:0:0:
308,248,17708,1,0,0:0:0:0:
308,248,17922,2,0,L|320:160,2,60,2|0|8,0:0|0:0|0:0,0:0:0:0:
460,320,18779,2,0,L|448:408,2,60,0|0|8,0:0|0:0|0:0,0:0:0:0:
308,248,19636,6,0,L|384:228,1,60,2|0,0:0|0:0,0:0:0:0:
432,180,20064,2,0,L|440:96,1,60,8|0,0:0|0:0,0:0:0:0:
368,72,20493,2,0,P|312:60|264:96,1,120,0|8,0:0|0:0,0:0:0:0:
220,168,21136,1,0,0:0:0:0:
220,168,21350,2,0,L|208:256,2,60,2|0|8,0:0|0:0|0:0,0:0:0:0:
64,100,22208,2,0,L|44:244,1,120,0|8,0:0|0:0,0:0:0:0:
36,304,22850,1,0,0:0:0:0:
36,304,23065,6,0,L|96:292,1,60,2|0,0:0|0:0,0:0:0:0:
132,368,23493,2,0,L|196:356,1,60,8|0,0:0|0:0,0:0:0:0:
196,272,23922,2,0,B|228:272|248:288|248:288|288:232,1,120,0|8,0:0|0:0,0:0:0:0:
332,168,24565,1,0,0:0:0:0:
332,168,24779,2,0,L|368:112,2,60,2|0|8,0:0|0:0|0:0,0:0:0:0:
164,164,25636,6,0,P|164:228|198:274,2,120,0|8|0,0:0|0:0|0:0,0:0:0:0:
75,25,26922,1,8,0:0:0:0:
75,25,27136,2,0,P|163:8|252:20,1,180,0|8,0:0|0:0,0:0:0:0:
332,168,28208,6,0,L|344:104,1,60,2|0,0:0|0:0,0:0:0:0:
429,100,28636,2,0,P|409:45|356:24,2,120,8|0|8,0:0|0:0|0:0,0:0:0:0:
416,184,29708,1,0,0:0:0:0:
416,184,29922,2,0,L|448:240,1,60,2|0,0:0|0:0,0:0:0:0:
420,316,30350,2,0,L|368:352,1,60,8|0,0:0|0:0,0:0:0:0:
292,324,30779,2,0,B|296:268|296:268|264:204,1,120,2|8,0:0|0:0,0:0:0:0:
180,216,31422,1,0,0:0:0:0:
180,216,31636,6,0,L|168:280,1,60,2|0,0:0|0:0,0:0:0:0:
82,283,32064,2,0,P|102:338|156:360,2,120,8|0|8,0:0|0:0|0:0,0:0:0:0:
96,200,33136,1,0,0:0:0:0:
96,200,33350,2,0,L|64:144,1,60,2|0,0:0|0:0,0:0:0:0:
92,68,33778,2,0,L|144:32,1,60,8|0,0:0|0:0,0:0:0:0:
220,60,34208,2,0,B|216:116|216:116|248:180,1,120,0|8,0:0|0:0,0:0:0:0:
332,168,34850,1,0,0:0:0:0:
332,168,35064,6,0,L|320:226,1,60,2|0,0:0|0:0,0:0:0:0:
308,312,35493,2,0,P|372:304|400:256,2,120,8|0|8,0:0|0:0|0:0,0:0:0:0:
228,340,36565,1,0,0:0:0:0:
228,340,36779,6,0,L|160:316,1,60,2|0,0:0|0:0,0:0:0:0:
88,312,37208,2,0,L|72:240,1,60,8|0,0:0|0:0,0:0:0:0:
140,200,37636,2,0,P|200:200|256:144,1,120,0|8,0:0|0:0,0:0:0:0:
176,120,38279,1,0,0:0:0:0:
176,120,38493,2,0,L|192:36,1,60,2|0,0:0|0:0,0:0:0:0:
268,40,38922,2,0,L|340:28,1,60,8|0,0:0|0:0,0:0:0:0:
412,16,39350,2,0,B|432:48|380:96|412:156,1,120,2|8,0:0|0:0,0:0:0:0:
460,196,39993,1,0,0:0:0:0:
460,196,40208,2,0,P|428:216|388:216,1,60,2|0,0:0|0:0,0:0:0:0:
403,133,40636,5,8,0:0:0:0:
268,40,41065,1,0,0:0:0:0:
320,200,41493,1,8,0:0:0:0:
184,100,41922,1,0,0:0:0:0:
239,265,42350,2,0,P|180:272|112:256,1,120,8|0,0:0|0:0,0:0:0:0:
140,176,42993,5,0,0:0:0:0:
140,176,43208,2,0,P|116:160|104:116,1,60,8|0,0:0|0:0,0:0:0:0:
184,100,43636,6,0,P|220:60|288:48,1,120,2|8,0:0|0:0,0:0:0:0:
268,132,44279,1,0,0:0:0:0:
268,132,44493,2,0,L|304:184,1,60,0|0,0:0|0:0,0:0:0:0:
384,172,44922,2,0,L|411:114,1,60,8|0,0:0|0:0,0:0:0:0:
448,44,45350,1,2,0:0:0:0:
448,44,45565,2,0,P|412:32|380:36,2,60,0|8|0,0:0|0:0|0:0,0:0:0:0:
409,117,46208,2,0,P|445:129|477:125,1,60,0|0,0:0|0:0,0:0:0:0:
408,284,46850,1,0,0:0:0:0:
408,284,47065,6,0,P|372:324|304:336,1,120,0|8,0:0|0:0,0:0:0:0:
324,252,47708,1,0,0:0:0:0:
324,252,47922,2,0,L|288:200,1,60,0|0,0:0|0:0,0:0:0:0:
208,212,48351,2,0,L|180:269,1,60,8|0,0:0|0:0,0:0:0:0:
104,300,48779,2,0,B|80:360|80:360|20:376,2,120,2|8|0,0:0|0:0|0:0,0:0:0:0:
160,144,50065,1,8,0:0:0:0:
304,60,50493,6,0,L|388:52,1,60,2|0,0:0|0:0,0:0:0:0:
444,32,50922,2,0,B|464:76|416:112|440:168,1,120,8|0,0:0|0:0,0:0:0:0:
352,164,51565,1,0,0:0:0:0:
352,164,51779,2,0,P|360:196|384:220,1,60,8|0,0:0|0:0,0:0:0:0:
460,236,52208,2,0,P|480:288|468:352,2,120,2|8|0,0:0|0:0|0:0,0:0:0:0:
308,304,53493,1,8,0:0:0:0:
152,244,53922,6,0,L|80:216,1,60,2|0,0:0|0:0,0:0:0:0:
52,152,54350,2,0,L|56:76,1,60,8|0,0:0|0:0,0:0:0:0:
132,52,54779,1,0,0:0:0:0:
132,52,54993,2,0,L|196:60,1,60,0|8,0:0|0:0,0:0:0:0:
276,72,55422,2,0,B|268:140|200:144|200:144|272:212,1,180,0|8,0:0|0:0,0:0:0:0:
332,176,56279,1,0,0:0:0:0:
224,304,56708,5,0,0:0:0:0:
224,304,56922,2,0,P|216:344|192:376,1,60,8|0,0:0|0:0,0:0:0:0:
140,312,57350,6,0,P|76:312|32:268,1,120,2|8,0:0|0:0,0:0:0:0:
108,232,57993,1,0,0:0:0:0:
108,232,58208,2,0,L|128:168,1,60,0|0,0:0|0:0,0:0:0:0:
44,152,58636,2,0,L|88:88,1,60,8|0,0:0|0:0,0:0:0:0:
124,32,59065,1,2,0:0:0:0:
124,32,59279,2,0,P|88:20|40:20,2,60,0|8|0,0:0|0:0|0:0,0:0:0:0:
172,100,59922,2,0,P|208:112|256:112,1,60,0|0,0:0|0:0,0:0:0:0:
384,48,60565,1,0,0:0:0:0:
384,48,60779,6,0,P|448:48|492:92,1,120,2|8,0:0|0:0,0:0:0:0:
416,128,61422,1,0,0:0:0:0:
416,128,61637,2,0,L|396:192,1,60,0|0,0:0|0:0,0:0:0:0:
480,208,62065,2,0,L|436:272,1,60,8|0,0:0|0:0,0:0:0:0:
400,328,62493,2,0,P|460:348|516:316,2,120,2|8|0,0:0|0:0|0:0,0:0:0:0:
284,208,63779,2,0,P|260:236|244:279,1,60,8|0,0:0|0:0,0:0:0:0:
92,196,64422,1,0,0:0:0:0:
92,196,64636,6,0,P|119:143|160:98,1,120,8|0,0:0|0:0,0:0:0:0:
172,16,65279,1,0,0:0:0:0:
171,15,65493,2,0,P|201:22|224:40,1,60,8|0,0:0|0:0,0:0:0:0:
308,32,65922,2,0,B|308:72|284:100|284:100|348:136,1,120,2|8,0:0|0:0,0:0:0:0:
436,248,66779,2,0,B|436:208|460:180|460:180|396:144,1,120,0|8,0:0|0:0,0:0:0:0:
316,292,67636,6,0,B|256:276|224:308|164:276,1,120,2|8,0:0|0:0,0:0:0:0:
48,368,68493,2,0,P|36:340|36:292,1,60,0|0,0:0|0:0,0:0:0:0:
104,264,68922,2,0,P|116:292|116:340,2,60,8|0|0,0:0|0:0|0:0,0:0:0:0:
256,192,69779,2,0,B|312:176|348:200|404:184,2,120,8|0|8,0:0|0:0|0:0,0:0:0:0:
112,108,71065,5,2,0:0:0:0:
273,79,71493,2,0,P|281:131|245:203,1,120,8|0,0:0|0:0,0:0:0:0:
94,220,72350,2,0,P|86:168|122:96,1,120,8|0,0:0|0:0,0:0:0:0:
255,191,73208,6,0,B|271:247|247:283|263:339,2,120,8|0|8,0:0|0:0|0:0,0:0:0:0:
340,47,74493,1,2,0:0:0:0:
369,209,74922,2,0,P|317:217|245:181,1,120,8|0,0:0|0:0,0:0:0:0:
228,30,75779,2,0,P|280:22|352:58,1,120,8|0,0:0|0:0,0:0:0:0:
257,191,76636,6,0,B|201:207|165:183|109:199,2,120,8|0|8,0:0|0:0|0:0,0:0:0:0:
401,276,77922,1,2,0:0:0:0:
239,305,78351,2,0,P|231:253|267:181,1,120,8|0,0:0|0:0,0:0:0:0:
418,164,79208,2,0,P|426:216|390:288,1,120,8|0,0:0|0:0,0:0:0:0:
256,192,80065,6,0,B|240:136|264:100|248:44,2,120,8|0|8,0:0|0:0|0:0,0:0:0:0:
172,337,81350,1,2,0:0:0:0:
143,175,81779,2,0,P|195:167|267:203,1,120,8|0,0:0|0:0,0:0:0:0:
284,354,82636,2,0,P|232:362|160:326,1,120,8|0,0:0|0:0,0:0:0:0:
256,192,83493,1,8,0:0:0:0:
360,60,83922,2,0,P|412:80|416:144,2,120,0|8|0,0:0|0:0|0:0,0:0:0:0:
256,192,84993,12,0,87778,0:0:0:0:
