osu file format v14

[General]
AudioFilename: kokorodamashii no arika.mp3
AudioLeadIn: 0
PreviewTime: 43208
Countdown: 0
SampleSet: None
StackLeniency: 0.7
Mode: 0
LetterboxInBreaks: 0
WidescreenStoryboard: 1

[Editor]
Bookmarks: 78350
DistanceSpacing: 1
BeatDivisor: 2
GridSize: 4
TimelineZoom: 1.6

[Metadata]
Title:Kokorodamashii no arika
TitleUnicode:心魂の在処
Artist:Shingaki Tarusuke&Tai Yuki&Yamashita Seiichiro
ArtistUnicode:新垣樽助&泰勇気&山下誠一郎
Creator:Sandrew
Version:Easy
Source:刀剣乱舞‐花丸‐
Tags:へし切長谷部 宗三左文字 薬研藤四郎 touken ranbu -hanamaru- ed ending
BeatmapID:1205351
BeatmapSetID:519614

[Difficulty]
HPDrainRate:2
CircleSize:3
OverallDifficulty:2
ApproachRate:4
SliderMultiplier:0.9
SliderTickRate:1

[Events]
//Background and Video events
0,0,"49710946_p0.jpg",0,0
//Break Periods
//Storyboard Layer 0 (Background)
//Storyboard Layer 1 (Fail)
//Storyboard Layer 2 (Pass)
//Storyboard Layer 3 (Foreground)
//Storyboard Sound Samples

[TimingPoints]
2066,428.571428571429,4,3,1,40,1,0
2708,-100,4,3,1,40,0,0
16208,428.571428571429,4,3,1,40,1,0
42350,-100,4,3,1,50,0,0
43636,-100,4,3,1,60,0,1
55636,-100,4,3,1,60,0,0
57350,-100,4,3,1,60,0,1
84779,-100,4,3,1,40,0,0

[HitObjects]
120,240,2066,6,0,P|71:240|20:204,1,90,0|8,0:0|0:0,0:0:0:0:
35,221,3994,6,0,L|50:121,1,90,2|2,0:0|0:0,0:0:0:0:
57,43,4851,2,0,B|110:49|130:90|130:90|173:83,1,135,0|0,0:0|0:0,0:0:0:0:
260,69,5923,1,8,0:0:0:0:
260,69,7423,6,0,L|376:48,1,90,2|2,0:0|0:0,0:0:0:0:
436,36,8280,2,0,B|440:84|404:120|404:120|424:168,1,135,0|0,0:0|0:0,0:0:0:0:
444,244,9351,1,8,0:0:0:0:
444,244,10851,6,0,L|348:268,1,90,2|2,0:0|0:0,0:0:0:0:
363,358,11708,2,0,P|300:337|268:280,1,135,0|0,0:0|0:0,0:0:0:0:
244,192,12780,1,8,0:0:0:0:
244,192,14280,6,0,L|228:88,1,90,2|2,0:0|0:0,0:0:0:0:
216,16,15137,2,0,B|168:32|148:68|148:68|96:72,1,135,0|0,0:0|0:0,0:0:0:0:
52,148,16208,6,0,P|44:192|44:244,1,90,2|8,0:0|0:0,0:0:0:0:
132,244,17065,2,0,P|140:200|140:148,1,90,0|8,0:0|0:0,0:0:0:0:
100,71,17922,2,0,L|128:20,2,45,2|0|8,0:0|0:0|0:0,0:0:0:0:
52,148,18779,2,0,L|24:200,2,45,0|0|8,0:0|0:0|0:0,0:0:0:0:
140,154,19636,6,0,P|184:162|235:161,1,90,2|8,0:0|0:0,0:0:0:0:
304,216,20493,2,0,P|312:172|312:120,1,90,0|8,0:0|0:0,0:0:0:0:
240,76,21350,2,0,L|180:68,2,45,2|0|8,0:0|0:0|0:0,0:0:0:0:
320,36,22208,2,0,B|360:44|360:44|400:92,1,90,0|8,0:0|0:0,0:0:0:0:
428,164,23065,6,0,P|440:212|436:268,1,90,2|8,0:0|0:0,0:0:0:0:
448,340,23922,2,0,B|404:336|404:336|364:304,1,90,0|8,0:0|0:0,0:0:0:0:
352,220,24779,2,0,L|324:172,2,45,2|0|8,0:0|0:0|0:0,0:0:0:0:
284,280,25636,1,0,0:0:0:0:
196,300,26065,2,0,P|144:316|92:312,1,90,8|0,0:0|0:0,0:0:0:0:
20,324,26922,2,0,B|20:252|72:232|72:232|52:132,1,180,8|8,0:0|0:0,0:0:0:0:
4,96,28208,6,0,P|28:64|76:84,1,90,8|8,0:0|0:0,0:0:0:0:
144,128,29065,2,0,P|152:168|176:232,1,90,0|8,0:0|0:0,0:0:0:0:
196,300,29922,1,0,0:0:0:0:
256,232,30350,6,0,P|280:268|280:328,2,90,8|0|8,0:0|0:0|0:0,0:0:0:0:
320,168,31636,6,0,P|296:132|296:72,1,90,0|8,0:0|0:0,0:0:0:0:
380,64,32493,2,0,P|404:100|404:160,1,90,0|8,0:0|0:0,0:0:0:0:
388,232,33350,1,0,0:0:0:0:
368,320,33779,6,0,P|416:320|460:288,2,90,8|0|8,0:0|0:0|0:0,0:0:0:0:
300,260,35065,2,0,L|196:268,1,90,0|8,0:0|0:0,0:0:0:0:
192,356,35922,2,0,B|152:336|152:336|116:284,1,90,0|8,0:0|0:0,0:0:0:0:
48,252,36779,6,0,P|84:220|148:212,1,90,0|8,0:0|0:0,0:0:0:0:
200,256,37636,2,0,P|211:212|201:169,1,90,0|8,0:0|0:0,0:0:0:0:
128,120,38493,2,0,P|160:89|203:77,1,90,0|8,0:0|0:0,0:0:0:0:
280,32,39350,2,0,B|300:88|276:132|276:132|268:176|284:220,1,180,8|0,0:0|0:0,0:0:0:0:
356,256,40636,6,0,P|368:213|360:168,2,90,8|0|8,0:0|0:0|0:0,0:0:0:0:
396,336,41922,2,0,P|352:344|309:331,1,90,0|8,0:0|0:0,0:0:0:0:
200,256,42993,2,0,L|136:236,1,45,0|8,0:0|0:0,0:0:0:0:
68,256,43636,6,0,P|76:204|108:168,1,90,2|8,0:0|0:0,0:0:0:0:
84,88,44493,2,0,P|136:96|172:128,1,90,0|8,0:0|0:0,0:0:0:0:
244,72,45350,2,0,L|256:116|240:172,1,90,2|8,0:0|0:0,0:0:0:0:
208,244,46208,2,0,L|152:280,2,45,0|0|8,0:0|0:0|0:0,0:0:0:0:
296,228,47065,6,0,P|340:240|380:280,1,90,2|8,0:0|0:0,0:0:0:0:
420,348,47922,2,0,P|449:314|460:271,1,90,0|8,0:0|0:0,0:0:0:0:
420,192,48779,2,0,P|431:148|460:115,2,90,2|8|0,0:0|0:0|0:0,0:0:0:0:
372,268,50065,1,8,0:0:0:0:
284,280,50493,6,0,L|168:292,1,90,0|8,0:0|0:0,0:0:0:0:
104,300,51350,2,0,L|36:308,2,45,0|0|8,0:0|0:0|0:0,0:0:0:0:
144,219,52208,2,0,P|180:248|192:311,2,90,2|8|0,0:0|0:0|0:0,0:0:0:0:
84,152,53493,1,8,0:0:0:0:
172,132,53922,6,0,L|288:120,1,90,2|8,0:0|0:0,0:0:0:0:
352,120,54779,2,0,L|416:112,2,45,0|0|8,0:0|0:0|0:0,0:0:0:0:
296,48,55636,2,0,B|260:80|264:124|264:124|260:160|296:200,1,135,2|0,0:0|0:0,0:0:0:0:
356,212,56708,2,0,L|412:204,1,45,0|8,0:0|0:0,0:0:0:0:
440,288,57350,6,0,L|336:304,1,90,2|8,0:0|0:0,0:0:0:0:
276,356,58208,2,0,P|264:312|276:252,1,90,0|8,0:0|0:0,0:0:0:0:
197,222,59065,2,0,B|224:192|224:192|272:180,1,90,2|8,0:0|0:0,0:0:0:0:
356,212,59922,2,0,L|392:248,2,45,0|0|8,0:0|0:0|0:0,0:0:0:0:
344,124,60779,6,0,P|352:72|336:24,1,90,2|8,0:0|0:0,0:0:0:0:
264,80,61636,2,0,L|168:84,1,90,0|8,0:0|0:0,0:0:0:0:
93,131,62493,2,0,P|83:87|92:44,2,90,2|8|0,0:0|0:0|0:0,0:0:0:0:
108,220,63779,1,8,0:0:0:0:
196,200,64208,6,0,P|196:248|164:308,1,90,0|8,0:0|0:0,0:0:0:0:
92,308,65065,2,0,L|52:360,2,45,0|0|8,0:0|0:0|0:0,0:0:0:0:
108,220,65922,2,0,P|108:172|140:112,2,90,0|8|0,0:0|0:0|0:0,0:0:0:0:
196,200,67208,1,8,0:0:0:0:
284,220,67636,2,0,L|396:244,1,90,2|8,0:0|0:0,0:0:0:0:
432,304,68493,2,0,L|440:360,2,45,0|0|8,0:0|0:0|0:0,0:0:0:0:
460,220,69350,5,2,0:0:0:0:
492,136,69779,2,0,B|504:88|504:88|488:40,2,90,8|0|8,0:0|0:0|0:0,0:0:0:0:
412,92,71065,1,2,0:0:0:0:
328,128,71493,2,0,P|280:132|232:156,1,90,8|0,0:0|0:0,0:0:0:0:
184,80,72350,2,0,L|120:60,1,45,8|0,0:0|0:0,0:0:0:0:
112,152,72993,2,0,L|176:172,1,45,0|8,0:0|0:0,0:0:0:0:
218,231,73636,6,0,B|240:196|240:196|242:148,2,90,0|8|0,0:0|0:0|0:0,0:0:0:0:
154,165,74922,2,0,P|128:208|128:260,1,90,8|0,0:0|0:0,0:0:0:0:
64,312,75779,2,0,L|44:364,1,45,8|0,0:0|0:0,0:0:0:0:
136,380,76422,2,0,L|152:328,1,45,0|8,0:0|0:0,0:0:0:0:
125,246,77065,6,0,B|172:248|172:248|232:276,1,90,0|8,0:0|0:0,0:0:0:0:
288,312,77922,1,2,0:0:0:0:
336,384,78350,2,0,P|368:348|376:300,1,90,8|0,0:0|0:0,0:0:0:0:
440,244,79208,2,0,L|456:196,1,45,8|0,0:0|0:0,0:0:0:0:
364,192,79850,2,0,L|378:149,1,45,0|8,0:0|0:0,0:0:0:0:
464,116,80493,6,0,B|436:76|436:76|380:56,1,90,0|8,0:0|0:0,0:0:0:0:
312,88,81350,1,2,0:0:0:0:
252,20,81779,2,0,P|228:60|228:136,1,90,8|0,0:0|0:0,0:0:0:0:
240,192,82636,2,0,L|248:240,1,45,8|0,0:0|0:0,0:0:0:0:
156,240,83279,2,0,L|164:288,1,45,0|8,0:0|0:0,0:0:0:0:
188,372,83922,2,0,B|144:372|144:372|92:344,2,90,0|8|0,0:0|0:0|0:0,0:0:0:0:
256,192,85208,12,0,87993,0:0:0:0:
