osu file format v5

[General]
AudioFilename: Shinedown - Devour.mp3
AudioLeadIn: 0
PreviewTime: -1
Countdown: 1
SampleSet: Normal
EditorBookmarks: 38952,50477,61494,72342,83528,87427,99291,107427,110308,121325,132172,140308,145054,167596,178105,189291,199800

[Metadata]
Title:Devour
Artist:Shinedown
Creator:TiZ
Version:Insane

[Difficulty]
HPDrainRate:7
CircleSize:6
OverallDifficulty:7
SliderMultiplier:1.6
SliderTickRate:3

[Events]
//Background and Video events
0,0,"thesoundofmadness.jpg"
1,1000,"devour.avi"
//Break Periods
2,83388,87413
2,140338,144362
//Storyboard Layer 0 (Background)
//Storyboard Layer 1 (Failing)
//Storyboard Layer 2 (Passing)
//Storyboard Layer 3 (Foreground)
//Storyboard Sound Samples
//Background Colour Transformations
3,100,163,162,255

[TimingPoints]
39800,338.983050847458,4,1,0,100

[HitObjects]
64,64,39799,5,0
96,64,39969,1,0
128,64,40138,1,0
160,96,40308,1,0
192,96,40477,1,0
224,96,40647,1,0
256,64,40816,1,0
288,64,40986,1,0
320,64,41155,1,0
352,96,41325,1,0
384,96,41494,1,0
416,96,41664,1,0
448,128,41833,1,0
448,160,42003,1,0
448,192,42172,2,0,B|448:224,1,80
448,320,42511,5,0
416,320,42681,1,0
384,320,42850,1,0
352,288,43020,1,0
320,288,43189,1,0
288,288,43359,1,0
256,320,43528,1,0
224,320,43698,1,0
128,320,44037,1,0
96,288,44206,1,0
128,256,44376,1,0
160,224,44545,1,0
128,192,44715,1,0
96,160,44884,1,0
96,96,45223,5,0
128,128,45393,1,0
160,128,45562,1,0
192,160,45732,1,0
224,128,45901,1,0
256,128,46071,1,0
288,96,46240,1,0
320,128,46410,1,0
352,160,46579,1,0
384,192,46749,1,0
352,224,46918,1,0
320,256,47088,1,0
320,288,47257,1,0
352,288,47427,1,0
384,288,47596,1,0
416,320,47935,6,0,B|256:192,1,160
256,192,48444,2,0,B|96:64,1,160
96,96,48952,2,0,B|96:288,1,160
96,320,49461,2,0,B|256:192,1,160
256,192,49969,2,0,B|416:64,1,160
448,64,50647,5,0
448,96,50816,1,0
448,128,50986,1,0
416,160,51155,1,0
416,192,51325,1,0
416,224,51494,1,0
448,256,51664,1,0
448,288,51833,1,0
416,320,52003,1,0
384,320,52172,1,0
352,288,52342,1,0
320,288,52511,1,0
288,320,52681,1,0
256,320,52850,1,0
224,320,53020,1,0
64,320,53359,5,0
64,288,53528,1,0
96,256,53698,1,0
96,224,53867,1,0
64,192,54037,1,0
64,160,54206,1,0
96,128,54376,1,0
96,96,54545,1,0
128,32,54884,1,0
160,64,55054,1,0
192,96,55223,1,0
224,64,55393,1,0
256,32,55562,1,0
288,64,55732,1,0
448,64,56071,5,0
448,96,56240,1,0
416,128,56410,1,0
384,160,56579,1,0
384,192,56749,1,0
416,224,56918,1,0
448,256,57088,1,0
448,288,57257,1,0
352,288,57766,2,0,B|160:288,2,160
416,320,58783,6,0,B|256:192,1,160
256,192,59292,2,0,B|96:64,1,160
96,96,59800,2,0,B|96:288,1,160
96,320,60309,2,0,B|256:192,1,160
256,192,60817,2,0,B|416:64,1,160
384,64,61833,5,0
352,64,62003,2,0,B|96:64,1,240
64,192,62850,1,0
96,320,63189,1,0
128,320,63359,2,0,B|384:320,1,240
384,320,64206,5,0
384,288,64376,1,0
384,256,64545,1,0
352,256,64715,1,0
352,224,64884,1,0
320,224,65054,1,0
288,224,65223,1,0
224,160,65562,1,0
192,160,65732,1,0
160,160,65901,1,0
160,128,66071,1,0
128,128,66240,1,0
128,96,66410,1,0
128,64,66579,1,0
96,64,67257,5,0
96,96,67427,2,0,B|128:288|224:320,1,240
288,288,68274,1,0
416,320,68613,1,0
416,288,68783,2,0,B|416:128|320:64,1,240
256,64,69630,2,0,B|256:256,1,160
256,320,70138,2,0,B|256:128,1,160
256,192,70647,12,0,72172
416,96,72681,1,0
384,128,72850,2,0,B|160:320,1,240
128,224,73698,1,0
96,96,74037,1,0
128,128,74206,2,0,B|320:288,1,240
416,320,75054,5,0
416,288,75223,1,0
384,256,75393,1,0
384,224,75562,1,0
384,192,75732,1,0
416,160,75901,1,0
416,128,76071,1,0
384,96,76240,1,0
352,64,76410,1,0
320,96,76579,1,0
288,64,76749,1,0
256,96,76918,2,0,B|128:32|32:160|96:288,1,320
96,320,78105,5,0
128,320,78275,2,0,B|384:320,1,240
416,192,79122,1,0
384,64,79461,1,0
352,64,79631,2,0,B|96:64,1,240
160,192,80477,6,0,B|384:192,1,160
352,192,80986,2,0,B|128:192,1,160
256,256,81494,2,0,B|256:64,1,160
256,96,82003,1,0
256,64,82511,2,0,B|256:352,1,280
96,64,88443,5,0
128,64,88613,1,0
160,64,88782,1,0
192,96,88952,1,0
192,128,89121,1,0
224,160,89291,1,0
256,160,89460,1,0
288,160,89630,1,0
288,192,89799,1,0
320,224,89968,1,0
352,256,90138,1,0
384,256,90308,1,0
416,224,90477,1,0
416,192,90647,2,0,B|416:128,2,80
416,64,91325,5,0
384,64,91494,1,0
352,64,91664,1,0
320,96,91833,1,0
320,128,92003,1,0
288,160,92172,1,0
256,160,92342,1,0
224,160,92511,1,0
224,192,92681,1,0
192,224,92850,1,0
160,256,93020,1,0
128,224,93189,1,0
96,192,93359,2,0,B|96:128,2,80
64,64,94037,5,0
96,64,94207,1,0
128,64,94376,1,0
160,96,94546,1,0
192,96,94715,1,0
224,96,94885,1,0
256,64,95054,1,0
288,64,95224,1,0
320,64,95393,1,0
352,96,95563,1,0
384,96,95732,1,0
416,96,95902,1,0
448,128,96071,1,0
448,160,96241,1,0
448,192,96410,2,0,B|448:224,1,80
416,320,96749,6,0,B|256:192,1,160
256,192,97258,2,0,B|96:64,1,160
96,96,97766,2,0,B|96:288,1,160
96,320,98275,2,0,B|256:192,1,160
256,192,98783,2,0,B|416:64,1,160
448,64,99461,5,0
448,96,99630,1,0
448,128,99800,1,0
416,160,99969,1,0
416,192,100138,1,0
416,224,100308,1,0
448,256,100477,1,0
448,288,100647,1,0
448,320,100816,2,0,B|256:320,2,160
64,320,102172,5,0
64,288,102341,1,0
64,256,102511,1,0
96,224,102680,1,0
96,192,102849,1,0
96,160,103019,1,0
64,128,103188,1,0
64,96,103358,1,0
64,64,103527,2,0,B|256:64,2,160
160,64,104884,5,0
192,64,105054,1,0
224,64,105223,1,0
256,64,105393,1,0
288,64,105562,1,0
320,96,105732,1,0
288,128,105901,1,0
256,128,106071,1,0
256,160,106240,2,0,B|256:352,3,160
416,320,107596,6,0,B|256:192,1,160
256,192,108105,2,0,B|96:64,1,160
96,96,108613,2,0,B|96:288,1,160
96,320,109122,2,0,B|256:192,1,160
256,192,109630,2,0,B|416:64,1,160
384,320,110647,5,0
352,320,110817,2,0,B|96:320,1,240
64,192,111664,1,0
96,64,112003,1,0
128,64,112173,2,0,B|384:64,1,240
384,64,113020,5,0
384,96,113190,1,0
384,128,113359,1,0
352,128,113529,1,0
352,160,113698,1,0
320,160,113868,1,0
288,160,114037,1,0
224,224,114376,1,0
192,224,114546,1,0
160,224,114715,1,0
160,256,114885,1,0
128,256,115054,1,0
128,288,115224,1,0
128,320,115393,1,0
96,320,116071,5,0
96,288,116241,2,0,B|128:96|224:64,1,240
288,96,117088,1,0
416,64,117427,1,0
416,96,117597,2,0,B|416:256|320:320,1,240
256,320,118444,2,0,B|256:128,1,160
256,64,118952,2,0,B|256:256,1,160
256,192,119461,12,0,120986
416,288,121495,1,0
384,256,121664,2,0,B|160:64,1,240
128,160,122512,1,0
96,288,122851,1,0
128,256,123020,2,0,B|320:96,1,240
416,64,123868,5,0
416,96,124037,1,0
384,128,124207,1,0
384,160,124376,1,0
384,192,124546,1,0
416,224,124715,1,0
416,256,124885,1,0
384,288,125054,1,0
352,320,125224,1,0
320,288,125393,1,0
288,320,125563,1,0
256,288,125732,2,0,B|128:352|32:224|96:96,1,320
96,64,126919,5,0
128,64,127089,2,0,B|384:64,1,240
416,192,127936,1,0
384,320,128275,1,0
352,320,128445,2,0,B|96:320,1,240
160,192,129291,6,0,B|384:192,1,160
352,192,129800,2,0,B|128:192,1,160
256,128,130308,2,0,B|256:320,1,160
256,288,130817,1,0
256,352,131325,2,0,B|128:256|384:128|256:64,1,320
256,64,132173,5,0
96,192,132512,1,0
96,192,132681,1,0
256,320,133020,1,0
256,320,133190,1,0
416,192,133528,1,0
416,192,133698,1,0
256,192,134037,1,0
256,192,134376,1,0
160,192,134715,6,0,B|384:192,1,160
352,192,135224,2,0,B|128:192,1,160
256,128,135732,2,0,B|256:320,1,160
256,288,136241,1,0
256,192,136749,12,0,140138
128,64,145562,2,0,B|384:288,1,320
384,64,146918,2,0,B|128:288,1,320
256,32,148274,2,0,B|256:384,3,320
256,192,150986,12,0,155901
128,64,156410,2,0,B|384:288,1,320
384,64,157766,2,0,B|128:288,1,320
256,32,159122,2,0,B|256:384,3,320
256,192,161834,12,0,166749
384,64,167596,5,0
352,64,167766,2,0,B|96:64,1,240
64,192,168613,1,0
96,320,168952,1,0
128,320,169122,2,0,B|384:320,1,240
384,320,169969,5,0
384,288,170139,1,0
384,256,170308,1,0
352,256,170478,1,0
352,224,170647,1,0
320,224,170817,1,0
288,224,170986,1,0
224,160,171325,1,0
192,160,171495,1,0
160,160,171664,1,0
160,128,171834,1,0
128,128,172003,1,0
128,96,172173,1,0
128,64,172342,1,0
96,64,173020,5,0
96,96,173190,2,0,B|128:288|224:320,1,240
288,288,174037,1,0
416,320,174376,1,0
416,288,174546,2,0,B|416:128|320:64,1,240
256,64,175393,2,0,B|256:256,1,160
256,320,175901,2,0,B|256:128,1,160
256,192,176410,12,0,177935
416,96,178444,1,0
384,128,178613,2,0,B|160:320,1,240
128,224,179461,1,0
96,96,179800,1,0
128,128,179969,2,0,B|320:288,1,240
416,320,180817,5,0
416,288,180986,1,0
384,256,181156,1,0
384,224,181325,1,0
384,192,181495,1,0
416,160,181664,1,0
416,128,181834,1,0
384,96,182003,1,0
352,64,182173,1,0
320,96,182342,1,0
288,64,182512,1,0
256,96,182681,2,0,B|128:32|32:160|96:288,1,320
96,320,183868,5,0
128,320,184038,2,0,B|384:320,1,240
416,192,184885,1,0
384,64,185224,1,0
352,64,185394,2,0,B|96:64,1,240
160,192,186240,6,0,B|384:192,1,160
352,192,186749,2,0,B|128:192,1,160
256,256,187257,2,0,B|256:64,1,160
256,96,187766,1,0
256,64,188274,2,0,B|256:352,1,280
384,320,189291,5,0
352,320,189461,2,0,B|96:320,1,240
64,192,190308,1,0
96,64,190647,1,0
128,64,190817,2,0,B|384:64,1,240
384,64,191664,5,0
384,96,191834,1,0
384,128,192003,1,0
352,128,192173,1,0
352,160,192342,1,0
320,160,192512,1,0
288,160,192681,1,0
224,224,193020,1,0
192,224,193190,1,0
160,224,193359,1,0
160,256,193529,1,0
128,256,193698,1,0
128,288,193868,1,0
128,320,194037,1,0
96,320,194715,5,0
96,288,194885,2,0,B|128:96|224:64,1,240
288,96,195732,1,0
416,64,196071,1,0
416,96,196241,2,0,B|416:256|320:320,1,240
256,320,197088,2,0,B|256:128,1,160
256,64,197596,2,0,B|256:256,1,160
256,192,198105,12,0,199630
416,288,200139,1,0
384,256,200308,2,0,B|160:64,1,240
128,160,201156,1,0
96,288,201495,1,0
128,256,201664,2,0,B|320:96,1,240
416,64,202512,5,0
416,96,202681,1,0
384,128,202851,1,0
384,160,203020,1,0
384,192,203190,1,0
416,224,203359,1,0
416,256,203529,1,0
384,288,203698,1,0
352,320,203868,1,0
320,288,204037,1,0
288,320,204207,1,0
256,288,204376,2,0,B|128:352|32:224|96:96,1,320
96,64,205563,5,0
128,64,205733,2,0,B|384:64,1,240
416,192,206580,1,0
384,320,206919,1,0
352,320,207089,2,0,B|96:320,1,240
160,192,207935,6,0,B|384:192,1,160
352,192,208444,2,0,B|128:192,1,160
256,128,208952,2,0,B|256:320,1,160
256,288,209461,1,0
256,352,209969,2,0,B|128:256|384:128|256:64,1,320
256,64,210817,5,0
96,192,211156,1,0
96,192,211325,1,0
256,320,211664,1,0
256,320,211834,1,0
416,192,212172,1,0
416,192,212342,1,0
256,192,212681,1,0
256,192,213020,1,0
160,192,213359,6,0,B|384:192,1,160
352,192,213868,2,0,B|128:192,1,160
256,128,214376,2,0,B|256:320,1,160
256,320,214885,1,0
256,192,215393,12,0,218782
