osu file format v5

[General]
AudioFilename: Shinedown - Devour.mp3
AudioLeadIn: 0
PreviewTime: -1
Countdown: 1
SampleSet: Normal
EditorBookmarks: 38952,50477,61494,72342,83528,87427,99291,107427,110308,121325,132172,140308,145054,167596,178105,189291,199800

[Metadata]
Title:Devour
Artist:Shinedown
Creator:TiZ
Version:Hard

[Difficulty]
HPDrainRate:6
CircleSize:5
OverallDifficulty:5
SliderMultiplier:1.4
SliderTickRate:2

[Events]
//Background and Video events
0,0,"thesoundofmadness.jpg"
1,1000,"devour.avi"
//Break Periods
2,83388,87413
2,140338,144362
//Storyboard Layer 0 (Background)
//Storyboard Layer 1 (Failing)
//Storyboard Layer 2 (Passing)
//Storyboard Layer 3 (Foreground)
//Storyboard Sound Samples
//Background Colour Transformations
3,100,163,162,255

[TimingPoints]
39800,338.983050847458,4,1,0,100

[HitObjects]
64,64,39799,5,0
96,64,39969,1,0
160,64,40308,1,0
192,64,40477,1,0
256,64,40816,1,0
288,64,40986,1,0
352,64,41325,1,0
384,64,41494,1,0
448,64,41833,2,0,B|448:256,1,140
448,320,42511,5,0
416,320,42681,1,0
352,320,43020,1,0
320,320,43189,1,0
256,320,43528,1,0
224,320,43698,1,0
96,320,44037,2,0,B|96:256,5,70
96,96,45223,5,0
128,128,45393,1,0
192,160,45732,1,0
224,128,45901,1,0
288,96,46240,1,0
320,128,46410,1,0
384,160,46749,1,0
352,192,46918,1,0
320,224,47088,1,0
320,224,47257,1,0
320,224,47427,1,0
320,224,47596,1,0
416,320,47935,5,0
288,224,48274,1,0
256,192,48444,1,0
128,96,48783,1,0
96,64,48952,1,0
96,288,49291,1,0
96,320,49461,1,0
224,224,49800,1,0
256,192,49969,1,0
320,128,50308,1,0
448,64,50647,5,0
448,96,50816,1,0
448,160,51155,1,0
448,192,51325,1,0
448,256,51664,1,0
448,288,51833,1,0
384,320,52172,1,0
352,320,52342,1,0
288,320,52681,2,0,B|128:320,1,140
64,320,53359,5,0
64,288,53528,1,0
64,224,53867,1,0
64,192,54037,1,0
64,128,54376,1,0
64,96,54545,1,0
128,64,54884,1,0
160,64,55054,1,0
192,64,55223,1,0
224,64,55393,1,0
256,64,55562,1,0
288,64,55732,1,0
448,64,56071,5,0
448,96,56240,1,0
384,128,56579,1,0
384,160,56749,1,0
448,192,57088,1,0
448,224,57257,1,0
416,320,57766,2,0,B|256:320,2,140
416,320,58783,5,0
288,224,59122,1,0
256,192,59291,1,0
128,96,59630,1,0
96,64,59800,1,0
96,288,60138,1,0
96,320,60308,1,0
224,224,60647,1,0
256,192,60816,1,0
320,128,61155,1,0
384,64,61833,5,0
352,64,62003,2,0,B|96:64,1,210
128,192,62850,1,0
128,320,63189,1,0
160,320,63359,2,0,B|384:320,1,210
384,320,64206,5,0
384,256,64545,1,0
384,224,64715,1,0
288,224,65223,1,0
224,160,65562,1,0
160,160,65901,1,0
128,160,66071,1,0
128,64,66579,1,0
96,64,67257,5,0
96,96,67427,2,0,B|96:224|192:320,1,210
288,320,68274,1,0
416,320,68613,1,0
416,288,68783,2,0,B|416:160|320:64,1,210
272,112,69630,2,0,B|272:272,1,140
240,272,70138,2,0,B|240:112,1,140
256,192,70647,12,0,72172
416,96,72681,1,0
384,128,72850,2,0,B|192:288,1,210
96,224,73698,1,0
96,96,74037,1,0
128,128,74206,2,0,B|320:288,1,210
416,320,75054,5,0
416,288,75223,1,0
416,224,75562,1,0
416,160,75901,1,0
384,96,76240,1,0
320,96,76579,1,0
256,96,76918,2,0,B|64:160|64:288,1,280
128,320,78105,5,0
160,320,78275,2,0,B|416:320,1,210
384,192,79122,1,0
384,64,79461,1,0
352,64,79631,2,0,B|128:64,1,210
192,112,80477,6,0,B|192:336|192:368,1,210
320,320,81494,2,0,B|320:96,1,210
256,48,82511,2,0,B|256:336,1,280
96,64,88443,5,0
128,64,88613,1,0
192,96,88952,1,0
192,128,89121,1,0
256,160,89460,1,0
288,160,89630,1,0
320,224,89968,1,0
320,256,90138,1,0
384,288,90477,1,0
416,288,90647,2,0,B|416:128,1,140
416,64,91325,5,0
384,64,91494,1,0
320,96,91833,1,0
320,128,92003,1,0
256,160,92342,1,0
224,160,92511,1,0
192,224,92850,1,0
160,256,93020,1,0
96,288,93359,2,0,B|96:128,1,140
64,64,94037,5,0
96,64,94206,1,0
160,64,94545,1,0
192,64,94715,1,0
256,64,95054,1,0
288,64,95223,1,0
352,64,95562,1,0
384,64,95732,1,0
448,64,96071,2,0,B|448:224,1,140
416,320,96749,5,0
288,224,97088,1,0
256,192,97257,1,0
128,96,97596,1,0
96,64,97766,1,0
96,288,98105,1,0
96,320,98274,1,0
224,224,98613,1,0
256,192,98783,1,0
320,128,99122,1,0
448,64,99461,5,0
448,96,99630,1,0
448,160,99969,1,0
448,192,100138,1,0
448,256,100477,1,0
448,320,100816,2,0,B|288:320,2,140
64,320,102172,5,0
64,288,102342,1,0
64,224,102680,1,0
64,192,102850,1,0
64,128,103188,1,0
64,64,103527,2,0,B|224:64,2,140
192,64,104884,5,0
224,64,105054,1,0
288,64,105393,1,0
320,64,105562,1,0
320,128,105901,1,0
256,160,106240,2,0,B|256:320,3,140
416,320,107596,5,0
288,224,107935,1,0
256,192,108104,1,0
128,96,108444,1,0
96,64,108613,1,0
96,288,108952,1,0
96,320,109121,1,0
224,224,109461,1,0
256,192,109630,1,0
320,128,109969,1,0
384,320,110647,5,0
352,320,110817,2,0,B|96:320,1,210
128,192,111664,1,0
128,64,112003,1,0
160,64,112173,2,0,B|384:64,1,210
384,64,113020,5,0
384,128,113359,1,0
384,160,113529,1,0
288,160,114037,1,0
224,224,114376,1,0
160,224,114715,1,0
128,224,114885,1,0
128,320,115393,1,0
96,320,116071,5,0
96,288,116241,2,0,B|96:160|192:64,1,210
288,64,117088,1,0
416,64,117427,1,0
416,96,117597,2,0,B|416:224|320:320,1,210
272,272,118444,2,0,B|272:112,1,140
240,112,118952,2,0,B|240:272,1,140
256,192,119461,12,0,120986
416,288,121495,1,0
384,256,121664,2,0,B|192:96,1,210
96,160,122512,1,0
96,288,122851,1,0
128,256,123020,2,0,B|320:96,1,210
416,64,123868,5,0
416,96,124037,1,0
416,160,124376,1,0
416,224,124715,1,0
384,288,125054,1,0
320,288,125393,1,0
256,288,125732,2,0,B|64:224|64:96,1,280
128,64,126919,5,0
160,64,127089,2,0,B|416:64,1,210
384,192,127936,1,0
384,320,128275,1,0
352,320,128445,2,0,B|128:320,1,210
192,272,129291,6,0,B|192:48|192:16,1,210
320,64,130308,2,0,B|320:288,1,210
256,336,131325,2,0,B|256:48,1,280
256,64,132173,5,0
96,192,132512,1,0
96,192,132681,1,0
256,320,133020,1,0
256,320,133190,1,0
416,192,133528,1,0
416,192,133698,1,0
256,192,134037,1,0
256,192,134376,1,0
192,272,134715,6,0,B|192:48|192:16,1,210
320,64,135732,2,0,B|320:288,1,210
256,192,136749,12,0,140138
144,32,145562,2,0,B|144:320,1,280
368,32,146918,2,0,B|368:320,1,280
256,64,148274,2,0,B|256:352,3,280
288,288,150986,6,0,B|352:288|416:224|416:160|352:96|256:96|160:96|96:160|96:224|160:288|224:288|256:288,3,560
144,32,156410,6,0,B|144:320,1,280
368,32,157766,2,0,B|368:320,1,280
256,64,159122,2,0,B|256:352,3,280
256,192,161833,12,0,166071
384,64,167596,5,0
352,64,167766,2,0,B|96:64,1,210
128,192,168613,1,0
128,320,168952,1,0
160,320,169122,2,0,B|384:320,1,210
384,320,169969,5,0
384,256,170308,1,0
384,224,170478,1,0
288,224,170986,1,0
224,160,171325,1,0
160,160,171664,1,0
128,160,171834,1,0
128,64,172342,1,0
96,64,173020,5,0
96,96,173190,2,0,B|96:224|192:320,1,210
288,320,174037,1,0
416,320,174376,1,0
416,288,174546,2,0,B|416:160|320:64,1,210
272,112,175393,2,0,B|272:272,1,140
240,272,175901,2,0,B|240:112,1,140
256,192,176410,12,0,177935
416,96,178444,1,0
384,128,178613,2,0,B|192:288,1,210
96,224,179461,1,0
96,96,179800,1,0
128,128,179969,2,0,B|320:288,1,210
416,320,180817,5,0
416,288,180986,1,0
416,224,181325,1,0
416,160,181664,1,0
384,96,182003,1,0
320,96,182342,1,0
256,96,182681,2,0,B|64:160|64:288,1,280
128,320,183868,5,0
160,320,184038,2,0,B|416:320,1,210
384,192,184885,1,0
384,64,185224,1,0
352,64,185394,2,0,B|128:64,1,210
192,112,186240,6,0,B|192:336|192:368,1,210
320,320,187257,2,0,B|320:96,1,210
256,48,188274,2,0,B|256:336,1,280
384,320,189291,5,0
352,320,189461,2,0,B|96:320,1,210
128,192,190308,1,0
128,64,190647,1,0
160,64,190817,2,0,B|384:64,1,210
384,64,191664,5,0
384,128,192003,1,0
384,160,192173,1,0
288,160,192681,1,0
224,224,193020,1,0
160,224,193359,1,0
128,224,193529,1,0
128,320,194037,1,0
96,320,194715,5,0
96,288,194885,2,0,B|96:160|192:64,1,210
288,64,195732,1,0
416,64,196071,1,0
416,96,196241,2,0,B|416:224|320:320,1,210
272,272,197088,2,0,B|272:112,1,140
240,112,197596,2,0,B|240:272,1,140
256,192,198105,12,0,199630
416,288,200139,1,0
384,256,200308,2,0,B|192:96,1,210
96,160,201156,1,0
96,288,201495,1,0
128,256,201664,2,0,B|320:96,1,210
416,64,202512,5,0
416,96,202681,1,0
416,160,203020,1,0
416,224,203359,1,0
384,288,203698,1,0
320,288,204037,1,0
256,288,204376,2,0,B|64:224|64:96,1,280
128,64,205563,5,0
160,64,205733,2,0,B|416:64,1,210
384,192,206580,1,0
384,320,206919,1,0
352,320,207089,2,0,B|128:320,1,210
192,272,207935,6,0,B|192:48|192:16,1,210
320,64,208952,2,0,B|320:288,1,210
256,336,209969,2,0,B|256:48,1,280
256,64,210817,5,0
96,192,211156,1,0
96,192,211325,1,0
256,320,211664,1,0
256,320,211834,1,0
416,192,212172,1,0
416,192,212342,1,0
256,192,212681,1,0
256,192,213020,1,0
192,272,213359,6,0,B|192:48|192:16,1,210
320,64,214376,2,0,B|320:288,1,210
256,192,215393,12,0,218782
