osu file format v14

[General]
AudioFilename: .mp3
AudioLeadIn: 0
PreviewTime: 67034
Countdown: 0
SampleSet: Normal
StackLeniency: 0.7
Mode: 1
LetterboxInBreaks: 0
WidescreenStoryboard: 0

[Editor]
DistanceSpacing: 1
BeatDivisor: 1
GridSize: 32
TimelineZoom: 1.9

[Metadata]
Title:Kaiten
TitleUnicode:回転
Artist:ShinRa-Bansho
ArtistUnicode:森羅万象
Creator:Felt7z
Version:Kantan
Source:東方project
Tags:めらみぽっぷ kaztora azuki Meramipop touhou その日私は空を見上げた Sono Hi Watashi wa Sora wo Miageta
BeatmapID:1178855
BeatmapSetID:554941

[Difficulty]
HPDrainRate:7
CircleSize:5
OverallDifficulty:3
ApproachRate:5
SliderMultiplier:1.4
SliderTickRate:1

[Events]
//Background and Video events
0,0,"BG.jpg",0,0
//Break Periods
2,114358,115849
2,189177,199705
//Storyboard Layer 0 (Background)
//Storyboard Layer 1 (Fail)
//Storyboard Layer 2 (Pass)
//Storyboard Layer 3 (Foreground)
//Storyboard Sound Samples

[TimingPoints]
1387,361.44578313253,4,1,0,85,1,0
67893,-125,4,1,0,85,0,1
68977,-125,4,1,0,5,0,1
70423,-125,4,1,0,85,0,1
91025,-125,4,1,0,85,0,0
141627,-125,4,1,0,85,0,1
142712,-125,4,1,0,5,0,1
144158,-125,4,1,0,85,0,1
164760,-125,4,1,0,85,0,0
176326,-125,4,1,0,85,0,1
189338,-125,4,1,0,85,0,0
225483,-125,4,1,0,85,0,1
226567,-125,4,1,0,5,0,1
228013,-125,4,1,0,85,0,1
248615,-125,4,1,0,85,0,1
260182,-125,4,1,0,85,0,0

[HitObjects]
256,192,2832,5,8,0:0:0:0:
256,192,3917,1,8,0:0:0:0:
256,192,5723,1,8,0:0:0:0:
256,192,6808,1,8,0:0:0:0:
256,192,8615,5,0,0:0:0:0:
256,192,9338,1,0,0:0:0:0:
256,192,10061,1,0,0:0:0:0:
256,192,11507,1,0,0:0:0:0:
256,192,12229,1,0,0:0:0:0:
256,192,14398,1,0,0:0:0:0:
256,192,15121,1,0,0:0:0:0:
256,192,15844,1,0,0:0:0:0:
256,192,16206,1,0,0:0:0:0:
256,192,16567,1,0,0:0:0:0:
256,192,17289,1,0,0:0:0:0:
256,192,18012,1,0,0:0:0:0:
256,192,18735,1,0,0:0:0:0:
256,192,20181,1,0,0:0:0:0:
256,192,20904,1,0,0:0:0:0:
256,192,21627,1,0,0:0:0:0:
256,192,21989,1,0,0:0:0:0:
256,192,22350,1,0,0:0:0:0:
256,192,23073,1,8,0:0:0:0:
256,192,23796,1,8,0:0:0:0:
256,192,24518,1,0,0:0:0:0:
256,192,25964,1,0,0:0:0:0:
256,192,27410,1,0,0:0:0:0:
256,192,28133,1,8,0:0:0:0:
256,192,28856,1,0,0:0:0:0:
256,192,30302,1,8,0:0:0:0:
256,192,31024,1,8,0:0:0:0:
256,192,31747,1,0,0:0:0:0:
256,192,33193,1,0,0:0:0:0:
256,192,33916,1,8,0:0:0:0:
256,192,34639,1,0,0:0:0:0:
256,192,36085,1,8,0:0:0:0:
256,192,36808,1,12,0:0:0:0:
256,192,37530,1,0,0:0:0:0:
256,192,38253,1,0,0:0:0:0:
256,192,38977,1,8,0:0:0:0:
256,192,39338,1,8,0:0:0:0:
256,192,39700,1,8,0:0:0:0:
256,192,40422,1,0,0:0:0:0:
256,192,41145,1,0,0:0:0:0:
256,192,41868,1,8,0:0:0:0:
256,192,43314,1,0,0:0:0:0:
256,192,44759,1,0,0:0:0:0:
256,192,45482,1,8,0:0:0:0:
256,192,46205,1,0,0:0:0:0:
256,192,47652,1,8,0:0:0:0:
256,192,48374,1,0,0:0:0:0:
256,192,49097,1,0,0:0:0:0:
256,192,50543,1,0,0:0:0:0:
256,192,51266,1,0,0:0:0:0:
256,192,51988,1,0,0:0:0:0:
256,192,52711,1,0,0:0:0:0:
256,192,53435,1,0,0:0:0:0:
256,192,53796,1,0,0:0:0:0:
256,192,54157,1,0,0:0:0:0:
256,192,54880,1,12,0:0:0:0:
256,192,56326,1,0,0:0:0:0:
256,192,57049,1,0,0:0:0:0:
256,192,57771,1,12,0:0:0:0:
256,192,59218,1,8,0:0:0:0:
256,192,59941,1,8,0:0:0:0:
256,192,60663,1,12,0:0:0:0:
256,192,62109,1,8,0:0:0:0:
256,192,62832,1,8,0:0:0:0:
256,192,63555,1,0,0:0:0:0:
256,192,64277,1,0,0:0:0:0:
256,192,65001,2,0,P|192:352|128:128,1,560
256,192,67893,1,8,0:0:0:0:
256,192,68616,1,0,0:0:0:0:
256,192,69339,12,0,70062,0:0:0:0:
256,192,70784,5,0,0:0:0:0:
256,192,71507,1,0,0:0:0:0:
256,192,72230,1,4,0:0:0:0:
256,192,72592,1,4,0:0:0:0:
256,192,72953,1,4,0:0:0:0:
256,192,73676,1,0,0:0:0:0:
256,192,75122,1,8,0:0:0:0:
256,192,76568,1,8,0:0:0:0:
256,192,77291,1,8,0:0:0:0:
256,192,78013,1,12,0:0:0:0:
256,192,78375,1,12,0:0:0:0:
256,192,78736,1,12,0:0:0:0:
256,192,79459,1,8,0:0:0:0:
256,192,80182,1,0,0:0:0:0:
256,192,80905,1,0,0:0:0:0:
256,192,81266,1,0,0:0:0:0:
256,192,81627,1,0,0:0:0:0:
256,192,82351,1,0,0:0:0:0:
256,192,83074,1,0,0:0:0:0:
256,192,83796,1,4,0:0:0:0:
256,192,84158,1,4,0:0:0:0:
256,192,84519,1,4,0:0:0:0:
256,192,85242,1,0,0:0:0:0:
256,192,86688,1,8,0:0:0:0:
256,192,88134,1,4,0:0:0:0:
256,192,88857,1,4,0:0:0:0:
256,192,89579,12,0,90302,0:0:0:0:
256,192,91025,6,0,L|0:192,1,224
256,192,92471,2,0,L|32:192,1,224
256,192,93917,2,0,L|32:192,1,224
256,192,95362,2,0,L|32:192,1,224
256,192,96808,5,0,0:0:0:0:
256,192,97531,1,0,0:0:0:0:
256,192,98254,1,0,0:0:0:0:
256,192,98615,1,0,0:0:0:0:
256,192,98977,1,0,0:0:0:0:
256,192,99699,1,0,0:0:0:0:
256,192,100422,1,0,0:0:0:0:
256,192,101145,1,0,0:0:0:0:
256,192,102591,1,0,0:0:0:0:
256,192,104036,1,0,0:0:0:0:
256,192,105482,1,0,0:0:0:0:
256,192,106205,1,8,0:0:0:0:
256,192,106929,1,0,0:0:0:0:
256,192,107651,1,12,0:0:0:0:
256,192,108374,1,0,0:0:0:0:
256,192,109820,1,0,0:0:0:0:
256,192,111266,1,0,0:0:0:0:
256,192,111988,1,0,0:0:0:0:
256,192,112712,1,0,0:0:0:0:
256,192,113435,12,0,114158,0:0:0:0:
256,192,117049,5,0,0:0:0:0:
256,192,118494,1,0,0:0:0:0:
256,192,119217,1,8,0:0:0:0:
256,192,119940,1,0,0:0:0:0:
256,192,121387,1,8,0:0:0:0:
256,192,122832,1,0,0:0:0:0:
256,192,123194,1,0,0:0:0:0:
256,192,123555,1,0,0:0:0:0:
256,192,123917,1,0,0:0:0:0:
256,192,124278,1,0,0:0:0:0:
256,192,125723,1,0,0:0:0:0:
256,192,126446,1,0,0:0:0:0:
256,192,127170,1,0,0:0:0:0:
256,192,128615,1,12,0:0:0:0:
256,192,130061,1,0,0:0:0:0:
256,192,130784,1,0,0:0:0:0:
256,192,131506,1,12,0:0:0:0:
256,192,132953,1,8,0:0:0:0:
256,192,133676,1,8,0:0:0:0:
256,192,134398,1,12,0:0:0:0:
256,192,135844,1,8,0:0:0:0:
256,192,136567,1,8,0:0:0:0:
256,192,137290,1,0,0:0:0:0:
256,192,138012,1,0,0:0:0:0:
256,192,138736,2,0,P|160:352|96:128,1,448
256,192,141628,5,8,0:0:0:0:
256,192,142351,1,0,0:0:0:0:
256,192,143074,12,0,143797,0:0:0:0:
256,192,144519,5,0,0:0:0:0:
256,192,145242,1,0,0:0:0:0:
256,192,145965,1,4,0:0:0:0:
256,192,146327,1,4,0:0:0:0:
256,192,146688,1,4,0:0:0:0:
256,192,147411,1,0,0:0:0:0:
256,192,148857,1,8,0:0:0:0:
256,192,150303,1,8,0:0:0:0:
256,192,151026,1,8,0:0:0:0:
256,192,151748,1,12,0:0:0:0:
256,192,152110,1,12,0:0:0:0:
256,192,152471,1,12,0:0:0:0:
256,192,153194,1,8,0:0:0:0:
256,192,153917,1,0,0:0:0:0:
256,192,154640,1,0,0:0:0:0:
256,192,155001,1,0,0:0:0:0:
256,192,155362,1,0,0:0:0:0:
256,192,156086,1,0,0:0:0:0:
256,192,156809,1,0,0:0:0:0:
256,192,157531,1,4,0:0:0:0:
256,192,157893,1,4,0:0:0:0:
256,192,158254,1,4,0:0:0:0:
256,192,158977,1,0,0:0:0:0:
256,192,160423,1,8,0:0:0:0:
256,192,161869,1,4,0:0:0:0:
256,192,162592,1,4,0:0:0:0:
256,192,163314,12,0,164037,0:0:0:0:
256,192,164760,5,4,0:0:0:0:
256,192,166929,1,8,0:0:0:0:
256,192,167652,1,0,0:0:0:0:
256,192,169097,1,8,0:0:0:0:
256,192,169820,1,8,0:0:0:0:
256,192,170543,1,0,0:0:0:0:
256,192,171988,1,0,0:0:0:0:
256,192,172712,1,8,0:0:0:0:
256,192,173435,1,0,0:0:0:0:
256,192,176326,1,0,0:0:0:0:
256,192,176688,1,0,0:0:0:0:
256,192,177049,1,0,0:0:0:0:
256,192,177772,1,0,0:0:0:0:
256,192,178495,1,0,0:0:0:0:
256,192,179217,1,8,0:0:0:0:
256,192,179579,1,8,0:0:0:0:
256,192,179940,1,8,0:0:0:0:
256,192,180664,1,8,0:0:0:0:
256,192,182109,1,0,0:0:0:0:
256,192,182471,1,0,0:0:0:0:
256,192,182832,1,0,0:0:0:0:
256,192,183555,1,0,0:0:0:0:
256,192,184278,1,0,0:0:0:0:
256,192,185000,1,8,0:0:0:0:
256,192,185362,1,8,0:0:0:0:
256,192,185724,1,8,0:0:0:0:
256,192,186447,1,0,0:0:0:0:
256,192,187170,1,0,0:0:0:0:
256,192,187893,1,8,0:0:0:0:
256,192,188254,1,8,0:0:0:0:
256,192,188615,1,8,0:0:0:0:
256,192,188977,1,8,0:0:0:0:
256,192,200905,5,0,0:0:0:0:
256,192,201627,1,8,0:0:0:0:
256,192,202350,1,0,0:0:0:0:
256,192,203796,1,0,0:0:0:0:
256,192,204519,1,0,0:0:0:0:
256,192,205242,1,0,0:0:0:0:
256,192,206688,1,0,0:0:0:0:
256,192,207411,1,8,0:0:0:0:
256,192,208133,1,0,0:0:0:0:
256,192,209579,1,8,0:0:0:0:
256,192,210302,1,8,0:0:0:0:
256,192,211025,1,8,0:0:0:0:
256,192,212471,1,0,0:0:0:0:
256,192,213194,1,0,0:0:0:0:
256,192,213917,1,0,0:0:0:0:
256,192,214278,1,0,0:0:0:0:
256,192,214640,1,0,0:0:0:0:
256,192,215362,1,8,0:0:0:0:
256,192,216085,1,8,0:0:0:0:
256,192,216808,1,8,0:0:0:0:
256,192,218254,1,0,0:0:0:0:
256,192,218977,1,0,0:0:0:0:
256,192,219700,1,0,0:0:0:0:
256,192,220061,1,0,0:0:0:0:
256,192,220423,1,0,0:0:0:0:
256,192,221146,2,0,P|192:352|64:160,1,448
256,192,224760,1,8,0:0:0:0:
256,192,225483,1,8,0:0:0:0:
256,192,226206,1,0,0:0:0:0:
256,192,226929,12,0,227652,0:0:0:0:
256,192,228374,5,0,0:0:0:0:
256,192,229097,1,0,0:0:0:0:
256,192,229820,1,4,0:0:0:0:
256,192,230182,1,4,0:0:0:0:
256,192,230543,1,4,0:0:0:0:
256,192,231266,1,0,0:0:0:0:
256,192,232712,1,8,0:0:0:0:
256,192,234158,1,8,0:0:0:0:
256,192,234881,1,8,0:0:0:0:
256,192,235603,1,12,0:0:0:0:
256,192,235965,1,12,0:0:0:0:
256,192,236326,1,12,0:0:0:0:
256,192,237049,1,8,0:0:0:0:
256,192,237772,1,0,0:0:0:0:
256,192,238495,1,8,0:0:0:0:
256,192,238856,1,8,0:0:0:0:
256,192,239218,1,8,0:0:0:0:
256,192,239941,1,0,0:0:0:0:
256,192,240664,1,0,0:0:0:0:
256,192,241386,1,4,0:0:0:0:
256,192,241748,1,4,0:0:0:0:
256,192,242109,1,4,0:0:0:0:
256,192,242471,1,4,0:0:0:0:
256,192,242832,1,0,0:0:0:0:
256,192,244278,1,8,0:0:0:0:
256,192,245724,1,4,0:0:0:0:
256,192,246447,1,4,0:0:0:0:
256,192,247169,12,0,247892,0:0:0:0:
256,192,248615,5,8,0:0:0:0:
256,192,249338,1,0,0:0:0:0:
256,192,250061,1,0,0:0:0:0:
256,192,251507,12,12,252953,0:0:0:0:
256,192,254399,5,8,0:0:0:0:
256,192,255121,1,0,0:0:0:0:
256,192,255844,1,0,0:0:0:0:
256,192,256567,1,0,0:0:0:0:
256,192,257290,12,12,258736,0:0:0:0:
256,192,260182,5,8,0:0:0:0:
256,192,261266,1,8,0:0:0:0:
256,192,263073,1,8,0:0:0:0:
256,192,264158,1,12,0:0:0:0:
