osu file format v14

[General]
AudioFilename: .mp3
AudioLeadIn: 0
PreviewTime: 67034
Countdown: 0
SampleSet: Normal
StackLeniency: 0.7
Mode: 1
LetterboxInBreaks: 0
WidescreenStoryboard: 1

[Editor]
DistanceSpacing: 0.4
BeatDivisor: 2
GridSize: 32
TimelineZoom: 2.7

[Metadata]
Title:Kaiten
TitleUnicode:回転
Artist:ShinRa-Bansho
ArtistUnicode:森羅万象
Creator:Felt7z
Version:Inner Oni
Source:東方project
Tags:めらみぽっぷ kaztora azuki Meramipop touhou その日私は空を見上げた Sono Hi Watashi wa Sora wo Miageta
BeatmapID:1174681
BeatmapSetID:554941

[Difficulty]
HPDrainRate:5
CircleSize:5
OverallDifficulty:6
ApproachRate:5
SliderMultiplier:1.4
SliderTickRate:1

[Events]
//Background and Video events
0,0,"BG.jpg",0,0
//Break Periods
2,114176,115849
2,189358,199524
//Storyboard Layer 0 (Background)
//Storyboard Layer 1 (Fail)
//Storyboard Layer 2 (Pass)
//Storyboard Layer 3 (Foreground)
//Storyboard Sound Samples

[TimingPoints]
1387,361.44578313253,4,1,0,85,1,0
67893,-100,4,1,0,85,0,1
69248,-100,4,1,0,5,0,1
70152,-100,4,1,0,85,0,1
79097,-66.6666666666667,4,1,0,85,0,1
79459,-100,4,1,0,85,0,1
91025,-100,4,1,0,85,0,0
141627,-100,4,1,0,85,0,1
142983,-100,4,1,0,5,0,1
143886,-100,4,1,0,85,0,1
152832,-66.6666666666667,4,1,0,85,0,1
153194,-100,4,1,0,85,0,1
164760,-100,4,1,0,85,0,0
174880,-95.2380952380952,4,1,0,85,0,0
176326,-95.2380952380952,4,1,0,85,0,1
189338,-100,4,1,0,85,0,0
225483,-100,4,1,0,85,0,1
226838,-100,4,1,0,5,0,1
227742,-100,4,1,0,85,0,1
236688,-66.6666666666667,4,1,0,85,0,1
237049,-100,4,1,0,85,0,1
248615,-100,4,1,0,85,0,1
260182,-100,4,1,0,85,0,0

[HitObjects]
256,192,2832,5,8,0:0:0:0:
256,192,3012,1,8,0:0:0:0:
256,192,3374,1,0,0:0:0:0:
256,192,3555,1,8,0:0:0:0:
256,192,3916,1,0,0:0:0:0:
256,192,4097,1,0,0:0:0:0:
256,192,4458,1,8,0:0:0:0:
256,192,4639,1,0,0:0:0:0:
256,192,5000,1,8,0:0:0:0:
256,192,5181,1,8,0:0:0:0:
256,192,5362,1,8,0:0:0:0:
256,192,5543,1,8,0:0:0:0:
256,192,5633,1,0,0:0:0:0:
256,192,5723,1,8,0:0:0:0:
256,192,5904,1,8,0:0:0:0:
256,192,6265,1,0,0:0:0:0:
256,192,6446,1,8,0:0:0:0:
256,192,6808,1,0,0:0:0:0:
256,192,6988,1,0,0:0:0:0:
256,192,7350,1,8,0:0:0:0:
256,192,7530,1,0,0:0:0:0:
256,192,7892,12,0,8253,0:0:0:0:
256,192,8615,5,8,0:0:0:0:
256,192,8796,1,0,0:0:0:0:
256,192,8886,1,0,0:0:0:0:
256,192,8976,1,8,0:0:0:0:
256,192,9157,1,0,0:0:0:0:
256,192,9338,1,0,0:0:0:0:
256,192,9699,1,8,0:0:0:0:
256,192,9880,1,0,0:0:0:0:
256,192,9970,1,0,0:0:0:0:
256,192,10061,1,8,0:0:0:0:
256,192,10241,1,0,0:0:0:0:
256,192,10422,1,0,0:0:0:0:
256,192,10603,1,0,0:0:0:0:
256,192,10693,1,0,0:0:0:0:
256,192,10783,1,8,0:0:0:0:
256,192,10964,1,8,0:0:0:0:
256,192,11145,1,8,0:0:0:0:
256,192,11326,1,8,0:0:0:0:
256,192,11416,1,0,0:0:0:0:
256,192,11506,1,8,0:0:0:0:
256,192,11687,1,0,0:0:0:0:
256,192,11777,1,0,0:0:0:0:
256,192,11868,1,8,0:0:0:0:
256,192,12049,1,0,0:0:0:0:
256,192,12229,1,0,0:0:0:0:
256,192,12320,1,0,0:0:0:0:
256,192,12410,1,0,0:0:0:0:
256,192,12500,1,0,0:0:0:0:
256,192,12591,1,8,0:0:0:0:
256,192,12771,1,0,0:0:0:0:
256,192,13133,1,0,0:0:0:0:
256,192,13314,1,0,0:0:0:0:
256,192,13494,1,8,0:0:0:0:
256,192,13675,1,0,0:0:0:0:
256,192,13856,1,0,0:0:0:0:
256,192,14036,1,12,0:0:0:0:
256,192,14398,1,0,0:0:0:0:
256,192,14669,1,0,0:0:0:0:
256,192,14759,1,8,0:0:0:0:
256,192,14940,1,0,0:0:0:0:
256,192,15030,1,0,0:0:0:0:
256,192,15121,1,0,0:0:0:0:
256,192,15302,1,8,0:0:0:0:
256,192,15482,1,8,0:0:0:0:
256,192,15663,1,0,0:0:0:0:
256,192,15844,1,0,0:0:0:0:
256,192,15934,1,0,0:0:0:0:
256,192,16024,1,8,0:0:0:0:
256,192,16205,1,8,0:0:0:0:
256,192,16386,1,8,0:0:0:0:
256,192,16476,1,0,0:0:0:0:
256,192,16567,1,8,0:0:0:0:
256,192,16747,1,8,0:0:0:0:
256,192,16928,1,8,0:0:0:0:
256,192,17018,1,8,0:0:0:0:
256,192,17109,1,0,0:0:0:0:
256,192,17289,1,0,0:0:0:0:
256,192,17561,1,0,0:0:0:0:
256,192,17651,1,8,0:0:0:0:
256,192,17832,1,0,0:0:0:0:
256,192,17922,1,0,0:0:0:0:
256,192,18012,1,0,0:0:0:0:
256,192,18193,1,8,0:0:0:0:
256,192,18374,1,8,0:0:0:0:
256,192,18555,1,0,0:0:0:0:
256,192,18735,1,0,0:0:0:0:
256,192,18826,1,0,0:0:0:0:
256,192,18916,1,0,0:0:0:0:
256,192,19097,1,8,0:0:0:0:
256,192,19277,1,0,0:0:0:0:
256,192,19368,1,0,0:0:0:0:
256,192,19458,1,0,0:0:0:0:
256,192,19639,1,8,0:0:0:0:
256,192,19729,1,0,0:0:0:0:
256,192,19820,1,8,0:0:0:0:
256,192,19910,1,8,0:0:0:0:
256,192,20000,1,8,0:0:0:0:
256,192,20091,1,8,0:0:0:0:
256,192,20181,1,0,0:0:0:0:
256,192,20452,1,0,0:0:0:0:
256,192,20543,1,8,0:0:0:0:
256,192,20723,1,0,0:0:0:0:
256,192,20814,1,0,0:0:0:0:
256,192,20904,1,0,0:0:0:0:
256,192,21085,1,8,0:0:0:0:
256,192,21175,1,0,0:0:0:0:
256,192,21265,1,8,0:0:0:0:
256,192,21356,1,8,0:0:0:0:
256,192,21446,1,0,0:0:0:0:
256,192,21627,1,0,0:0:0:0:
256,192,21717,1,0,0:0:0:0:
256,192,21808,1,8,0:0:0:0:
256,192,21988,1,8,0:0:0:0:
256,192,22169,1,8,0:0:0:0:
256,192,22259,1,0,0:0:0:0:
256,192,22350,1,8,0:0:0:0:
256,192,22530,1,8,0:0:0:0:
256,192,22711,1,8,0:0:0:0:
256,192,22802,1,8,0:0:0:0:
256,192,22892,1,0,0:0:0:0:
256,192,22982,1,0,0:0:0:0:
256,192,23253,1,8,0:0:0:0:
256,192,23344,1,8,0:0:0:0:
256,192,23434,1,0,0:0:0:0:
256,192,23524,1,0,0:0:0:0:
256,192,23796,1,0,0:0:0:0:
256,192,23976,1,8,0:0:0:0:
256,192,24067,1,0,0:0:0:0:
256,192,24157,1,8,0:0:0:0:
256,192,24247,1,8,0:0:0:0:
256,192,24338,1,0,0:0:0:0:
256,192,24518,1,0,0:0:0:0:
256,192,24789,1,8,0:0:0:0:
256,192,24880,1,0,0:0:0:0:
256,192,24970,1,8,0:0:0:0:
256,192,25061,1,0,0:0:0:0:
256,192,25151,1,0,0:0:0:0:
256,192,25241,1,8,0:0:0:0:
256,192,25422,1,8,0:0:0:0:
256,192,25603,1,8,0:0:0:0:
256,192,25693,1,8,0:0:0:0:
256,192,25783,1,0,0:0:0:0:
256,192,25964,1,0,0:0:0:0:
256,192,26326,1,8,0:0:0:0:
256,192,26687,1,0,0:0:0:0:
256,192,26868,1,0,0:0:0:0:
256,192,27049,1,8,0:0:0:0:
256,192,27229,1,8,0:0:0:0:
256,192,27320,1,8,0:0:0:0:
256,192,27410,1,0,0:0:0:0:
256,192,27591,1,0,0:0:0:0:
256,192,27771,1,8,0:0:0:0:
256,192,27952,1,0,0:0:0:0:
256,192,28043,1,0,0:0:0:0:
256,192,28133,1,8,0:0:0:0:
256,192,28314,1,0,0:0:0:0:
256,192,28494,1,8,0:0:0:0:
256,192,28856,1,0,0:0:0:0:
256,192,29217,1,8,0:0:0:0:
256,192,29488,1,8,0:0:0:0:
256,192,29579,1,0,0:0:0:0:
256,192,29759,1,0,0:0:0:0:
256,192,29940,1,8,0:0:0:0:
256,192,30121,1,8,0:0:0:0:
256,192,30211,1,8,0:0:0:0:
256,192,30302,1,0,0:0:0:0:
256,192,30483,1,8,0:0:0:0:
256,192,30663,1,8,0:0:0:0:
256,192,30844,1,0,0:0:0:0:
256,192,30934,1,0,0:0:0:0:
256,192,31024,1,8,0:0:0:0:
256,192,31205,1,0,0:0:0:0:
256,192,31296,1,0,0:0:0:0:
256,192,31386,1,8,0:0:0:0:
256,192,31476,1,8,0:0:0:0:
256,192,31567,1,0,0:0:0:0:
256,192,31747,1,0,0:0:0:0:
256,192,32109,1,8,0:0:0:0:
256,192,32380,1,8,0:0:0:0:
256,192,32470,1,0,0:0:0:0:
256,192,32651,1,0,0:0:0:0:
256,192,32832,1,8,0:0:0:0:
256,192,33012,1,8,0:0:0:0:
256,192,33103,1,8,0:0:0:0:
256,192,33193,1,0,0:0:0:0:
256,192,33374,1,0,0:0:0:0:
256,192,33555,1,8,0:0:0:0:
256,192,33735,1,0,0:0:0:0:
256,192,33826,1,0,0:0:0:0:
256,192,33916,1,8,0:0:0:0:
256,192,34007,1,8,0:0:0:0:
256,192,34097,1,0,0:0:0:0:
256,192,34277,1,8,0:0:0:0:
256,192,34459,1,0,0:0:0:0:
256,192,34639,1,0,0:0:0:0:
256,192,35000,1,8,0:0:0:0:
256,192,35271,1,8,0:0:0:0:
256,192,35362,1,0,0:0:0:0:
256,192,35543,1,0,0:0:0:0:
256,192,35723,1,8,0:0:0:0:
256,192,35904,1,8,0:0:0:0:
256,192,35994,1,8,0:0:0:0:
256,192,36085,1,0,0:0:0:0:
256,192,36265,1,8,0:0:0:0:
256,192,36446,1,0,0:0:0:0:
256,192,36717,1,8,0:0:0:0:
256,192,36808,1,0,0:0:0:0:
256,192,36988,1,0,0:0:0:0:
256,192,37079,1,0,0:0:0:0:
256,192,37169,1,8,0:0:0:0:
256,192,37350,1,8,0:0:0:0:
256,192,37440,1,8,0:0:0:0:
256,192,37530,1,0,0:0:0:0:
256,192,37802,1,8,0:0:0:0:
256,192,37893,1,0,0:0:0:0:
256,192,38073,1,8,0:0:0:0:
256,192,38163,1,8,0:0:0:0:
256,192,38253,1,0,0:0:0:0:
256,192,38434,1,8,0:0:0:0:
256,192,38615,1,0,0:0:0:0:
256,192,38796,1,8,0:0:0:0:
256,192,38976,1,0,0:0:0:0:
256,192,39067,1,0,0:0:0:0:
256,192,39157,1,8,0:0:0:0:
256,192,39338,1,0,0:0:0:0:
256,192,39518,1,8,0:0:0:0:
256,192,39609,1,8,0:0:0:0:
256,192,39699,1,0,0:0:0:0:
256,192,39880,1,8,0:0:0:0:
256,192,40061,1,0,0:0:0:0:
256,192,40151,1,0,0:0:0:0:
256,192,40241,1,8,0:0:0:0:
256,192,40422,1,0,0:0:0:0:
256,192,40693,1,8,0:0:0:0:
256,192,40783,1,0,0:0:0:0:
256,192,40964,1,8,0:0:0:0:
256,192,41055,1,8,0:0:0:0:
256,192,41145,1,0,0:0:0:0:
256,192,41326,1,8,0:0:0:0:
256,192,41506,1,0,0:0:0:0:
256,192,41687,1,8,0:0:0:0:
256,192,41868,1,0,0:0:0:0:
256,192,41958,1,0,0:0:0:0:
256,192,42049,1,0,0:0:0:0:
256,192,42229,1,8,0:0:0:0:
256,192,42410,1,0,0:0:0:0:
256,192,42500,1,0,0:0:0:0:
256,192,42591,1,0,0:0:0:0:
256,192,42771,1,8,0:0:0:0:
256,192,42862,1,0,0:0:0:0:
256,192,42952,1,8,0:0:0:0:
256,192,43043,1,8,0:0:0:0:
256,192,43133,1,8,0:0:0:0:
256,192,43223,1,8,0:0:0:0:
256,192,43314,1,0,0:0:0:0:
256,192,43675,1,8,0:0:0:0:
256,192,43946,1,8,0:0:0:0:
256,192,44036,1,0,0:0:0:0:
256,192,44217,1,0,0:0:0:0:
256,192,44398,1,8,0:0:0:0:
256,192,44579,1,0,0:0:0:0:
256,192,44669,1,0,0:0:0:0:
256,192,44759,1,0,0:0:0:0:
256,192,44940,1,0,0:0:0:0:
256,192,45121,1,8,0:0:0:0:
256,192,45302,1,0,0:0:0:0:
256,192,45392,1,8,0:0:0:0:
256,192,45482,1,0,0:0:0:0:
256,192,45663,1,0,0:0:0:0:
256,192,45844,1,8,0:0:0:0:
256,192,46024,1,8,0:0:0:0:
256,192,46115,1,8,0:0:0:0:
256,192,46205,1,0,0:0:0:0:
256,192,46567,1,8,0:0:0:0:
256,192,46747,1,0,0:0:0:0:
256,192,46838,1,8,0:0:0:0:
256,192,46928,1,0,0:0:0:0:
256,192,47109,1,0,0:0:0:0:
256,192,47289,1,8,0:0:0:0:
256,192,47470,1,0,0:0:0:0:
256,192,47561,1,0,0:0:0:0:
256,192,47651,1,0,0:0:0:0:
256,192,47741,1,0,0:0:0:0:
256,192,47832,1,8,0:0:0:0:
256,192,48012,1,8,0:0:0:0:
256,192,48193,1,0,0:0:0:0:
256,192,48284,1,0,0:0:0:0:
256,192,48374,1,8,0:0:0:0:
256,192,48555,1,0,0:0:0:0:
256,192,48645,1,0,0:0:0:0:
256,192,48735,1,8,0:0:0:0:
256,192,48826,1,0,0:0:0:0:
256,192,48916,1,8,0:0:0:0:
256,192,49006,1,8,0:0:0:0:
256,192,49097,1,0,0:0:0:0:
256,192,49458,1,8,0:0:0:0:
256,192,49639,1,0,0:0:0:0:
256,192,49729,1,8,0:0:0:0:
256,192,49820,1,0,0:0:0:0:
256,192,50000,1,0,0:0:0:0:
256,192,50181,1,8,0:0:0:0:
256,192,50362,1,0,0:0:0:0:
256,192,50452,1,0,0:0:0:0:
256,192,50543,1,8,0:0:0:0:
256,192,50723,1,8,0:0:0:0:
256,192,50904,1,0,0:0:0:0:
256,192,51085,1,8,0:0:0:0:
256,192,51265,1,8,0:0:0:0:
256,192,51627,1,12,0:0:0:0:
256,192,51988,1,0,0:0:0:0:
256,192,52169,1,0,0:0:0:0:
256,192,52350,1,12,0:0:0:0:
256,192,52711,1,0,0:0:0:0:
256,192,52892,1,0,0:0:0:0:
256,192,53073,1,8,0:0:0:0:
256,192,53253,1,0,0:0:0:0:
256,192,53434,1,0,0:0:0:0:
256,192,53615,1,8,0:0:0:0:
256,192,53796,1,0,0:0:0:0:
256,192,53976,1,0,0:0:0:0:
256,192,54067,1,0,0:0:0:0:
256,192,54157,1,0,0:0:0:0:
256,192,54338,1,8,0:0:0:0:
256,192,54428,1,0,0:0:0:0:
256,192,54518,1,0,0:0:0:0:
256,192,54609,1,8,0:0:0:0:
256,192,54699,1,0,0:0:0:0:
256,192,54880,1,0,0:0:0:0:
256,192,55151,1,8,0:0:0:0:
256,192,55241,1,0,0:0:0:0:
256,192,55422,1,0,0:0:0:0:
256,192,55512,1,8,0:0:0:0:
256,192,55603,1,0,0:0:0:0:
256,192,55783,1,0,0:0:0:0:
256,192,55874,1,8,0:0:0:0:
256,192,55964,1,0,0:0:0:0:
256,192,56145,1,8,0:0:0:0:
256,192,56235,1,8,0:0:0:0:
256,192,56326,1,0,0:0:0:0:
256,192,56597,1,8,0:0:0:0:
256,192,56687,1,0,0:0:0:0:
256,192,56868,1,0,0:0:0:0:
256,192,56958,1,8,0:0:0:0:
256,192,57049,1,0,0:0:0:0:
256,192,57229,1,0,0:0:0:0:
256,192,57320,1,8,0:0:0:0:
256,192,57410,1,0,0:0:0:0:
256,192,57500,1,0,0:0:0:0:
256,192,57591,1,8,0:0:0:0:
256,192,57681,1,8,0:0:0:0:
256,192,57771,1,0,0:0:0:0:
256,192,58043,1,8,0:0:0:0:
256,192,58133,1,0,0:0:0:0:
256,192,58314,1,0,0:0:0:0:
256,192,58404,1,8,0:0:0:0:
256,192,58494,1,0,0:0:0:0:
256,192,58675,1,0,0:0:0:0:
256,192,58766,1,8,0:0:0:0:
256,192,58856,1,0,0:0:0:0:
256,192,59036,1,8,0:0:0:0:
256,192,59218,1,0,0:0:0:0:
256,192,59399,1,0,0:0:0:0:
256,192,59488,1,8,0:0:0:0:
256,192,59579,1,0,0:0:0:0:
256,192,59759,1,0,0:0:0:0:
256,192,59850,1,0,0:0:0:0:
256,192,59940,1,8,0:0:0:0:
256,192,60121,1,0,0:0:0:0:
256,192,60211,1,8,0:0:0:0:
256,192,60302,1,0,0:0:0:0:
256,192,60482,1,0,0:0:0:0:
256,192,60573,1,0,0:0:0:0:
256,192,60663,1,8,0:0:0:0:
256,192,61024,1,8,0:0:0:0:
256,192,61386,1,8,0:0:0:0:
256,192,61747,1,8,0:0:0:0:
256,192,61928,1,0,0:0:0:0:
256,192,62018,1,0,0:0:0:0:
256,192,62109,1,8,0:0:0:0:
256,192,62289,1,0,0:0:0:0:
256,192,62380,1,0,0:0:0:0:
256,192,62470,1,8,0:0:0:0:
256,192,62651,1,0,0:0:0:0:
256,192,62741,1,0,0:0:0:0:
256,192,62832,1,8,0:0:0:0:
256,192,62922,1,0,0:0:0:0:
256,192,63012,1,0,0:0:0:0:
256,192,63103,1,0,0:0:0:0:
256,192,63193,1,8,0:0:0:0:
256,192,63374,1,12,0:0:0:0:
256,192,63735,1,0,0:0:0:0:
256,192,63916,1,8,0:0:0:0:
256,192,64097,1,0,0:0:0:0:
256,192,64187,1,0,0:0:0:0:
256,192,64277,1,8,0:0:0:0:
256,192,64458,1,0,0:0:0:0:
256,192,64639,1,0,0:0:0:0:
256,192,64820,1,8,0:0:0:0:
256,192,65181,1,8,0:0:0:0:
256,192,65271,1,8,0:0:0:0:
256,192,65362,1,0,0:0:0:0:
256,192,65543,1,8,0:0:0:0:
256,192,65723,1,0,0:0:0:0:
256,192,65814,1,0,0:0:0:0:
256,192,65904,1,8,0:0:0:0:
256,192,65994,1,0,0:0:0:0:
256,192,66085,1,0,0:0:0:0:
256,192,66265,1,8,0:0:0:0:
256,192,66627,1,12,0:0:0:0:
256,192,66808,1,12,0:0:0:0:
256,192,66988,1,12,0:0:0:0:
256,192,67530,1,0,0:0:0:0:
256,192,67621,1,0,0:0:0:0:
256,192,67711,1,0,0:0:0:0:
256,192,67802,1,0,0:0:0:0:
256,192,67893,1,8,0:0:0:0:
256,192,68164,1,0,0:0:0:0:
256,192,68254,1,8,0:0:0:0:
256,192,68435,1,0,0:0:0:0:
256,192,68525,1,0,0:0:0:0:
256,192,68616,1,8,0:0:0:0:
256,192,68797,1,8,0:0:0:0:
256,192,68887,1,0,0:0:0:0:
256,192,68977,1,8,0:0:0:0:
256,192,69158,1,0,0:0:0:0:
256,192,69339,12,0,70062,0:0:0:0:
256,192,70423,5,0,0:0:0:0:
256,192,70604,1,8,0:0:0:0:
256,192,70784,1,0,0:0:0:0:
256,192,70966,1,8,0:0:0:0:
256,192,71056,1,8,0:0:0:0:
256,192,71146,1,0,0:0:0:0:
256,192,71327,1,8,0:0:0:0:
256,192,71507,1,0,0:0:0:0:
256,192,71688,1,8,0:0:0:0:
256,192,71778,1,0,0:0:0:0:
256,192,71869,1,0,0:0:0:0:
256,192,72049,1,8,0:0:0:0:
256,192,72230,1,12,0:0:0:0:
256,192,72411,1,12,0:0:0:0:
256,192,72592,1,4,0:0:0:0:
256,192,72772,1,12,0:0:0:0:
256,192,72953,1,4,0:0:0:0:
256,192,73134,1,8,0:0:0:0:
256,192,73225,1,0,0:0:0:0:
256,192,73315,1,8,0:0:0:0:
256,192,73495,1,8,0:0:0:0:
256,192,73586,1,8,0:0:0:0:
256,192,73676,1,0,0:0:0:0:
256,192,73857,1,0,0:0:0:0:
256,192,73947,1,8,0:0:0:0:
256,192,74037,1,0,0:0:0:0:
256,192,74218,1,8,0:0:0:0:
256,192,74399,1,0,0:0:0:0:
256,192,74490,1,0,0:0:0:0:
256,192,74580,1,8,0:0:0:0:
256,192,74671,1,0,0:0:0:0:
256,192,74761,1,8,0:0:0:0:
256,192,74941,1,0,0:0:0:0:
256,192,75122,1,8,0:0:0:0:
256,192,75303,1,8,0:0:0:0:
256,192,75393,1,8,0:0:0:0:
256,192,75484,1,0,0:0:0:0:
256,192,75665,1,8,0:0:0:0:
256,192,75845,1,0,0:0:0:0:
256,192,75936,1,8,0:0:0:0:
256,192,76026,1,0,0:0:0:0:
256,192,76116,1,0,0:0:0:0:
256,192,76206,1,8,0:0:0:0:
256,192,76387,1,0,0:0:0:0:
256,192,76568,1,8,0:0:0:0:
256,192,76658,1,8,0:0:0:0:
256,192,76748,1,0,0:0:0:0:
256,192,76839,1,0,0:0:0:0:
256,192,76929,1,8,0:0:0:0:
256,192,77110,1,8,0:0:0:0:
256,192,77201,1,0,0:0:0:0:
256,192,77291,1,8,0:0:0:0:
256,192,77471,1,8,0:0:0:0:
256,192,77562,1,0,0:0:0:0:
256,192,77652,1,8,0:0:0:0:
256,192,77742,1,8,0:0:0:0:
256,192,77833,1,0,0:0:0:0:
256,192,78013,1,4,0:0:0:0:
256,192,78375,1,4,0:0:0:0:
256,192,78736,1,4,0:0:0:0:
256,192,79098,1,12,0:0:0:0:
256,192,79459,1,8,0:0:0:0:
256,192,79730,1,0,0:0:0:0:
256,192,79821,1,8,0:0:0:0:
256,192,80001,1,0,0:0:0:0:
256,192,80092,1,0,0:0:0:0:
256,192,80182,1,8,0:0:0:0:
256,192,80363,1,8,0:0:0:0:
256,192,80454,1,0,0:0:0:0:
256,192,80544,1,8,0:0:0:0:
256,192,80725,1,0,0:0:0:0:
256,192,80905,1,8,0:0:0:0:
256,192,81086,1,0,0:0:0:0:
256,192,81177,1,0,0:0:0:0:
256,192,81267,1,8,0:0:0:0:
256,192,81357,1,8,0:0:0:0:
256,192,81447,1,0,0:0:0:0:
256,192,81628,1,8,0:0:0:0:
256,192,81809,1,0,0:0:0:0:
256,192,81900,1,0,0:0:0:0:
256,192,81989,1,8,0:0:0:0:
256,192,82170,1,8,0:0:0:0:
256,192,82351,1,0,0:0:0:0:
256,192,82531,1,0,0:0:0:0:
256,192,82622,1,8,0:0:0:0:
256,192,82712,1,0,0:0:0:0:
256,192,82893,1,8,0:0:0:0:
256,192,83074,1,8,0:0:0:0:
256,192,83254,1,0,0:0:0:0:
256,192,83344,1,8,0:0:0:0:
256,192,83435,1,8,0:0:0:0:
256,192,83616,1,0,0:0:0:0:
256,192,83797,1,12,0:0:0:0:
256,192,83977,1,12,0:0:0:0:
256,192,84158,1,4,0:0:0:0:
256,192,84339,1,12,0:0:0:0:
256,192,84519,1,4,0:0:0:0:
256,192,84700,1,8,0:0:0:0:
256,192,84790,1,0,0:0:0:0:
256,192,84881,1,8,0:0:0:0:
256,192,85062,1,8,0:0:0:0:
256,192,85152,1,8,0:0:0:0:
256,192,85242,1,0,0:0:0:0:
256,192,85423,1,0,0:0:0:0:
256,192,85513,1,8,0:0:0:0:
256,192,85604,1,0,0:0:0:0:
256,192,85784,1,8,0:0:0:0:
256,192,85965,1,0,0:0:0:0:
256,192,86056,1,0,0:0:0:0:
256,192,86147,1,8,0:0:0:0:
256,192,86237,1,0,0:0:0:0:
256,192,86327,1,8,0:0:0:0:
256,192,86507,1,0,0:0:0:0:
256,192,86688,1,8,0:0:0:0:
256,192,86869,1,8,0:0:0:0:
256,192,86959,1,8,0:0:0:0:
256,192,87050,1,0,0:0:0:0:
256,192,87230,1,8,0:0:0:0:
256,192,87411,1,8,0:0:0:0:
256,192,87592,1,0,0:0:0:0:
256,192,87682,1,0,0:0:0:0:
256,192,87772,1,8,0:0:0:0:
256,192,87863,1,8,0:0:0:0:
256,192,87953,1,0,0:0:0:0:
256,192,88134,1,8,0:0:0:0:
256,192,88406,1,0,0:0:0:0:
256,192,88495,1,8,0:0:0:0:
256,192,88677,1,8,0:0:0:0:
256,192,88766,1,8,0:0:0:0:
256,192,88857,1,0,0:0:0:0:
256,192,88947,1,0,0:0:0:0:
256,192,89038,1,8,0:0:0:0:
256,192,89127,1,0,0:0:0:0:
256,192,89219,1,8,0:0:0:0:
256,192,89400,1,8,0:0:0:0:
256,192,89490,1,8,0:0:0:0:
256,192,89580,1,0,0:0:0:0:
256,192,89761,1,8,0:0:0:0:
256,192,89941,1,0,0:0:0:0:
256,192,90031,1,8,0:0:0:0:
256,192,90212,1,0,0:0:0:0:
256,192,90303,1,8,0:0:0:0:
256,192,90483,1,0,0:0:0:0:
256,192,90574,1,0,0:0:0:0:
256,192,90665,1,8,0:0:0:0:
256,192,90755,1,8,0:0:0:0:
256,192,90845,1,0,0:0:0:0:
256,192,90936,1,8,0:0:0:0:
256,192,91025,1,0,0:0:0:0:
256,192,91928,1,8,0:0:0:0:
256,192,92019,1,8,0:0:0:0:
256,192,92109,1,8,0:0:0:0:
256,192,92289,1,0,0:0:0:0:
256,192,92380,1,8,0:0:0:0:
256,192,92470,1,0,0:0:0:0:
256,192,93194,1,8,0:0:0:0:
256,192,93314,1,8,0:0:0:0:
256,192,93435,1,0,0:0:0:0:
256,192,93555,1,0,0:0:0:0:
256,192,93916,1,0,0:0:0:0:
256,192,94187,1,0,0:0:0:0:
256,192,94458,1,8,0:0:0:0:
256,192,94820,1,0,0:0:0:0:
256,192,94911,1,0,0:0:0:0:
256,192,95001,1,0,0:0:0:0:
256,192,95091,1,8,0:0:0:0:
256,192,95181,1,8,0:0:0:0:
256,192,95271,1,8,0:0:0:0:
256,192,95362,1,0,0:0:0:0:
256,192,95633,1,0,0:0:0:0:
256,192,95904,1,8,0:0:0:0:
256,192,96265,1,0,0:0:0:0:
256,192,96356,1,0,0:0:0:0:
256,192,96446,1,8,0:0:0:0:
256,192,96808,1,0,0:0:0:0:
256,192,97079,1,0,0:0:0:0:
256,192,97169,1,8,0:0:0:0:
256,192,97350,1,0,0:0:0:0:
256,192,97440,1,0,0:0:0:0:
256,192,97530,1,0,0:0:0:0:
256,192,97711,1,8,0:0:0:0:
256,192,97892,1,8,0:0:0:0:
256,192,98073,1,0,0:0:0:0:
256,192,98253,1,0,0:0:0:0:
256,192,98344,1,0,0:0:0:0:
256,192,98434,1,8,0:0:0:0:
256,192,98615,1,8,0:0:0:0:
256,192,98796,1,8,0:0:0:0:
256,192,98886,1,0,0:0:0:0:
256,192,98976,1,8,0:0:0:0:
256,192,99157,1,8,0:0:0:0:
256,192,99338,1,8,0:0:0:0:
256,192,99428,1,8,0:0:0:0:
256,192,99518,1,0,0:0:0:0:
256,192,99699,1,0,0:0:0:0:
256,192,99970,1,0,0:0:0:0:
256,192,100061,1,8,0:0:0:0:
256,192,100241,1,0,0:0:0:0:
256,192,100332,1,0,0:0:0:0:
256,192,100422,1,0,0:0:0:0:
256,192,100603,1,8,0:0:0:0:
256,192,100783,1,8,0:0:0:0:
256,192,100964,1,0,0:0:0:0:
256,192,101145,1,0,0:0:0:0:
256,192,101235,1,0,0:0:0:0:
256,192,101326,1,0,0:0:0:0:
256,192,101417,1,0,0:0:0:0:
256,192,101507,1,8,0:0:0:0:
256,192,101687,1,0,0:0:0:0:
256,192,101777,1,0,0:0:0:0:
256,192,101868,1,0,0:0:0:0:
256,192,102049,1,8,0:0:0:0:
256,192,102139,1,0,0:0:0:0:
256,192,102229,1,8,0:0:0:0:
256,192,102320,1,8,0:0:0:0:
256,192,102410,1,8,0:0:0:0:
256,192,102500,1,8,0:0:0:0:
256,192,102591,1,0,0:0:0:0:
256,192,102772,1,0,0:0:0:0:
256,192,103133,1,0,0:0:0:0:
256,192,103314,1,8,0:0:0:0:
256,192,103494,1,0,0:0:0:0:
256,192,104036,1,0,0:0:0:0:
256,192,104217,1,0,0:0:0:0:
256,192,104399,1,8,0:0:0:0:
256,192,104579,1,0,0:0:0:0:
256,192,104759,1,8,0:0:0:0:
256,192,104940,1,0,0:0:0:0:
256,192,105121,1,8,0:0:0:0:
256,192,105211,1,8,0:0:0:0:
256,192,105302,1,8,0:0:0:0:
256,192,105392,1,8,0:0:0:0:
256,192,105482,1,0,0:0:0:0:
256,192,105663,1,0,0:0:0:0:
256,192,106024,1,0,0:0:0:0:
256,192,106205,1,8,0:0:0:0:
256,192,106386,1,0,0:0:0:0:
256,192,106747,1,8,0:0:0:0:
256,192,106838,1,8,0:0:0:0:
256,192,106928,1,0,0:0:0:0:
256,192,107109,1,0,0:0:0:0:
256,192,107289,1,0,0:0:0:0:
256,192,107380,1,0,0:0:0:0:
256,192,107470,1,0,0:0:0:0:
256,192,107561,1,0,0:0:0:0:
256,192,107651,1,8,0:0:0:0:
256,192,107832,1,8,0:0:0:0:
256,192,107923,1,8,0:0:0:0:
256,192,108012,1,0,0:0:0:0:
256,192,108103,1,0,0:0:0:0:
256,192,108193,1,0,0:0:0:0:
256,192,108374,1,0,0:0:0:0:
256,192,108555,1,0,0:0:0:0:
256,192,108917,1,0,0:0:0:0:
256,192,109097,1,8,0:0:0:0:
256,192,109277,1,0,0:0:0:0:
256,192,109639,1,0,0:0:0:0:
256,192,109820,1,8,0:0:0:0:
256,192,110000,1,0,0:0:0:0:
256,192,110091,1,0,0:0:0:0:
256,192,110181,1,0,0:0:0:0:
256,192,110362,1,0,0:0:0:0:
256,192,110543,1,8,0:0:0:0:
256,192,110723,1,0,0:0:0:0:
256,192,110904,1,12,0:0:0:0:
256,192,111265,1,0,0:0:0:0:
256,192,111446,1,0,0:0:0:0:
256,192,111627,1,12,0:0:0:0:
256,192,111988,1,0,0:0:0:0:
256,192,112169,1,0,0:0:0:0:
256,192,112350,1,8,0:0:0:0:
256,192,112530,1,0,0:0:0:0:
256,192,112621,1,8,0:0:0:0:
256,192,112711,1,0,0:0:0:0:
256,192,112892,1,8,0:0:0:0:
256,192,113073,1,0,0:0:0:0:
256,192,113163,1,8,0:0:0:0:
256,192,113253,1,0,0:0:0:0:
256,192,113344,1,0,0:0:0:0:
256,192,113434,1,8,0:0:0:0:
256,192,113705,1,8,0:0:0:0:
256,192,113976,1,0,0:0:0:0:
256,192,117049,5,0,0:0:0:0:
256,192,117410,1,8,0:0:0:0:
256,192,117681,1,8,0:0:0:0:
256,192,117771,1,0,0:0:0:0:
256,192,117952,1,0,0:0:0:0:
256,192,118133,1,8,0:0:0:0:
256,192,118314,1,0,0:0:0:0:
256,192,118404,1,0,0:0:0:0:
256,192,118494,1,0,0:0:0:0:
256,192,118675,1,0,0:0:0:0:
256,192,118856,1,8,0:0:0:0:
256,192,119036,1,0,0:0:0:0:
256,192,119127,1,8,0:0:0:0:
256,192,119217,1,0,0:0:0:0:
256,192,119398,1,0,0:0:0:0:
256,192,119579,1,8,0:0:0:0:
256,192,119759,1,8,0:0:0:0:
256,192,119850,1,8,0:0:0:0:
256,192,119940,1,0,0:0:0:0:
256,192,120302,1,8,0:0:0:0:
256,192,120573,1,8,0:0:0:0:
256,192,120663,1,0,0:0:0:0:
256,192,120844,1,0,0:0:0:0:
256,192,121024,1,8,0:0:0:0:
256,192,121205,1,0,0:0:0:0:
256,192,121296,1,0,0:0:0:0:
256,192,121386,1,0,0:0:0:0:
256,192,121476,1,0,0:0:0:0:
256,192,121567,1,8,0:0:0:0:
256,192,121747,1,8,0:0:0:0:
256,192,121928,1,0,0:0:0:0:
256,192,122018,1,0,0:0:0:0:
256,192,122109,1,8,0:0:0:0:
256,192,122289,1,0,0:0:0:0:
256,192,122380,1,0,0:0:0:0:
256,192,122470,1,8,0:0:0:0:
256,192,122561,1,0,0:0:0:0:
256,192,122651,1,8,0:0:0:0:
256,192,122741,1,8,0:0:0:0:
256,192,122832,1,0,0:0:0:0:
256,192,123012,1,8,0:0:0:0:
256,192,123103,1,8,0:0:0:0:
256,192,123193,1,0,0:0:0:0:
256,192,123374,1,8,0:0:0:0:
256,192,123465,1,8,0:0:0:0:
256,192,123555,1,0,0:0:0:0:
256,192,123735,1,8,0:0:0:0:
256,192,123826,1,8,0:0:0:0:
256,192,123917,1,0,0:0:0:0:
256,192,124006,1,8,0:0:0:0:
256,192,124097,1,8,0:0:0:0:
256,192,124187,1,8,0:0:0:0:
256,192,124277,1,0,0:0:0:0:
256,192,124458,1,0,0:0:0:0:
256,192,124639,1,8,0:0:0:0:
256,192,124820,1,0,0:0:0:0:
256,192,124910,1,0,0:0:0:0:
256,192,125000,1,0,0:0:0:0:
256,192,125181,1,0,0:0:0:0:
256,192,125362,1,12,0:0:0:0:
256,192,125723,1,0,0:0:0:0:
256,192,125904,1,0,0:0:0:0:
256,192,126085,1,12,0:0:0:0:
256,192,126446,1,0,0:0:0:0:
256,192,126627,1,0,0:0:0:0:
256,192,126808,1,8,0:0:0:0:
256,192,126988,1,0,0:0:0:0:
256,192,127079,1,8,0:0:0:0:
256,192,127169,1,0,0:0:0:0:
256,192,127350,1,8,0:0:0:0:
256,192,127530,1,8,0:0:0:0:
256,192,127711,1,0,0:0:0:0:
256,192,127802,1,0,0:0:0:0:
256,192,127892,1,0,0:0:0:0:
256,192,128073,1,8,0:0:0:0:
256,192,128163,1,0,0:0:0:0:
256,192,128253,1,0,0:0:0:0:
256,192,128344,1,8,0:0:0:0:
256,192,128434,1,0,0:0:0:0:
256,192,128615,1,0,0:0:0:0:
256,192,128886,1,8,0:0:0:0:
256,192,128976,1,0,0:0:0:0:
256,192,129157,1,0,0:0:0:0:
256,192,129247,1,8,0:0:0:0:
256,192,129338,1,0,0:0:0:0:
256,192,129518,1,0,0:0:0:0:
256,192,129609,1,8,0:0:0:0:
256,192,129699,1,0,0:0:0:0:
256,192,129880,1,8,0:0:0:0:
256,192,129970,1,8,0:0:0:0:
256,192,130061,1,0,0:0:0:0:
256,192,130332,1,8,0:0:0:0:
256,192,130422,1,0,0:0:0:0:
256,192,130603,1,0,0:0:0:0:
256,192,130693,1,8,0:0:0:0:
256,192,130784,1,0,0:0:0:0:
256,192,130964,1,0,0:0:0:0:
256,192,131055,1,8,0:0:0:0:
256,192,131145,1,0,0:0:0:0:
256,192,131235,1,0,0:0:0:0:
256,192,131326,1,8,0:0:0:0:
256,192,131416,1,8,0:0:0:0:
256,192,131506,1,0,0:0:0:0:
256,192,131778,1,8,0:0:0:0:
256,192,131868,1,0,0:0:0:0:
256,192,132049,1,0,0:0:0:0:
256,192,132139,1,8,0:0:0:0:
256,192,132229,1,0,0:0:0:0:
256,192,132410,1,0,0:0:0:0:
256,192,132501,1,8,0:0:0:0:
256,192,132591,1,0,0:0:0:0:
256,192,132771,1,0,0:0:0:0:
256,192,132953,1,8,0:0:0:0:
256,192,133134,1,0,0:0:0:0:
256,192,133223,1,8,0:0:0:0:
256,192,133314,1,0,0:0:0:0:
256,192,133494,1,8,0:0:0:0:
256,192,133585,1,0,0:0:0:0:
256,192,133675,1,8,0:0:0:0:
256,192,133856,1,0,0:0:0:0:
256,192,133946,1,8,0:0:0:0:
256,192,134037,1,0,0:0:0:0:
256,192,134217,1,8,0:0:0:0:
256,192,134308,1,0,0:0:0:0:
256,192,134398,1,8,0:0:0:0:
256,192,134759,1,8,0:0:0:0:
256,192,135121,1,8,0:0:0:0:
256,192,135482,1,8,0:0:0:0:
256,192,135663,1,0,0:0:0:0:
256,192,135753,1,0,0:0:0:0:
256,192,135844,1,8,0:0:0:0:
256,192,136024,1,0,0:0:0:0:
256,192,136115,1,0,0:0:0:0:
256,192,136205,1,8,0:0:0:0:
256,192,136386,1,0,0:0:0:0:
256,192,136476,1,0,0:0:0:0:
256,192,136567,1,8,0:0:0:0:
256,192,136657,1,0,0:0:0:0:
256,192,136747,1,0,0:0:0:0:
256,192,136838,1,0,0:0:0:0:
256,192,136928,1,8,0:0:0:0:
256,192,137109,1,12,0:0:0:0:
256,192,137470,1,0,0:0:0:0:
256,192,137651,1,8,0:0:0:0:
256,192,137832,1,0,0:0:0:0:
256,192,137922,1,0,0:0:0:0:
256,192,138012,1,8,0:0:0:0:
256,192,138193,1,0,0:0:0:0:
256,192,138374,1,0,0:0:0:0:
256,192,138555,1,8,0:0:0:0:
256,192,138916,1,8,0:0:0:0:
256,192,139006,1,8,0:0:0:0:
256,192,139097,1,0,0:0:0:0:
256,192,139278,1,8,0:0:0:0:
256,192,139458,1,0,0:0:0:0:
256,192,139549,1,0,0:0:0:0:
256,192,139639,1,8,0:0:0:0:
256,192,139729,1,0,0:0:0:0:
256,192,139820,1,0,0:0:0:0:
256,192,140000,1,8,0:0:0:0:
256,192,140362,1,12,0:0:0:0:
256,192,140543,1,12,0:0:0:0:
256,192,140723,1,12,0:0:0:0:
256,192,140904,1,8,0:0:0:0:
256,192,140994,1,8,0:0:0:0:
256,192,141085,1,8,0:0:0:0:
256,192,141175,1,8,0:0:0:0:
256,192,141265,1,0,0:0:0:0:
256,192,141356,1,0,0:0:0:0:
256,192,141446,1,0,0:0:0:0:
256,192,141537,1,0,0:0:0:0:
256,192,141627,1,8,0:0:0:0:
256,192,141898,1,0,0:0:0:0:
256,192,141988,1,8,0:0:0:0:
256,192,142169,1,0,0:0:0:0:
256,192,142259,1,0,0:0:0:0:
256,192,142350,1,8,0:0:0:0:
256,192,142531,1,8,0:0:0:0:
256,192,142621,1,0,0:0:0:0:
256,192,142711,1,8,0:0:0:0:
256,192,142892,1,0,0:0:0:0:
256,192,143073,12,0,143796,0:0:0:0:
256,192,144157,5,0,0:0:0:0:
256,192,144338,1,8,0:0:0:0:
256,192,144518,1,0,0:0:0:0:
256,192,144790,1,8,0:0:0:0:
256,192,144880,1,0,0:0:0:0:
256,192,145061,1,8,0:0:0:0:
256,192,145241,1,8,0:0:0:0:
256,192,145422,1,0,0:0:0:0:
256,192,145513,1,0,0:0:0:0:
256,192,145603,1,0,0:0:0:0:
256,192,145784,1,8,0:0:0:0:
256,192,145964,1,12,0:0:0:0:
256,192,146145,1,12,0:0:0:0:
256,192,146326,1,4,0:0:0:0:
256,192,146506,1,12,0:0:0:0:
256,192,146687,1,4,0:0:0:0:
256,192,146868,1,8,0:0:0:0:
256,192,146959,1,0,0:0:0:0:
256,192,147049,1,8,0:0:0:0:
256,192,147229,1,8,0:0:0:0:
256,192,147320,1,8,0:0:0:0:
256,192,147410,1,0,0:0:0:0:
256,192,147591,1,0,0:0:0:0:
256,192,147681,1,8,0:0:0:0:
256,192,147771,1,0,0:0:0:0:
256,192,147952,1,8,0:0:0:0:
256,192,148133,1,0,0:0:0:0:
256,192,148224,1,0,0:0:0:0:
256,192,148314,1,8,0:0:0:0:
256,192,148405,1,0,0:0:0:0:
256,192,148495,1,8,0:0:0:0:
256,192,148675,1,0,0:0:0:0:
256,192,148856,1,8,0:0:0:0:
256,192,149037,1,8,0:0:0:0:
256,192,149127,1,8,0:0:0:0:
256,192,149218,1,0,0:0:0:0:
256,192,149399,1,8,0:0:0:0:
256,192,149579,1,0,0:0:0:0:
256,192,149670,1,8,0:0:0:0:
256,192,149760,1,0,0:0:0:0:
256,192,149850,1,0,0:0:0:0:
256,192,149940,1,8,0:0:0:0:
256,192,150121,1,0,0:0:0:0:
256,192,150302,1,8,0:0:0:0:
256,192,150392,1,8,0:0:0:0:
256,192,150482,1,0,0:0:0:0:
256,192,150573,1,0,0:0:0:0:
256,192,150663,1,8,0:0:0:0:
256,192,150844,1,8,0:0:0:0:
256,192,150935,1,0,0:0:0:0:
256,192,151025,1,8,0:0:0:0:
256,192,151205,1,8,0:0:0:0:
256,192,151296,1,0,0:0:0:0:
256,192,151386,1,8,0:0:0:0:
256,192,151476,1,8,0:0:0:0:
256,192,151567,1,0,0:0:0:0:
256,192,151747,1,4,0:0:0:0:
256,192,152109,1,4,0:0:0:0:
256,192,152470,1,4,0:0:0:0:
256,192,152832,1,12,0:0:0:0:
256,192,153193,1,8,0:0:0:0:
256,192,153464,1,0,0:0:0:0:
256,192,153555,1,8,0:0:0:0:
256,192,153735,1,0,0:0:0:0:
256,192,153826,1,0,0:0:0:0:
256,192,153916,1,8,0:0:0:0:
256,192,154007,1,0,0:0:0:0:
256,192,154097,1,8,0:0:0:0:
256,192,154188,1,8,0:0:0:0:
256,192,154278,1,0,0:0:0:0:
256,192,154459,1,0,0:0:0:0:
256,192,154639,1,8,0:0:0:0:
256,192,154820,1,0,0:0:0:0:
256,192,154911,1,0,0:0:0:0:
256,192,155001,1,8,0:0:0:0:
256,192,155091,1,8,0:0:0:0:
256,192,155181,1,0,0:0:0:0:
256,192,155362,1,8,0:0:0:0:
256,192,155543,1,0,0:0:0:0:
256,192,155634,1,0,0:0:0:0:
256,192,155723,1,8,0:0:0:0:
256,192,155904,1,8,0:0:0:0:
256,192,156085,1,0,0:0:0:0:
256,192,156265,1,0,0:0:0:0:
256,192,156356,1,8,0:0:0:0:
256,192,156446,1,0,0:0:0:0:
256,192,156627,1,8,0:0:0:0:
256,192,156808,1,8,0:0:0:0:
256,192,156989,1,0,0:0:0:0:
256,192,157079,1,0,0:0:0:0:
256,192,157170,1,8,0:0:0:0:
256,192,157350,1,0,0:0:0:0:
256,192,157531,1,12,0:0:0:0:
256,192,157711,1,12,0:0:0:0:
256,192,157892,1,4,0:0:0:0:
256,192,158073,1,12,0:0:0:0:
256,192,158253,1,4,0:0:0:0:
256,192,158434,1,8,0:0:0:0:
256,192,158524,1,0,0:0:0:0:
256,192,158615,1,8,0:0:0:0:
256,192,158706,1,8,0:0:0:0:
256,192,158796,1,0,0:0:0:0:
256,192,158886,1,0,0:0:0:0:
256,192,158977,1,8,0:0:0:0:
256,192,159157,1,0,0:0:0:0:
256,192,159247,1,8,0:0:0:0:
256,192,159338,1,0,0:0:0:0:
256,192,159518,1,8,0:0:0:0:
256,192,159699,1,0,0:0:0:0:
256,192,159790,1,0,0:0:0:0:
256,192,159881,1,8,0:0:0:0:
256,192,159971,1,0,0:0:0:0:
256,192,160061,1,8,0:0:0:0:
256,192,160241,1,0,0:0:0:0:
256,192,160422,1,8,0:0:0:0:
256,192,160603,1,8,0:0:0:0:
256,192,160693,1,8,0:0:0:0:
256,192,160784,1,0,0:0:0:0:
256,192,160964,1,8,0:0:0:0:
256,192,161145,1,8,0:0:0:0:
256,192,161326,1,0,0:0:0:0:
256,192,161416,1,0,0:0:0:0:
256,192,161506,1,8,0:0:0:0:
256,192,161597,1,8,0:0:0:0:
256,192,161687,1,0,0:0:0:0:
256,192,161868,1,8,0:0:0:0:
256,192,162140,1,0,0:0:0:0:
256,192,162229,1,8,0:0:0:0:
256,192,162411,1,0,0:0:0:0:
256,192,162501,1,8,0:0:0:0:
256,192,162591,1,0,0:0:0:0:
256,192,162682,1,0,0:0:0:0:
256,192,162772,1,8,0:0:0:0:
256,192,162862,1,0,0:0:0:0:
256,192,162953,1,8,0:0:0:0:
256,192,163134,1,8,0:0:0:0:
256,192,163224,1,8,0:0:0:0:
256,192,163314,1,0,0:0:0:0:
256,192,163585,1,0,0:0:0:0:
256,192,163676,1,8,0:0:0:0:
256,192,163856,1,0,0:0:0:0:
256,192,163947,1,0,0:0:0:0:
256,192,164037,1,0,0:0:0:0:
256,192,164127,1,8,0:0:0:0:
256,192,164217,1,0,0:0:0:0:
256,192,164399,1,8,0:0:0:0:
256,192,164579,1,8,0:0:0:0:
256,192,164670,1,8,0:0:0:0:
256,192,164760,1,0,0:0:0:0:
256,192,165031,1,8,0:0:0:0:
256,192,165302,1,8,0:0:0:0:
256,192,165482,1,0,0:0:0:0:
256,192,165754,1,8,0:0:0:0:
256,192,166024,1,8,0:0:0:0:
256,192,166205,1,0,0:0:0:0:
256,192,166477,1,8,0:0:0:0:
256,192,166747,1,8,0:0:0:0:
256,192,166929,1,0,0:0:0:0:
256,192,167019,1,8,0:0:0:0:
256,192,167200,1,0,0:0:0:0:
256,192,167290,1,8,0:0:0:0:
256,192,167471,1,8,0:0:0:0:
256,192,167561,1,8,0:0:0:0:
256,192,167652,1,0,0:0:0:0:
256,192,167923,1,8,0:0:0:0:
256,192,168194,1,8,0:0:0:0:
256,192,168374,1,0,0:0:0:0:
256,192,168646,1,8,0:0:0:0:
256,192,168916,1,8,0:0:0:0:
256,192,169097,1,0,0:0:0:0:
256,192,169368,1,8,0:0:0:0:
256,192,169640,1,8,0:0:0:0:
256,192,169820,1,0,0:0:0:0:
256,192,169911,1,8,0:0:0:0:
256,192,170091,1,0,0:0:0:0:
256,192,170182,1,8,0:0:0:0:
256,192,170362,1,8,0:0:0:0:
256,192,170453,1,8,0:0:0:0:
256,192,170543,1,0,0:0:0:0:
256,192,170724,1,0,0:0:0:0:
256,192,170814,1,8,0:0:0:0:
256,192,170905,1,0,0:0:0:0:
256,192,171085,1,8,0:0:0:0:
256,192,171265,1,0,0:0:0:0:
256,192,171447,1,0,0:0:0:0:
256,192,171536,1,8,0:0:0:0:
256,192,171627,1,0,0:0:0:0:
256,192,171808,1,8,0:0:0:0:
256,192,171988,1,0,0:0:0:0:
256,192,172259,1,8,0:0:0:0:
256,192,172350,1,0,0:0:0:0:
256,192,172530,1,8,0:0:0:0:
256,192,172712,1,8,0:0:0:0:
256,192,172802,1,0,0:0:0:0:
256,192,172982,1,0,0:0:0:0:
256,192,173073,1,8,0:0:0:0:
256,192,173163,1,0,0:0:0:0:
256,192,173253,1,8,0:0:0:0:
256,192,173344,1,8,0:0:0:0:
256,192,173615,1,0,0:0:0:0:
256,192,173706,1,0,0:0:0:0:
256,192,173796,1,8,0:0:0:0:
256,192,173886,1,0,0:0:0:0:
256,192,173977,1,8,0:0:0:0:
256,192,174067,1,8,0:0:0:0:
256,192,174158,1,0,0:0:0:0:
256,192,174428,1,8,0:0:0:0:
256,192,174519,1,0,0:0:0:0:
256,192,174699,1,8,0:0:0:0:
256,192,175783,1,0,0:0:0:0:
256,192,175874,1,0,0:0:0:0:
256,192,175964,1,8,0:0:0:0:
256,192,176055,1,8,0:0:0:0:
256,192,176145,1,0,0:0:0:0:
256,192,176235,1,0,0:0:0:0:
256,192,176326,1,8,0:0:0:0:
256,192,176386,1,0,0:0:0:0:
256,192,176447,1,0,0:0:0:0:
256,192,176507,1,8,0:0:0:0:
256,192,176597,1,0,0:0:0:0:
256,192,176688,1,8,0:0:0:0:
256,192,176868,1,8,0:0:0:0:
256,192,176929,1,0,0:0:0:0:
256,192,176989,1,0,0:0:0:0:
256,192,177049,1,8,0:0:0:0:
256,192,177140,1,0,0:0:0:0:
256,192,177230,1,8,0:0:0:0:
256,192,177320,1,8,0:0:0:0:
256,192,177411,1,0,0:0:0:0:
256,192,177591,1,8,0:0:0:0:
256,192,177652,1,0,0:0:0:0:
256,192,177712,1,0,0:0:0:0:
256,192,177772,1,8,0:0:0:0:
256,192,177862,1,8,0:0:0:0:
256,192,177953,1,0,0:0:0:0:
256,192,178043,1,0,0:0:0:0:
256,192,178133,1,8,0:0:0:0:
256,192,178314,1,0,0:0:0:0:
256,192,178405,1,0,0:0:0:0:
256,192,178495,1,0,0:0:0:0:
256,192,178585,1,8,0:0:0:0:
256,192,178676,1,0,0:0:0:0:
256,192,178856,1,8,0:0:0:0:
256,192,179037,1,8,0:0:0:0:
256,192,179127,1,8,0:0:0:0:
256,192,179218,1,0,0:0:0:0:
256,192,179308,1,0,0:0:0:0:
256,192,179399,1,8,0:0:0:0:
256,192,179489,1,0,0:0:0:0:
256,192,179579,1,8,0:0:0:0:
256,192,179670,1,8,0:0:0:0:
256,192,179760,1,0,0:0:0:0:
256,192,179850,1,0,0:0:0:0:
256,192,179941,1,8,0:0:0:0:
256,192,180001,1,0,0:0:0:0:
256,192,180061,1,0,0:0:0:0:
256,192,180121,1,8,0:0:0:0:
256,192,180212,1,0,0:0:0:0:
256,192,180302,1,0,0:0:0:0:
256,192,180483,1,8,0:0:0:0:
256,192,180543,1,0,0:0:0:0:
256,192,180603,1,0,0:0:0:0:
256,192,180664,1,8,0:0:0:0:
256,192,180754,1,0,0:0:0:0:
256,192,180844,1,8,0:0:0:0:
256,192,180935,1,8,0:0:0:0:
256,192,181025,1,0,0:0:0:0:
256,192,181206,1,8,0:0:0:0:
256,192,181296,1,8,0:0:0:0:
256,192,181386,1,0,0:0:0:0:
256,192,181477,1,8,0:0:0:0:
256,192,181567,1,8,0:0:0:0:
256,192,181747,1,0,0:0:0:0:
256,192,181929,1,8,0:0:0:0:
256,192,182018,1,8,0:0:0:0:
256,192,182109,1,0,0:0:0:0:
256,192,182200,1,0,0:0:0:0:
256,192,182289,1,8,0:0:0:0:
256,192,182350,1,0,0:0:0:0:
256,192,182411,1,0,0:0:0:0:
256,192,182470,1,8,0:0:0:0:
256,192,182561,1,0,0:0:0:0:
256,192,182652,1,0,0:0:0:0:
256,192,182742,1,8,0:0:0:0:
256,192,182832,1,0,0:0:0:0:
256,192,182893,1,0,0:0:0:0:
256,192,182953,1,0,0:0:0:0:
256,192,183013,1,8,0:0:0:0:
256,192,183103,1,8,0:0:0:0:
256,192,183194,1,0,0:0:0:0:
256,192,183374,1,8,0:0:0:0:
256,192,183465,1,8,0:0:0:0:
256,192,183555,1,0,0:0:0:0:
256,192,183736,1,8,0:0:0:0:
256,192,183917,1,0,0:0:0:0:
256,192,184007,1,0,0:0:0:0:
256,192,184097,1,8,0:0:0:0:
256,192,184188,1,0,0:0:0:0:
256,192,184277,1,8,0:0:0:0:
256,192,184338,1,8,0:0:0:0:
256,192,184399,1,8,0:0:0:0:
256,192,184458,1,0,0:0:0:0:
256,192,184549,1,0,0:0:0:0:
256,192,184640,1,8,0:0:0:0:
256,192,184820,1,0,0:0:0:0:
256,192,184911,1,0,0:0:0:0:
256,192,185001,1,8,0:0:0:0:
256,192,185061,1,0,0:0:0:0:
256,192,185121,1,0,0:0:0:0:
256,192,185181,1,8,0:0:0:0:
256,192,185272,1,0,0:0:0:0:
256,192,185362,1,0,0:0:0:0:
256,192,185423,1,0,0:0:0:0:
256,192,185483,1,0,0:0:0:0:
256,192,185543,1,8,0:0:0:0:
256,192,185633,1,0,0:0:0:0:
256,192,185724,1,0,0:0:0:0:
256,192,185814,1,8,0:0:0:0:
256,192,185905,1,0,0:0:0:0:
256,192,185995,1,0,0:0:0:0:
256,192,186085,1,8,0:0:0:0:
256,192,186266,1,4,0:0:0:0:
256,192,186627,1,0,0:0:0:0:
256,192,186808,1,8,0:0:0:0:
256,192,186988,1,0,0:0:0:0:
256,192,187079,1,0,0:0:0:0:
256,192,187170,1,8,0:0:0:0:
256,192,187229,1,8,0:0:0:0:
256,192,187289,1,8,0:0:0:0:
256,192,187350,1,0,0:0:0:0:
256,192,187441,1,0,0:0:0:0:
256,192,187530,1,8,0:0:0:0:
256,192,187711,1,0,0:0:0:0:
256,192,187802,1,0,0:0:0:0:
256,192,187892,1,8,0:0:0:0:
256,192,187983,1,0,0:0:0:0:
256,192,188073,1,8,0:0:0:0:
256,192,188164,1,8,0:0:0:0:
256,192,188253,1,0,0:0:0:0:
256,192,188344,1,8,0:0:0:0:
256,192,188435,1,0,0:0:0:0:
256,192,188525,1,0,0:0:0:0:
256,192,188615,1,8,0:0:0:0:
256,192,188675,1,0,0:0:0:0:
256,192,188735,1,0,0:0:0:0:
256,192,188796,1,8,0:0:0:0:
256,192,188886,1,0,0:0:0:0:
256,192,188977,1,8,0:0:0:0:
256,192,189067,1,0,0:0:0:0:
256,192,189158,1,8,0:0:0:0:
256,192,200724,5,8,0:0:0:0:
256,192,200814,1,8,0:0:0:0:
256,192,200905,1,0,0:0:0:0:
256,192,201266,1,8,0:0:0:0:
256,192,201989,1,8,0:0:0:0:
256,192,202350,1,0,0:0:0:0:
256,192,202712,1,8,0:0:0:0:
256,192,203435,1,8,0:0:0:0:
256,192,203615,1,0,0:0:0:0:
256,192,203796,1,0,0:0:0:0:
256,192,204158,1,8,0:0:0:0:
256,192,204880,1,8,0:0:0:0:
256,192,205242,1,0,0:0:0:0:
256,192,205603,1,8,0:0:0:0:
256,192,205965,1,0,0:0:0:0:
256,192,206326,1,8,0:0:0:0:
256,192,206507,1,0,0:0:0:0:
256,192,206688,1,0,0:0:0:0:
256,192,207049,1,8,0:0:0:0:
256,192,207230,1,8,0:0:0:0:
256,192,207411,1,0,0:0:0:0:
256,192,207772,1,8,0:0:0:0:
256,192,207953,1,8,0:0:0:0:
256,192,208133,1,0,0:0:0:0:
256,192,208495,1,8,0:0:0:0:
256,192,208856,1,8,0:0:0:0:
256,192,209218,1,8,0:0:0:0:
256,192,209579,1,0,0:0:0:0:
256,192,209941,1,0,0:0:0:0:
256,192,210121,1,8,0:0:0:0:
256,192,210302,1,8,0:0:0:0:
256,192,210483,1,0,0:0:0:0:
256,192,210664,1,8,0:0:0:0:
256,192,210844,1,0,0:0:0:0:
256,192,211025,1,0,0:0:0:0:
256,192,211386,1,8,0:0:0:0:
256,192,211567,1,0,0:0:0:0:
256,192,211748,1,0,0:0:0:0:
256,192,211929,1,8,0:0:0:0:
256,192,212019,1,8,0:0:0:0:
256,192,212109,1,8,0:0:0:0:
256,192,212471,1,0,0:0:0:0:
256,192,212832,1,0,0:0:0:0:
256,192,213103,1,8,0:0:0:0:
256,192,213194,1,0,0:0:0:0:
256,192,213374,1,8,0:0:0:0:
256,192,213555,1,0,0:0:0:0:
256,192,213736,1,8,0:0:0:0:
256,192,213826,1,8,0:0:0:0:
256,192,213917,1,0,0:0:0:0:
256,192,214097,1,0,0:0:0:0:
256,192,214278,1,8,0:0:0:0:
256,192,214459,1,8,0:0:0:0:
256,192,214549,1,8,0:0:0:0:
256,192,214640,1,0,0:0:0:0:
256,192,214820,1,8,0:0:0:0:
256,192,215001,1,8,0:0:0:0:
256,192,215091,1,8,0:0:0:0:
256,192,215182,1,0,0:0:0:0:
256,192,215272,1,0,0:0:0:0:
256,192,215362,1,0,0:0:0:0:
256,192,215724,1,0,0:0:0:0:
256,192,215995,1,8,0:0:0:0:
256,192,216085,1,0,0:0:0:0:
256,192,216266,1,8,0:0:0:0:
256,192,216447,1,0,0:0:0:0:
256,192,216627,1,8,0:0:0:0:
256,192,216718,1,8,0:0:0:0:
256,192,216808,1,0,0:0:0:0:
256,192,216989,1,0,0:0:0:0:
256,192,217079,1,0,0:0:0:0:
256,192,217170,1,8,0:0:0:0:
256,192,217260,1,0,0:0:0:0:
256,192,217350,1,0,0:0:0:0:
256,192,217441,1,8,0:0:0:0:
256,192,217531,1,0,0:0:0:0:
256,192,217621,1,0,0:0:0:0:
256,192,217712,1,8,0:0:0:0:
256,192,217802,1,8,0:0:0:0:
256,192,217893,1,0,0:0:0:0:
256,192,217983,1,0,0:0:0:0:
256,192,218073,1,8,0:0:0:0:
256,192,218164,1,8,0:0:0:0:
256,192,218254,1,0,0:0:0:0:
256,192,218615,1,0,0:0:0:0:
256,192,218886,1,8,0:0:0:0:
256,192,218977,1,0,0:0:0:0:
256,192,219158,1,8,0:0:0:0:
256,192,219338,1,0,0:0:0:0:
256,192,219519,1,8,0:0:0:0:
256,192,219609,1,8,0:0:0:0:
256,192,219700,1,0,0:0:0:0:
256,192,219880,1,0,0:0:0:0:
256,192,220061,1,8,0:0:0:0:
256,192,220242,1,0,0:0:0:0:
256,192,220332,1,0,0:0:0:0:
256,192,220423,1,8,0:0:0:0:
256,192,220603,1,0,0:0:0:0:
256,192,220694,1,0,0:0:0:0:
256,192,220784,1,8,0:0:0:0:
256,192,220965,1,4,0:0:0:0:
256,192,221326,1,0,0:0:0:0:
256,192,221507,1,8,0:0:0:0:
256,192,221688,1,0,0:0:0:0:
256,192,221778,1,0,0:0:0:0:
256,192,221868,1,8,0:0:0:0:
256,192,221959,1,8,0:0:0:0:
256,192,222049,1,0,0:0:0:0:
256,192,222230,1,8,0:0:0:0:
256,192,222411,1,0,0:0:0:0:
256,192,222772,1,12,0:0:0:0:
256,192,222953,1,12,0:0:0:0:
256,192,223133,1,12,0:0:0:0:
256,192,224760,1,8,0:0:0:0:
256,192,224850,1,8,0:0:0:0:
256,192,224941,1,0,0:0:0:0:
256,192,225001,1,0,0:0:0:0:
256,192,225061,1,0,0:0:0:0:
256,192,225121,1,8,0:0:0:0:
256,192,225483,1,8,0:0:0:0:
256,192,225754,1,0,0:0:0:0:
256,192,225844,1,8,0:0:0:0:
256,192,226025,1,0,0:0:0:0:
256,192,226206,1,8,0:0:0:0:
256,192,226296,1,8,0:0:0:0:
256,192,226387,1,8,0:0:0:0:
256,192,226477,1,0,0:0:0:0:
256,192,226567,1,8,0:0:0:0:
256,192,226748,1,0,0:0:0:0:
256,192,226929,12,0,227652,0:0:0:0:
256,192,228013,5,0,0:0:0:0:
256,192,228194,1,8,0:0:0:0:
256,192,228374,1,0,0:0:0:0:
256,192,228556,1,8,0:0:0:0:
256,192,228646,1,8,0:0:0:0:
256,192,228736,1,0,0:0:0:0:
256,192,228917,1,8,0:0:0:0:
256,192,229097,1,8,0:0:0:0:
256,192,229188,1,8,0:0:0:0:
256,192,229278,1,0,0:0:0:0:
256,192,229368,1,0,0:0:0:0:
256,192,229459,1,8,0:0:0:0:
256,192,229640,1,0,0:0:0:0:
256,192,229820,1,12,0:0:0:0:
256,192,230001,1,12,0:0:0:0:
256,192,230182,1,4,0:0:0:0:
256,192,230362,1,12,0:0:0:0:
256,192,230543,1,4,0:0:0:0:
256,192,230724,1,8,0:0:0:0:
256,192,230815,1,0,0:0:0:0:
256,192,230905,1,8,0:0:0:0:
256,192,231085,1,8,0:0:0:0:
256,192,231176,1,8,0:0:0:0:
256,192,231266,1,0,0:0:0:0:
256,192,231447,1,0,0:0:0:0:
256,192,231537,1,8,0:0:0:0:
256,192,231627,1,0,0:0:0:0:
256,192,231808,1,8,0:0:0:0:
256,192,231989,1,0,0:0:0:0:
256,192,232080,1,0,0:0:0:0:
256,192,232170,1,8,0:0:0:0:
256,192,232261,1,0,0:0:0:0:
256,192,232351,1,8,0:0:0:0:
256,192,232531,1,0,0:0:0:0:
256,192,232712,1,8,0:0:0:0:
256,192,232893,1,8,0:0:0:0:
256,192,232983,1,8,0:0:0:0:
256,192,233074,1,0,0:0:0:0:
256,192,233255,1,8,0:0:0:0:
256,192,233435,1,0,0:0:0:0:
256,192,233526,1,8,0:0:0:0:
256,192,233616,1,0,0:0:0:0:
256,192,233706,1,0,0:0:0:0:
256,192,233796,1,8,0:0:0:0:
256,192,233977,1,0,0:0:0:0:
256,192,234158,1,8,0:0:0:0:
256,192,234248,1,8,0:0:0:0:
256,192,234338,1,0,0:0:0:0:
256,192,234429,1,0,0:0:0:0:
256,192,234519,1,8,0:0:0:0:
256,192,234700,1,8,0:0:0:0:
256,192,234791,1,0,0:0:0:0:
256,192,234881,1,8,0:0:0:0:
256,192,235061,1,8,0:0:0:0:
256,192,235152,1,0,0:0:0:0:
256,192,235242,1,8,0:0:0:0:
256,192,235332,1,8,0:0:0:0:
256,192,235423,1,0,0:0:0:0:
256,192,235603,1,4,0:0:0:0:
256,192,235965,1,4,0:0:0:0:
256,192,236326,1,4,0:0:0:0:
256,192,236688,1,12,0:0:0:0:
256,192,237049,1,8,0:0:0:0:
256,192,237320,1,0,0:0:0:0:
256,192,237411,1,8,0:0:0:0:
256,192,237591,1,0,0:0:0:0:
256,192,237682,1,0,0:0:0:0:
256,192,237772,1,8,0:0:0:0:
256,192,237862,1,0,0:0:0:0:
256,192,237953,1,8,0:0:0:0:
256,192,238043,1,8,0:0:0:0:
256,192,238133,1,0,0:0:0:0:
256,192,238314,1,8,0:0:0:0:
256,192,238495,1,0,0:0:0:0:
256,192,238676,1,0,0:0:0:0:
256,192,238767,1,0,0:0:0:0:
256,192,238857,1,8,0:0:0:0:
256,192,238947,1,8,0:0:0:0:
256,192,239037,1,0,0:0:0:0:
256,192,239218,1,8,0:0:0:0:
256,192,239579,1,8,0:0:0:0:
256,192,239760,1,8,0:0:0:0:
256,192,239941,1,0,0:0:0:0:
256,192,240121,1,0,0:0:0:0:
256,192,240212,1,8,0:0:0:0:
256,192,240302,1,0,0:0:0:0:
256,192,240483,1,8,0:0:0:0:
256,192,240664,1,0,0:0:0:0:
256,192,240754,1,0,0:0:0:0:
256,192,240845,1,8,0:0:0:0:
256,192,240935,1,8,0:0:0:0:
256,192,241025,1,0,0:0:0:0:
256,192,241206,1,8,0:0:0:0:
256,192,241386,1,4,0:0:0:0:
256,192,241748,1,12,0:0:0:0:
256,192,242109,1,12,0:0:0:0:
256,192,242471,1,4,0:0:0:0:
256,192,242832,1,0,0:0:0:0:
256,192,243013,1,8,0:0:0:0:
256,192,243103,1,8,0:0:0:0:
256,192,243194,1,0,0:0:0:0:
256,192,243374,1,8,0:0:0:0:
256,192,243555,1,0,0:0:0:0:
256,192,243646,1,0,0:0:0:0:
256,192,243736,1,8,0:0:0:0:
256,192,243826,1,0,0:0:0:0:
256,192,243917,1,8,0:0:0:0:
256,192,244097,1,0,0:0:0:0:
256,192,244278,1,8,0:0:0:0:
256,192,244459,1,0,0:0:0:0:
256,192,244549,1,0,0:0:0:0:
256,192,244640,1,8,0:0:0:0:
256,192,244820,1,8,0:0:0:0:
256,192,245001,1,8,0:0:0:0:
256,192,245091,1,8,0:0:0:0:
256,192,245182,1,0,0:0:0:0:
256,192,245272,1,0,0:0:0:0:
256,192,245362,1,8,0:0:0:0:
256,192,245543,1,0,0:0:0:0:
256,192,245633,1,0,0:0:0:0:
256,192,245724,1,8,0:0:0:0:
256,192,245995,1,0,0:0:0:0:
256,192,246085,1,8,0:0:0:0:
256,192,246266,1,0,0:0:0:0:
256,192,246356,1,8,0:0:0:0:
256,192,246447,1,8,0:0:0:0:
256,192,246718,1,0,0:0:0:0:
256,192,246808,1,8,0:0:0:0:
256,192,246989,1,0,0:0:0:0:
256,192,247079,1,8,0:0:0:0:
256,192,247170,1,0,0:0:0:0:
256,192,247350,1,8,0:0:0:0:
256,192,247441,1,8,0:0:0:0:
256,192,247531,1,0,0:0:0:0:
256,192,247712,1,8,0:0:0:0:
256,192,247893,1,0,0:0:0:0:
256,192,247983,1,8,0:0:0:0:
256,192,248073,1,0,0:0:0:0:
256,192,248164,1,0,0:0:0:0:
256,192,248254,1,8,0:0:0:0:
256,192,248344,1,0,0:0:0:0:
256,192,248435,1,8,0:0:0:0:
256,192,248525,1,8,0:0:0:0:
256,192,248615,1,0,0:0:0:0:
256,192,248977,1,8,0:0:0:0:
256,192,249158,1,0,0:0:0:0:
256,192,249338,1,8,0:0:0:0:
256,192,249519,1,8,0:0:0:0:
256,192,249609,1,0,0:0:0:0:
256,192,249700,1,8,0:0:0:0:
256,192,249880,1,0,0:0:0:0:
256,192,250061,1,0,0:0:0:0:
256,192,250242,1,8,0:0:0:0:
256,192,250423,1,8,0:0:0:0:
256,192,250603,1,0,0:0:0:0:
256,192,250694,1,0,0:0:0:0:
256,192,250784,1,8,0:0:0:0:
256,192,250874,1,8,0:0:0:0:
256,192,250965,1,0,0:0:0:0:
256,192,251146,1,8,0:0:0:0:
256,192,251326,1,8,0:0:0:0:
256,192,251417,1,8,0:0:0:0:
256,192,251507,1,0,0:0:0:0:
256,192,251778,1,0,0:0:0:0:
256,192,251868,1,8,0:0:0:0:
256,192,252049,1,0,0:0:0:0:
256,192,252140,1,8,0:0:0:0:
256,192,252230,1,0,0:0:0:0:
256,192,252320,1,0,0:0:0:0:
256,192,252411,1,0,0:0:0:0:
256,192,252591,1,8,0:0:0:0:
256,192,252772,1,8,0:0:0:0:
256,192,252862,1,8,0:0:0:0:
256,192,252953,1,0,0:0:0:0:
256,192,253133,1,0,0:0:0:0:
256,192,253224,1,0,0:0:0:0:
256,192,253314,1,8,0:0:0:0:
256,192,253495,1,0,0:0:0:0:
256,192,253585,1,8,0:0:0:0:
256,192,253676,1,0,0:0:0:0:
256,192,253766,1,0,0:0:0:0:
256,192,253856,1,8,0:0:0:0:
256,192,253947,1,8,0:0:0:0:
256,192,254037,1,0,0:0:0:0:
256,192,254127,1,0,0:0:0:0:
256,192,254218,1,8,0:0:0:0:
256,192,254308,1,8,0:0:0:0:
256,192,254399,1,0,0:0:0:0:
256,192,254670,1,8,0:0:0:0:
256,192,254760,1,0,0:0:0:0:
256,192,254941,1,8,0:0:0:0:
256,192,255031,1,8,0:0:0:0:
256,192,255121,1,0,0:0:0:0:
256,192,255302,1,8,0:0:0:0:
256,192,255393,1,0,0:0:0:0:
256,192,255483,1,8,0:0:0:0:
256,192,255664,1,0,0:0:0:0:
256,192,255844,1,0,0:0:0:0:
256,192,256025,1,8,0:0:0:0:
256,192,256115,1,0,0:0:0:0:
256,192,256206,1,8,0:0:0:0:
256,192,256386,1,0,0:0:0:0:
256,192,256477,1,0,0:0:0:0:
256,192,256567,1,8,0:0:0:0:
256,192,256658,1,8,0:0:0:0:
256,192,256748,1,0,0:0:0:0:
256,192,256929,1,8,0:0:0:0:
256,192,257109,1,8,0:0:0:0:
256,192,257200,1,8,0:0:0:0:
256,192,257290,1,0,0:0:0:0:
256,192,257652,1,8,0:0:0:0:
256,192,257923,1,8,0:0:0:0:
256,192,258013,1,0,0:0:0:0:
256,192,258194,1,8,0:0:0:0:
256,192,258284,1,8,0:0:0:0:
256,192,258374,1,0,0:0:0:0:
256,192,258465,1,0,0:0:0:0:
256,192,258555,1,8,0:0:0:0:
256,192,258646,1,8,0:0:0:0:
256,192,258736,1,0,0:0:0:0:
256,192,258917,1,8,0:0:0:0:
256,192,259007,1,8,0:0:0:0:
256,192,259097,1,8,0:0:0:0:
256,192,259188,1,0,0:0:0:0:
256,192,259368,1,0,0:0:0:0:
256,192,259459,1,8,0:0:0:0:
256,192,259640,1,0,0:0:0:0:
256,192,259730,1,0,0:0:0:0:
256,192,259820,1,8,0:0:0:0:
256,192,259911,1,8,0:0:0:0:
256,192,260001,1,0,0:0:0:0:
256,192,260182,1,8,0:0:0:0:
256,192,260362,1,8,0:0:0:0:
256,192,260724,1,0,0:0:0:0:
256,192,260905,1,0,0:0:0:0:
256,192,261266,1,8,0:0:0:0:
256,192,261447,1,8,0:0:0:0:
256,192,261808,1,0,0:0:0:0:
256,192,261989,1,0,0:0:0:0:
256,192,262170,1,0,0:0:0:0:
256,192,262260,1,0,0:0:0:0:
256,192,262350,1,8,0:0:0:0:
256,192,262531,1,0,0:0:0:0:
256,192,262712,1,8,0:0:0:0:
256,192,262893,1,0,0:0:0:0:
256,192,262983,1,0,0:0:0:0:
256,192,263073,1,8,0:0:0:0:
256,192,263254,1,8,0:0:0:0:
256,192,263615,1,0,0:0:0:0:
256,192,263796,1,0,0:0:0:0:
256,192,264158,1,12,0:0:0:0:
256,192,264338,1,12,0:0:0:0:
