osu file format v14

[General]
AudioFilename: .mp3
AudioLeadIn: 0
PreviewTime: 67034
Countdown: 0
SampleSet: Normal
StackLeniency: 0.7
Mode: 1
LetterboxInBreaks: 0
WidescreenStoryboard: 0

[Editor]
DistanceSpacing: 1
BeatDivisor: 2
GridSize: 32
TimelineZoom: 1.7

[Metadata]
Title:Kaiten
TitleUnicode:回転
Artist:ShinRa-Bansho
ArtistUnicode:森羅万象
Creator:Felt7z
Version:Futsuu
Source:東方project
Tags:めらみぽっぷ kaztora azuki Meramipop touhou その日私は空を見上げた Sono Hi Watashi wa Sora wo Miageta
BeatmapID:1178854
BeatmapSetID:554941

[Difficulty]
HPDrainRate:6
CircleSize:5
OverallDifficulty:4
ApproachRate:5
SliderMultiplier:1.4
SliderTickRate:1

[Events]
//Background and Video events
0,0,"BG.jpg",0,0
//Break Periods
2,114358,115849
2,189358,199705
//Storyboard Layer 0 (Background)
//Storyboard Layer 1 (Fail)
//Storyboard Layer 2 (Pass)
//Storyboard Layer 3 (Foreground)
//Storyboard Sound Samples

[TimingPoints]
1387,361.44578313253,4,1,0,85,1,0
67893,-111.111111111111,4,1,0,85,0,1
69158,-111.111111111111,4,1,0,5,0,1
70242,-111.111111111111,4,1,0,85,0,1
91025,-111.111111111111,4,1,0,85,0,0
141627,-111.111111111111,4,1,0,85,0,1
142893,-111.111111111111,4,1,0,5,0,1
143977,-111.111111111111,4,1,0,85,0,1
164760,-111.111111111111,4,1,0,85,0,0
176326,-111.111111111111,4,1,0,85,0,1
189338,-111.111111111111,4,1,0,85,0,0
225483,-111.111111111111,4,1,0,85,0,1
226748,-111.111111111111,4,1,0,5,0,1
227832,-111.111111111111,4,1,0,85,0,1
248615,-111.111111111111,4,1,0,85,0,1
260182,-111.111111111111,4,1,0,85,0,0

[HitObjects]
256,192,2832,5,8,0:0:0:0:
256,192,3374,1,8,0:0:0:0:
256,192,3916,1,0,0:0:0:0:
256,192,4458,1,0,0:0:0:0:
256,192,5723,1,8,0:0:0:0:
256,192,6266,1,8,0:0:0:0:
256,192,6808,1,0,0:0:0:0:
256,192,7350,1,0,0:0:0:0:
256,192,7892,12,0,8253,0:0:0:0:
256,192,8615,5,8,0:0:0:0:
256,192,8976,1,0,0:0:0:0:
256,192,9157,1,0,0:0:0:0:
256,192,9338,1,0,0:0:0:0:
256,192,9699,1,8,0:0:0:0:
256,192,10061,1,0,0:0:0:0:
256,192,10422,1,0,0:0:0:0:
256,192,10783,1,8,0:0:0:0:
256,192,11506,1,8,0:0:0:0:
256,192,11868,1,0,0:0:0:0:
256,192,12049,1,0,0:0:0:0:
256,192,12229,1,0,0:0:0:0:
256,192,12591,1,8,0:0:0:0:
256,192,14036,1,12,0:0:0:0:
256,192,14398,1,0,0:0:0:0:
256,192,14759,1,8,0:0:0:0:
256,192,15121,1,0,0:0:0:0:
256,192,15302,1,8,0:0:0:0:
256,192,15844,1,0,0:0:0:0:
256,192,16206,1,8,0:0:0:0:
256,192,16567,1,0,0:0:0:0:
256,192,16748,1,8,0:0:0:0:
256,192,17289,1,0,0:0:0:0:
256,192,17651,1,8,0:0:0:0:
256,192,18012,1,0,0:0:0:0:
256,192,18193,1,8,0:0:0:0:
256,192,18735,1,0,0:0:0:0:
256,192,19097,1,8,0:0:0:0:
256,192,19459,1,8,0:0:0:0:
256,192,20181,1,0,0:0:0:0:
256,192,20543,1,8,0:0:0:0:
256,192,20904,1,0,0:0:0:0:
256,192,21085,1,8,0:0:0:0:
256,192,21627,1,0,0:0:0:0:
256,192,21989,1,8,0:0:0:0:
256,192,22350,1,0,0:0:0:0:
256,192,22531,1,8,0:0:0:0:
256,192,23073,1,0,0:0:0:0:
256,192,23434,1,8,0:0:0:0:
256,192,23796,1,0,0:0:0:0:
256,192,23977,1,8,0:0:0:0:
256,192,24519,1,0,0:0:0:0:
256,192,24880,1,0,0:0:0:0:
256,192,25242,1,0,0:0:0:0:
256,192,25964,1,0,0:0:0:0:
256,192,26326,1,8,0:0:0:0:
256,192,26687,1,0,0:0:0:0:
256,192,27049,1,8,0:0:0:0:
256,192,27410,1,0,0:0:0:0:
256,192,27591,1,0,0:0:0:0:
256,192,27771,1,0,0:0:0:0:
256,192,28133,1,0,0:0:0:0:
256,192,28856,1,0,0:0:0:0:
256,192,29217,1,8,0:0:0:0:
256,192,29579,1,0,0:0:0:0:
256,192,29940,1,8,0:0:0:0:
256,192,30302,1,8,0:0:0:0:
256,192,30483,1,8,0:0:0:0:
256,192,30664,1,8,0:0:0:0:
256,192,31024,1,8,0:0:0:0:
256,192,31747,1,0,0:0:0:0:
256,192,32109,1,8,0:0:0:0:
256,192,32470,1,0,0:0:0:0:
256,192,32832,1,8,0:0:0:0:
256,192,33193,1,0,0:0:0:0:
256,192,33374,1,0,0:0:0:0:
256,192,33555,1,0,0:0:0:0:
256,192,33916,1,0,0:0:0:0:
256,192,34639,1,0,0:0:0:0:
256,192,35000,1,8,0:0:0:0:
256,192,35362,1,0,0:0:0:0:
256,192,35723,1,8,0:0:0:0:
256,192,36085,1,8,0:0:0:0:
256,192,36446,1,8,0:0:0:0:
256,192,36808,1,12,0:0:0:0:
256,192,37530,1,0,0:0:0:0:
256,192,37892,1,8,0:0:0:0:
256,192,38253,1,0,0:0:0:0:
256,192,38434,1,0,0:0:0:0:
256,192,38615,1,8,0:0:0:0:
256,192,38977,1,0,0:0:0:0:
256,192,39338,1,8,0:0:0:0:
256,192,39700,1,0,0:0:0:0:
256,192,39880,1,8,0:0:0:0:
256,192,40061,1,8,0:0:0:0:
256,192,40422,1,0,0:0:0:0:
256,192,40783,1,8,0:0:0:0:
256,192,41145,1,0,0:0:0:0:
256,192,41326,1,0,0:0:0:0:
256,192,41506,1,8,0:0:0:0:
256,192,41868,1,0,0:0:0:0:
256,192,42230,1,8,0:0:0:0:
256,192,42591,1,8,0:0:0:0:
256,192,43314,1,0,0:0:0:0:
256,192,43675,1,8,0:0:0:0:
256,192,44036,1,0,0:0:0:0:
256,192,44398,1,8,0:0:0:0:
256,192,44759,1,0,0:0:0:0:
256,192,44940,1,0,0:0:0:0:
256,192,45121,1,0,0:0:0:0:
256,192,45482,1,8,0:0:0:0:
256,192,46205,1,0,0:0:0:0:
256,192,46567,1,8,0:0:0:0:
256,192,46928,1,0,0:0:0:0:
256,192,47289,1,8,0:0:0:0:
256,192,47652,1,8,0:0:0:0:
256,192,47832,1,8,0:0:0:0:
256,192,48012,1,8,0:0:0:0:
256,192,48374,1,0,0:0:0:0:
256,192,49097,1,0,0:0:0:0:
256,192,49458,1,8,0:0:0:0:
256,192,49820,1,0,0:0:0:0:
256,192,50181,1,8,0:0:0:0:
256,192,50543,1,0,0:0:0:0:
256,192,50723,1,0,0:0:0:0:
256,192,50904,1,0,0:0:0:0:
256,192,51265,1,8,0:0:0:0:
256,192,51627,1,12,0:0:0:0:
256,192,51988,1,0,0:0:0:0:
256,192,52350,1,12,0:0:0:0:
256,192,52711,1,0,0:0:0:0:
256,192,53073,1,8,0:0:0:0:
256,192,53253,1,0,0:0:0:0:
256,192,53615,1,8,0:0:0:0:
256,192,53796,1,0,0:0:0:0:
256,192,54157,1,0,0:0:0:0:
256,192,54880,1,12,0:0:0:0:
256,192,55241,1,0,0:0:0:0:
256,192,55603,1,0,0:0:0:0:
256,192,55964,1,0,0:0:0:0:
256,192,56326,1,0,0:0:0:0:
256,192,56687,1,0,0:0:0:0:
256,192,57049,1,0,0:0:0:0:
256,192,57410,1,0,0:0:0:0:
256,192,57771,1,12,0:0:0:0:
256,192,58133,1,0,0:0:0:0:
256,192,58494,1,0,0:0:0:0:
256,192,58856,1,0,0:0:0:0:
256,192,59218,1,12,0:0:0:0:
256,192,59941,1,12,0:0:0:0:
256,192,60663,1,12,0:0:0:0:
256,192,61024,1,8,0:0:0:0:
256,192,61386,1,8,0:0:0:0:
256,192,61747,1,8,0:0:0:0:
256,192,62109,1,8,0:0:0:0:
256,192,62470,1,8,0:0:0:0:
256,192,62652,1,8,0:0:0:0:
256,192,63012,1,0,0:0:0:0:
256,192,63374,1,12,0:0:0:0:
256,192,63735,1,0,0:0:0:0:
256,192,63916,1,8,0:0:0:0:
256,192,64277,1,8,0:0:0:0:
256,192,64820,2,0,P|160:352|160:128,1,560
256,192,66627,1,8,0:0:0:0:
256,192,66808,1,8,0:0:0:0:
256,192,66988,1,8,0:0:0:0:
256,192,67893,1,8,0:0:0:0:
256,192,68254,1,8,0:0:0:0:
256,192,68616,1,8,0:0:0:0:
256,192,68796,1,8,0:0:0:0:
256,192,68977,1,8,0:0:0:0:
256,192,69339,12,0,70062,0:0:0:0:
256,192,70784,5,0,0:0:0:0:
256,192,71146,1,0,0:0:0:0:
256,192,71327,1,8,0:0:0:0:
256,192,71507,1,0,0:0:0:0:
256,192,71869,1,8,0:0:0:0:
256,192,72230,1,4,0:0:0:0:
256,192,72592,1,4,0:0:0:0:
256,192,72953,1,4,0:0:0:0:
256,192,73676,1,0,0:0:0:0:
256,192,74037,1,0,0:0:0:0:
256,192,74218,1,0,0:0:0:0:
256,192,74399,1,0,0:0:0:0:
256,192,75122,1,8,0:0:0:0:
256,192,75484,1,8,0:0:0:0:
256,192,75665,1,8,0:0:0:0:
256,192,75845,1,8,0:0:0:0:
256,192,76568,1,8,0:0:0:0:
256,192,76929,1,8,0:0:0:0:
256,192,77110,1,0,0:0:0:0:
256,192,77291,1,8,0:0:0:0:
256,192,77471,1,0,0:0:0:0:
256,192,77652,1,8,0:0:0:0:
256,192,78013,1,12,0:0:0:0:
256,192,78375,1,12,0:0:0:0:
256,192,78736,1,12,0:0:0:0:
256,192,79459,1,8,0:0:0:0:
256,192,79821,1,8,0:0:0:0:
256,192,80001,1,8,0:0:0:0:
256,192,80182,1,8,0:0:0:0:
256,192,80544,1,0,0:0:0:0:
256,192,80905,1,8,0:0:0:0:
256,192,81266,1,8,0:0:0:0:
256,192,81627,1,0,0:0:0:0:
256,192,82351,1,0,0:0:0:0:
256,192,82712,1,0,0:0:0:0:
256,192,82893,1,8,0:0:0:0:
256,192,83074,1,0,0:0:0:0:
256,192,83436,1,8,0:0:0:0:
256,192,83796,1,4,0:0:0:0:
256,192,84158,1,4,0:0:0:0:
256,192,84519,1,4,0:0:0:0:
256,192,85242,1,0,0:0:0:0:
256,192,85604,1,0,0:0:0:0:
256,192,85784,1,0,0:0:0:0:
256,192,85965,1,0,0:0:0:0:
256,192,86688,1,8,0:0:0:0:
256,192,87049,1,8,0:0:0:0:
256,192,87230,1,8,0:0:0:0:
256,192,87411,1,8,0:0:0:0:
256,192,87772,1,8,0:0:0:0:
256,192,88134,1,4,0:0:0:0:
256,192,88857,1,4,0:0:0:0:
256,192,89579,12,0,90302,0:0:0:0:
256,192,91025,6,0,L|0:192,1,251.999992309571
256,192,92109,1,8,0:0:0:0:
256,192,92471,2,0,L|0:192,1,251.999992309571
256,192,93555,1,0,0:0:0:0:
256,192,93917,6,0,L|0:192,1,251.999992309571
256,192,95001,1,8,0:0:0:0:
256,192,95362,2,0,L|0:192,1,251.999992309571
256,192,96446,1,8,0:0:0:0:
256,192,96808,1,0,0:0:0:0:
256,192,97169,1,8,0:0:0:0:
256,192,97531,1,0,0:0:0:0:
256,192,97712,1,8,0:0:0:0:
256,192,98254,1,0,0:0:0:0:
256,192,98615,1,8,0:0:0:0:
256,192,98977,1,0,0:0:0:0:
256,192,99158,1,8,0:0:0:0:
256,192,99699,1,0,0:0:0:0:
256,192,100061,1,8,0:0:0:0:
256,192,100422,1,0,0:0:0:0:
256,192,100603,1,8,0:0:0:0:
256,192,101145,1,0,0:0:0:0:
256,192,101507,1,0,0:0:0:0:
256,192,101868,1,0,0:0:0:0:
256,192,102591,1,0,0:0:0:0:
256,192,102772,1,0,0:0:0:0:
256,192,103133,1,0,0:0:0:0:
256,192,103314,1,8,0:0:0:0:
256,192,104036,1,0,0:0:0:0:
256,192,104217,1,0,0:0:0:0:
256,192,104579,1,0,0:0:0:0:
256,192,104759,1,8,0:0:0:0:
256,192,105121,1,8,0:0:0:0:
256,192,105482,1,0,0:0:0:0:
256,192,105663,1,0,0:0:0:0:
256,192,106024,1,0,0:0:0:0:
256,192,106205,1,8,0:0:0:0:
256,192,106929,1,0,0:0:0:0:
256,192,107109,1,0,0:0:0:0:
256,192,107290,1,0,0:0:0:0:
256,192,107651,1,12,0:0:0:0:
256,192,108374,1,0,0:0:0:0:
256,192,108555,1,0,0:0:0:0:
256,192,108917,1,0,0:0:0:0:
256,192,109097,1,8,0:0:0:0:
256,192,109820,1,0,0:0:0:0:
256,192,110000,1,0,0:0:0:0:
256,192,110362,1,0,0:0:0:0:
256,192,110543,1,8,0:0:0:0:
256,192,110904,1,12,0:0:0:0:
256,192,111266,1,0,0:0:0:0:
256,192,111627,1,12,0:0:0:0:
256,192,111988,1,0,0:0:0:0:
256,192,112350,1,8,0:0:0:0:
256,192,112531,1,0,0:0:0:0:
256,192,112892,1,8,0:0:0:0:
256,192,113073,1,0,0:0:0:0:
256,192,113435,12,0,114158,0:0:0:0:
256,192,117049,5,0,0:0:0:0:
256,192,117410,1,8,0:0:0:0:
256,192,117771,1,0,0:0:0:0:
256,192,118133,1,8,0:0:0:0:
256,192,118494,1,0,0:0:0:0:
256,192,118675,1,0,0:0:0:0:
256,192,118856,1,0,0:0:0:0:
256,192,119217,1,8,0:0:0:0:
256,192,119940,1,0,0:0:0:0:
256,192,120302,1,8,0:0:0:0:
256,192,120663,1,0,0:0:0:0:
256,192,121024,1,8,0:0:0:0:
256,192,121387,1,8,0:0:0:0:
256,192,121567,1,8,0:0:0:0:
256,192,121747,1,8,0:0:0:0:
256,192,122109,1,0,0:0:0:0:
256,192,122832,1,4,0:0:0:0:
256,192,123193,1,4,0:0:0:0:
256,192,123555,1,4,0:0:0:0:
256,192,123916,1,4,0:0:0:0:
256,192,124278,1,0,0:0:0:0:
256,192,124458,1,0,0:0:0:0:
256,192,124639,1,0,0:0:0:0:
256,192,125000,1,8,0:0:0:0:
256,192,125362,1,12,0:0:0:0:
256,192,125723,1,0,0:0:0:0:
256,192,126085,1,12,0:0:0:0:
256,192,126446,1,0,0:0:0:0:
256,192,126808,1,8,0:0:0:0:
256,192,126988,1,0,0:0:0:0:
256,192,127350,1,8,0:0:0:0:
256,192,127531,1,0,0:0:0:0:
256,192,127892,1,0,0:0:0:0:
256,192,128615,1,12,0:0:0:0:
256,192,128976,1,0,0:0:0:0:
256,192,129338,1,0,0:0:0:0:
256,192,129699,1,0,0:0:0:0:
256,192,130061,1,0,0:0:0:0:
256,192,130422,1,0,0:0:0:0:
256,192,130784,1,0,0:0:0:0:
256,192,131145,1,0,0:0:0:0:
256,192,131506,1,12,0:0:0:0:
256,192,131868,1,0,0:0:0:0:
256,192,132229,1,0,0:0:0:0:
256,192,132591,1,0,0:0:0:0:
256,192,132953,1,12,0:0:0:0:
256,192,133676,1,12,0:0:0:0:
256,192,134398,1,12,0:0:0:0:
256,192,134759,1,8,0:0:0:0:
256,192,135121,1,8,0:0:0:0:
256,192,135482,1,8,0:0:0:0:
256,192,135844,1,8,0:0:0:0:
256,192,136205,1,8,0:0:0:0:
256,192,136387,1,8,0:0:0:0:
256,192,136747,1,0,0:0:0:0:
256,192,137109,1,12,0:0:0:0:
256,192,137470,1,0,0:0:0:0:
256,192,137651,1,8,0:0:0:0:
256,192,138013,1,8,0:0:0:0:
256,192,138555,2,0,P|160:352|128:128,1,503.999984619141
256,192,140362,5,8,0:0:0:0:
256,192,140543,1,8,0:0:0:0:
256,192,140723,1,8,0:0:0:0:
256,192,141628,1,8,0:0:0:0:
256,192,141989,1,8,0:0:0:0:
256,192,142351,1,8,0:0:0:0:
256,192,142531,1,8,0:0:0:0:
256,192,142712,1,8,0:0:0:0:
256,192,143074,12,0,143797,0:0:0:0:
256,192,144519,5,0,0:0:0:0:
256,192,144881,1,0,0:0:0:0:
256,192,145062,1,8,0:0:0:0:
256,192,145242,1,0,0:0:0:0:
256,192,145604,1,8,0:0:0:0:
256,192,145965,1,4,0:0:0:0:
256,192,146327,1,4,0:0:0:0:
256,192,146688,1,4,0:0:0:0:
256,192,147411,1,0,0:0:0:0:
256,192,147772,1,0,0:0:0:0:
256,192,147953,1,0,0:0:0:0:
256,192,148134,1,0,0:0:0:0:
256,192,148857,1,8,0:0:0:0:
256,192,149219,1,8,0:0:0:0:
256,192,149400,1,8,0:0:0:0:
256,192,149580,1,8,0:0:0:0:
256,192,150303,1,8,0:0:0:0:
256,192,150664,1,8,0:0:0:0:
256,192,150845,1,0,0:0:0:0:
256,192,151026,1,8,0:0:0:0:
256,192,151206,1,0,0:0:0:0:
256,192,151387,1,8,0:0:0:0:
256,192,151748,1,12,0:0:0:0:
256,192,152110,1,12,0:0:0:0:
256,192,152471,1,12,0:0:0:0:
256,192,153194,1,8,0:0:0:0:
256,192,153556,1,8,0:0:0:0:
256,192,153736,1,8,0:0:0:0:
256,192,153917,1,8,0:0:0:0:
256,192,154279,1,0,0:0:0:0:
256,192,154640,1,8,0:0:0:0:
256,192,155001,1,8,0:0:0:0:
256,192,155362,1,0,0:0:0:0:
256,192,156086,1,0,0:0:0:0:
256,192,156447,1,0,0:0:0:0:
256,192,156628,1,8,0:0:0:0:
256,192,156809,1,0,0:0:0:0:
256,192,157171,1,8,0:0:0:0:
256,192,157531,1,4,0:0:0:0:
256,192,157893,1,4,0:0:0:0:
256,192,158254,1,4,0:0:0:0:
256,192,158977,1,0,0:0:0:0:
256,192,159339,1,0,0:0:0:0:
256,192,159519,1,0,0:0:0:0:
256,192,159700,1,0,0:0:0:0:
256,192,160423,1,8,0:0:0:0:
256,192,160784,1,8,0:0:0:0:
256,192,160965,1,8,0:0:0:0:
256,192,161146,1,8,0:0:0:0:
256,192,161507,1,8,0:0:0:0:
256,192,161869,1,4,0:0:0:0:
256,192,162592,1,4,0:0:0:0:
256,192,163314,12,0,164037,0:0:0:0:
256,192,164760,5,0,0:0:0:0:
256,192,166929,1,8,0:0:0:0:
256,192,167290,1,8,0:0:0:0:
256,192,167652,1,0,0:0:0:0:
256,192,169459,1,8,0:0:0:0:
256,192,169820,1,8,0:0:0:0:
256,192,170182,1,8,0:0:0:0:
256,192,170543,1,0,0:0:0:0:
256,192,171265,1,0,0:0:0:0:
256,192,171988,1,0,0:0:0:0:
256,192,172712,1,8,0:0:0:0:
256,192,173073,1,8,0:0:0:0:
256,192,173435,1,0,0:0:0:0:
256,192,174158,1,0,0:0:0:0:
256,192,175964,1,8,0:0:0:0:
256,192,176326,1,0,0:0:0:0:
256,192,176688,1,8,0:0:0:0:
256,192,177049,1,0,0:0:0:0:
256,192,177229,1,8,0:0:0:0:
256,192,177591,1,0,0:0:0:0:
256,192,177953,1,0,0:0:0:0:
256,192,178133,1,8,0:0:0:0:
256,192,178495,1,0,0:0:0:0:
256,192,179217,1,0,0:0:0:0:
256,192,179579,1,8,0:0:0:0:
256,192,179940,1,8,0:0:0:0:
256,192,180121,1,0,0:0:0:0:
256,192,180483,1,8,0:0:0:0:
256,192,180844,1,8,0:0:0:0:
256,192,181025,1,0,0:0:0:0:
256,192,181386,1,8,0:0:0:0:
256,192,182109,1,0,0:0:0:0:
256,192,182470,1,8,0:0:0:0:
256,192,182832,1,0,0:0:0:0:
256,192,183012,1,8,0:0:0:0:
256,192,183374,1,8,0:0:0:0:
256,192,183735,1,0,0:0:0:0:
256,192,183917,1,8,0:0:0:0:
256,192,184277,1,8,0:0:0:0:
256,192,185000,1,0,0:0:0:0:
256,192,185362,1,0,0:0:0:0:
256,192,185724,1,0,0:0:0:0:
256,192,185905,1,0,0:0:0:0:
256,192,186266,1,4,0:0:0:0:
256,192,186808,1,8,0:0:0:0:
256,192,187169,1,8,0:0:0:0:
256,192,187531,1,8,0:0:0:0:
256,192,187893,1,0,0:0:0:0:
256,192,188253,1,0,0:0:0:0:
256,192,188435,1,0,0:0:0:0:
256,192,188615,1,0,0:0:0:0:
256,192,188977,1,8,0:0:0:0:
256,192,189158,1,8,0:0:0:0:
256,192,200905,5,0,0:0:0:0:
256,192,201266,1,8,0:0:0:0:
256,192,201989,1,8,0:0:0:0:
256,192,202350,1,0,0:0:0:0:
256,192,202712,1,8,0:0:0:0:
256,192,203435,1,8,0:0:0:0:
256,192,203796,1,0,0:0:0:0:
256,192,204158,1,8,0:0:0:0:
256,192,204880,1,8,0:0:0:0:
256,192,205242,1,0,0:0:0:0:
256,192,205603,1,8,0:0:0:0:
256,192,205965,1,0,0:0:0:0:
256,192,206326,1,8,0:0:0:0:
256,192,206688,1,0,0:0:0:0:
256,192,207049,1,8,0:0:0:0:
256,192,207772,1,8,0:0:0:0:
256,192,208133,1,0,0:0:0:0:
256,192,208495,1,8,0:0:0:0:
256,192,209218,1,8,0:0:0:0:
256,192,209579,1,0,0:0:0:0:
256,192,209941,1,8,0:0:0:0:
256,192,210664,1,8,0:0:0:0:
256,192,211025,1,0,0:0:0:0:
256,192,211386,1,8,0:0:0:0:
256,192,211748,1,8,0:0:0:0:
256,192,212471,1,0,0:0:0:0:
256,192,212832,1,0,0:0:0:0:
256,192,213013,1,8,0:0:0:0:
256,192,213194,1,0,0:0:0:0:
256,192,213555,1,0,0:0:0:0:
256,192,213736,1,8,0:0:0:0:
256,192,213917,1,0,0:0:0:0:
256,192,214278,1,8,0:0:0:0:
256,192,214640,1,8,0:0:0:0:
256,192,215362,1,0,0:0:0:0:
256,192,215724,1,0,0:0:0:0:
256,192,215905,1,8,0:0:0:0:
256,192,216085,1,0,0:0:0:0:
256,192,216447,1,0,0:0:0:0:
256,192,216627,1,8,0:0:0:0:
256,192,216808,1,0,0:0:0:0:
256,192,217170,1,0,0:0:0:0:
256,192,217531,1,0,0:0:0:0:
256,192,218254,1,0,0:0:0:0:
256,192,218615,1,0,0:0:0:0:
256,192,218796,1,8,0:0:0:0:
256,192,218977,1,0,0:0:0:0:
256,192,219338,1,0,0:0:0:0:
256,192,219519,1,8,0:0:0:0:
256,192,219700,1,0,0:0:0:0:
256,192,220061,1,8,0:0:0:0:
256,192,220423,1,8,0:0:0:0:
256,192,220965,2,0,P|192:352|64:160,1,503.999984619141
256,192,222772,1,8,0:0:0:0:
256,192,222953,1,8,0:0:0:0:
256,192,223133,1,8,0:0:0:0:
256,192,224760,1,8,0:0:0:0:
256,192,225121,1,12,0:0:0:0:
256,192,225483,1,8,0:0:0:0:
256,192,225844,1,8,0:0:0:0:
256,192,226206,1,8,0:0:0:0:
256,192,226386,1,8,0:0:0:0:
256,192,226567,1,8,0:0:0:0:
256,192,226929,12,0,227652,0:0:0:0:
256,192,228374,5,0,0:0:0:0:
256,192,228736,1,0,0:0:0:0:
256,192,228917,1,8,0:0:0:0:
256,192,229097,1,0,0:0:0:0:
256,192,229459,1,8,0:0:0:0:
256,192,229820,1,4,0:0:0:0:
256,192,230182,1,4,0:0:0:0:
256,192,230543,1,4,0:0:0:0:
256,192,231266,1,0,0:0:0:0:
256,192,231627,1,0,0:0:0:0:
256,192,231808,1,0,0:0:0:0:
256,192,231989,1,0,0:0:0:0:
256,192,232712,1,8,0:0:0:0:
256,192,233074,1,8,0:0:0:0:
256,192,233255,1,8,0:0:0:0:
256,192,233435,1,8,0:0:0:0:
256,192,234158,1,8,0:0:0:0:
256,192,234519,1,8,0:0:0:0:
256,192,234700,1,0,0:0:0:0:
256,192,234881,1,8,0:0:0:0:
256,192,235061,1,0,0:0:0:0:
256,192,235242,1,8,0:0:0:0:
256,192,235603,1,12,0:0:0:0:
256,192,235965,1,12,0:0:0:0:
256,192,236326,1,12,0:0:0:0:
256,192,237049,1,8,0:0:0:0:
256,192,237411,1,8,0:0:0:0:
256,192,237591,1,8,0:0:0:0:
256,192,237772,1,8,0:0:0:0:
256,192,238134,1,0,0:0:0:0:
256,192,238495,1,8,0:0:0:0:
256,192,238856,1,8,0:0:0:0:
256,192,239217,1,0,0:0:0:0:
256,192,239941,1,0,0:0:0:0:
256,192,240302,1,0,0:0:0:0:
256,192,240483,1,8,0:0:0:0:
256,192,240664,1,0,0:0:0:0:
256,192,241026,1,8,0:0:0:0:
256,192,241386,1,4,0:0:0:0:
256,192,241748,1,4,0:0:0:0:
256,192,242109,1,4,0:0:0:0:
256,192,242471,1,4,0:0:0:0:
256,192,242832,1,0,0:0:0:0:
256,192,243194,1,0,0:0:0:0:
256,192,243374,1,0,0:0:0:0:
256,192,243555,1,0,0:0:0:0:
256,192,244278,1,8,0:0:0:0:
256,192,244639,1,8,0:0:0:0:
256,192,244820,1,8,0:0:0:0:
256,192,245001,1,8,0:0:0:0:
256,192,245362,1,8,0:0:0:0:
256,192,245724,1,4,0:0:0:0:
256,192,246447,1,4,0:0:0:0:
256,192,247169,12,0,247892,0:0:0:0:
256,192,248615,5,8,0:0:0:0:
256,192,248977,1,8,0:0:0:0:
256,192,249158,1,8,0:0:0:0:
256,192,249338,1,8,0:0:0:0:
256,192,249700,1,0,0:0:0:0:
256,192,250061,1,8,0:0:0:0:
256,192,250423,1,8,0:0:0:0:
256,192,250784,1,8,0:0:0:0:
256,192,251146,1,0,0:0:0:0:
256,192,251507,12,12,252591,0:0:0:0:
256,192,252953,5,4,0:0:0:0:
256,192,253314,1,4,0:0:0:0:
256,192,253676,1,4,0:0:0:0:
256,192,254399,1,8,0:0:0:0:
256,192,254760,1,8,0:0:0:0:
256,192,254941,1,8,0:0:0:0:
256,192,255121,1,8,0:0:0:0:
256,192,255483,1,0,0:0:0:0:
256,192,255844,1,8,0:0:0:0:
256,192,256206,1,8,0:0:0:0:
256,192,256567,1,8,0:0:0:0:
256,192,256929,1,0,0:0:0:0:
256,192,257290,12,12,258374,0:0:0:0:
256,192,258736,5,0,0:0:0:0:
256,192,259097,1,0,0:0:0:0:
256,192,259459,1,12,0:0:0:0:
256,192,260182,1,8,0:0:0:0:
256,192,260724,1,0,0:0:0:0:
256,192,261266,1,8,0:0:0:0:
256,192,261808,1,0,0:0:0:0:
256,192,263073,1,8,0:0:0:0:
256,192,263615,1,0,0:0:0:0:
256,192,264158,1,8,0:0:0:0:
256,192,264338,1,8,0:0:0:0:
