osu file format v7

[General]
AudioFilename: Sticks and Stones.mp3
AudioLeadIn: 0
PreviewTime: 70468
Countdown: 2
SampleSet: Soft
StackLeniency: 0.7
Mode: 0
LetterboxInBreaks: 1
SkinPreference:Default

[Editor]
DistanceSpacing: 1.20000004768372
BeatDivisor: 2
GridSize: 8

[Metadata]
Title:Sticks and Stones
Artist:Shin Hae Chul
Creator:Bikko
Version:Normal
Source:Guilty Gear XX #Reload: The Midnight Carnival
Tags:jam kuradoberi arc system works playstation sony samiljul

[Difficulty]
HPDrainRate:3
CircleSize:3
OverallDifficulty:5
SliderMultiplier:1.3
SliderTickRate:1

[Events]
//Background and Video events
0,0,"Jam.jpg"
//Break Periods
2,51268,62868
2,137668,149268
//Storyboard Layer 0 (Background)
//Storyboard Layer 1 (Fail)
//Storyboard Layer 2 (Pass)
//Storyboard Layer 3 (Foreground)
//Storyboard Sound Samples
//Background Colour Transformations
3,100,163,162,255

[TimingPoints]
68,400,4,2,0,60,1,0
64068,-100,4,2,0,60,0,1
98468,-100,4,2,0,60,0,0
150468,-100,4,2,0,60,0,1
184868,-100,4,2,0,60,0,0

[Colours]
Combo1 : 255,150,0
Combo2 : 5,240,5
Combo3 : 5,5,240
Combo4 : 240,5,5
SliderBorder : 28,28,28

[HitObjects]
96,48,6468,1,2
256,48,6868,1,0
416,48,7268,1,2
416,360,8068,2,0,B|328:248|168:248|72:368,1,390,8|8
104,208,9668,5,2
256,168,10068,1,0
408,208,10468,1,2
140,47,11268,1,8
372,47,11868,1,8
256,152,12268,1,8
140,47,12668,1,8
96,112,12868,6,0,B|54:170|97:254,1,130,2|0
180,362,13668,1,2
332,362,14068,1,0
424,232,14468,1,8
424,232,15068,2,0,B|472:160|408:88,2,130,8|8|8
344,232,16068,5,2
256,360,16468,1,0
168,232,16868,1,2
212,295,17068,1,0
256,360,17268,1,2
256,208,17668,5,8
120,16,18268,1,8
256,88,18668,1,8
392,16,19068,1,8
416,88,19268,5,2
104,88,20068,1,2
400,192,20868,1,8
256,248,21268,1,0
256,328,21468,1,8
256,168,21868,1,8
256,8,22268,1,8
256,88,22468,6,0,B|320:88|400:88,1,130,2|0
386,244,23268,2,0,B|322:244|234:244,1,130,2|0
120,168,24068,1,8
272,168,24468,1,0
352,168,24668,2,8,B|488:168,2,130
272,168,25668,5,2
120,168,26068,1,0
256,244,26468,2,0,B|400:244,1,130,2|0
386,88,27268,2,0,B|250:88,1,130,8|0
176,88,27868,1,8
128,232,28268,1,8
256,328,28668,1,8
336,328,28868,5,2
176,328,29268,1,0
256,200,29668,1,2
256,40,30068,1,0
104,40,30468,2,0,B|99:132|287:119,1,195,8|8
408,120,31468,1,8
408,272,31868,1,8
256,192,32068,12,4,38468
64,184,39268,5,4
180,80,39668,1,2
332,80,40068,1,4
448,184,40468,1,2
256,320,41068,1,8
256,240,41268,1,8
256,160,41468,1,8
256,80,41668,5,4
112,136,42068,1,2
112,296,42468,1,4
256,360,42868,1,2
400,296,43268,1,4
400,136,43668,1,2
224,296,44268,2,8,B|320:296,2,65
256,224,44868,5,4
403,167,45268,2,0,B|403:95|331:63,1,130,2|4
179,65,46068,2,0,B|106:95|112:185,1,130,2|4
256,224,46868,1,0
176,8,47468,1,8
256,8,47668,1,8
336,8,47868,1,8
384,72,48068,6,0,B|304:96|208:97|125:71,2,260,4|4|4
384,232,50068,1,2
176,336,50668,1,8
256,336,50868,1,8
336,336,51068,1,8
96,32,64068,5,2
256,32,64468,1,0
416,32,64868,1,2
416,184,65268,1,0
416,344,65668,5,2
336,344,65868,1,0
256,344,66068,1,0
256,264,66268,1,0
256,184,66468,1,2
96,184,66868,1,0
96,344,67268,5,2
416,344,68068,1,2
256,80,68868,1,2
96,344,69668,1,4
256,344,70068,1,4
416,344,70468,1,2
256,88,71268,5,2
256,240,71668,1,0
127,151,72068,2,0,B|256:180|394:149,1,260,2|4
256,240,73268,1,4
100,242,73668,5,2
412,242,74468,1,2
176,40,75268,1,2
336,40,75668,1,0
256,264,76268,1,4
256,104,76668,1,4
256,184,76868,5,2
416,184,77268,1,8
416,24,77668,1,0
256,24,78068,1,8
104,24,78468,1,0
104,176,78868,1,8
176,312,79268,1,0
336,312,79668,1,8
408,176,80068,5,0
256,176,80468,1,8
104,176,80868,1,0
256,176,81268,1,8
160,48,81668,2,0,B|360:48,2,195,4|4|4
256,176,83268,5,0
104,192,83668,1,8
176,328,84068,1,0
336,328,84468,1,8
408,192,84868,1,0
256,176,85268,1,8
321,34,85668,2,0,B|185:34,1,130,0|8
212,188,86468,6,0,B|212:340,3,130,0|8|0|8
300,188,88068,2,0,B|300:343,3,130,0|8|0|4
408,206,89668,5,0
332,69,90068,1,8
180,69,90468,1,0
104,206,90868,1,8
256,192,91268,5,0
176,328,91668,1,8
256,328,91868,1,8
336,328,92068,1,0
256,192,92468,1,8
104,152,92868,5,4
416,152,93668,1,4
104,152,94468,1,4
416,152,95268,1,4
180,356,96068,5,4
332,356,96468,1,8
180,356,96868,1,4
332,356,97268,1,8
256,192,97668,12,4,99268
176,96,100068,5,2
336,96,100468,1,0
424,224,100868,2,0,B|336:336|176:336|80:216,1,390,8|8
104,64,102468,5,2
256,24,102868,1,0
408,64,103268,1,2
256,336,104068,1,8
256,104,104668,1,8
180,240,105068,1,8
332,240,105468,1,8
256,216,105668,6,0,B|256:360,1,130,2|0
96,344,106468,1,2
96,184,106868,1,0
192,64,107268,1,8
424,64,107868,2,0,B|288:64,2,130,8|8|8
424,144,108868,5,2
272,144,109268,1,0
272,304,109668,1,2
352,304,109868,1,0
272,304,110068,1,2
120,304,110468,5,8
352,304,111068,1,8
264,176,111468,1,8
176,48,111868,1,8
256,32,112068,5,2
100,302,112868,1,2
412,302,113668,1,8
256,280,114068,1,0
256,200,114268,1,8
256,360,114668,1,8
256,200,115068,1,8
336,200,115268,6,0,B|400:200|480:200,1,130,2|0
336,112,116068,2,0,B|280:112|192:112,1,130,2|0
80,208,116868,1,8
232,208,117268,1,0
232,288,117468,2,8,B|368:288,2,130
232,368,118468,5,2
96,288,118868,1,0
72,136,119268,2,0,B|176:136|176:24,1,130,2|2
328,72,120068,2,0,B|322:139|426:139,1,130,8|2
412,216,120668,1,8
256,216,121068,1,8
100,216,121468,1,8
112,296,121668,5,2
256,352,122068,1,0
400,296,122468,1,2
256,240,122868,1,0
160,120,123268,2,0,B|368:120,1,195,8|8
336,275,124268,1,8
176,275,124668,1,8
100,257,124868,5,0
412,257,125668,1,4
256,224,126068,1,2
256,72,126468,1,4
256,224,126868,1,2
40,136,127468,1,8
40,216,127668,1,8
40,296,127868,1,8
96,352,128068,5,4
256,352,128468,1,2
416,352,128868,1,4
336,216,129268,1,2
176,216,129668,1,4
256,80,130068,1,2
256,312,130668,2,8,B|256:240,2,65
256,312,131268,5,4
408,272,131668,2,0,B|336:240|336:168,1,130,2|4
176,176,132468,2,0,B|176:256|104:280,1,130,2|4
32,144,133268,1,0
256,80,133868,1,8
216,152,134068,1,8
296,152,134268,1,8
368,192,134468,6,0,B|256:312|129:179,2,260,4|4|4
256,80,136468,1,2
176,296,137068,1,8
256,296,137268,1,8
336,296,137468,1,8
96,352,150468,5,2
256,352,150868,1,0
416,352,151268,1,8
416,272,151468,1,8
416,192,151668,1,8
416,40,152068,5,2
256,40,152468,1,0
256,192,152868,1,8
96,192,153268,1,8
96,40,153668,5,2
256,40,154068,1,0
416,40,154468,1,8
336,40,154668,1,8
256,40,154868,1,8
256,192,155268,5,2
96,192,155668,1,4
96,352,156068,1,0
256,352,156468,1,4
416,352,156868,5,2
416,192,157268,1,0
332,60,157668,1,2
180,60,158068,1,0
128,207,158468,2,0,B|256:250|394:204,1,260,2|0
256,304,159668,1,0
96,304,160068,5,4
256,304,160468,1,0
416,304,160868,1,2
176,104,161668,1,2
256,104,161868,1,0
336,104,162068,1,0
176,272,162668,1,4
336,272,163068,1,4
256,272,163268,5,2
120,192,163668,1,8
256,120,164068,1,2
392,192,164468,1,8
256,272,164868,5,2
256,120,165268,1,8
176,256,165668,1,10
256,272,165868,1,0
336,256,166068,1,8
392,112,166468,5,2
256,32,166868,1,8
120,112,167268,1,2
256,184,167668,1,8
160,304,168068,2,0,B|360:304,2,195,4|4|4
176,152,169668,5,8
336,152,170068,1,8
200,80,170468,1,8
360,80,170868,1,8
224,8,171268,1,8
384,8,171668,1,8
480,136,172068,2,0,B|480:272,1,130,8|8
352,352,172868,6,0,B|152:352,2,195,4|4|4
256,224,174468,2,0,B|256:88,3,130,4|4|4|4
136,192,176068,5,0
256,296,176468,1,8
376,192,176868,1,0
256,88,177268,1,8
136,192,177668,5,0
176,344,178068,1,8
256,344,178268,1,8
336,344,178468,1,0
376,192,178868,1,8
412,40,179268,5,4
100,40,180068,1,4
100,344,180868,1,4
412,344,181668,1,4
139,192,182468,5,4
256,89,182868,1,4
373,192,183268,1,4
256,295,183668,1,4
256,192,183868,12,4,184868
