osu file format v7

[General]
AudioFilename: Sticks and Stones.mp3
AudioLeadIn: 0
PreviewTime: 70468
Countdown: 2
SampleSet: Soft
StackLeniency: 0.7
Mode: 0
LetterboxInBreaks: 1
SkinPreference:Default

[Editor]
DistanceSpacing: 1
BeatDivisor: 2
GridSize: 8

[Metadata]
Title:Sticks and Stones
Artist:Shin Hae Chul
Creator:Bikko
Version:Easy
Source:Guilty Gear XX #Reload: The Midnight Carnival
Tags:jam kuradoberi arc system works playstation sony samiljul

[Difficulty]
HPDrainRate:3
CircleSize:3
OverallDifficulty:4
SliderMultiplier:0.999999999999999
SliderTickRate:1

[Events]
//Background and Video events
0,0,"Jam.jpg"
//Break Periods
2,51268,62748
2,137668,149148
//Storyboard Layer 0 (Background)
//Storyboard Layer 1 (Fail)
//Storyboard Layer 2 (Pass)
//Storyboard Layer 3 (Foreground)
//Storyboard Sound Samples
//Background Colour Transformations
3,100,163,162,255

[TimingPoints]
68,400,4,2,0,60,1,0
64068,-100,4,2,0,60,0,1
98468,-100,4,2,0,60,0,0
150468,-100,4,2,0,60,0,1
184868,-100,4,2,0,60,0,0

[Colours]
Combo1 : 255,150,0
Combo2 : 5,240,5
Combo3 : 5,5,240
Combo4 : 240,5,5
SliderBorder : 28,28,28

[HitObjects]
152,328,6468,1,2
352,328,7268,1,2
432,144,8068,2,0,B|352:64|260:29|157:60|70:154,1,400,8|2
256,240,10468,5,2
256,40,11268,1,8
160,152,11868,1,8
256,152,12268,1,8
352,152,12668,1,8
352,152,12868,6,0,B|352:80|289:65,1,99.9999999999999,2|0
208,72,13668,2,0,B|160:96|152:160,1,99.9999999999999,2|0
180,247,14468,1,8
332,247,15068,2,8,B|436:247,2,99.9999999999999
332,247,16068,5,2
332,146,16468,1,0
231,146,16868,2,0,B|121:146,1,99.9999999999999,2|0
168,48,17668,5,8
320,48,18268,1,8
416,80,18668,1,8
456,168,19068,1,8
456,168,19268,5,2
256,168,20068,1,2
56,168,20868,1,8
120,304,21468,1,8
216,304,21868,1,8
312,304,22268,1,8
312,304,22468,6,0,B|376:304|376:232,1,99.9999999999999,2|0
376,144,23268,2,0,B|376:80|304:80,1,99.9999999999999,2|0
216,80,24068,1,8
120,192,24668,2,8,B|16:192,2,99.9999999999999
120,192,25668,5,2
320,192,26468,2,0,B|320:80|464:80,1,200,2|8
472,232,27868,1,8
472,336,28268,2,0,B|368:336,1,99.9999999999999,8|8
372,336,28868,5,2
168,336,29668,1,2
40,184,30468,2,0,B|40:96|152:104,1,150,8|8
240,104,31468,1,8
240,104,31868,1,8
256,192,32068,12,4,38468
156,250,39268,5,4
356,250,40068,1,4
256,24,41068,2,8,B|256:80,2,50
256,24,41668,5,4
256,224,42468,1,4
256,24,43268,1,4
256,274,44268,2,8,B|256:330,2,50
256,274,44868,5,4
438,192,45668,1,4
256,107,46468,1,4
256,357,47468,1,8
332,292,47868,1,8
332,292,48068,6,0,B|332:60,2,200,4|4|4
86,244,50668,1,8
86,140,51068,1,8
424,152,64068,5,2
256,40,64868,1,2
88,152,65668,1,2
156,339,66468,2,0,B|372:339,1,200,4|2
356,138,68068,5,2
156,138,68868,1,2
204,332,69668,1,4
308,332,70068,1,4
256,246,70468,5,2
256,45,71268,1,2
256,246,72068,1,2
504,216,73068,2,0,B|392:216,1,99.9999999999999,4|4
404,216,73668,5,2
256,344,74468,1,2
56,344,75268,1,2
96,96,76268,1,4
200,96,76668,1,4
200,96,76868,5,4
400,104,77668,1,8
448,192,78068,1,8
400,280,78468,1,8
200,296,79268,1,4
200,96,80068,5,8
200,296,80868,1,8
400,328,81668,2,0,B|460:263|472:192|460:121|400:56,1,300,8|4
304,40,83268,5,8
208,40,83668,1,8
136,104,84068,1,8
136,200,84468,1,8
208,264,84868,1,8
304,264,85268,1,8
376,200,85668,2,0,B|376:96,1,99.9999999999999,4|4
304,32,86468,6,0,B|184:16|104:72|88:192,1,300,8|4
152,264,88068,2,0,B|272:280|352:224|368:104,1,300,8|4
464,96,89668,5,0
424,184,90068,1,8
424,280,90468,1,0
352,352,90868,1,8
256,352,91268,1,0
160,352,91668,1,8
88,280,92068,1,0
88,184,92468,1,8
88,88,92868,5,4
288,88,93668,1,4
224,280,94468,1,4
424,280,95268,1,4
256,168,96068,2,4,B|256:56,3,99.9999999999999
256,192,97668,12,4,99268
184,128,100068,5,2
352,16,100868,2,0,B|435:93|466:196|431:288|351:368,1,400,8|2
166,292,103268,5,2
166,92,104068,1,8
312,96,104668,1,8
312,192,105068,1,8
312,287,105468,1,8
312,287,105668,6,0,B|240:286|225:224,1,99.9999999999999,2|0
232,144,106468,2,0,B|208:96|144:94,1,99.9999999999999,2|0
140,193,107268,1,8
288,192,107868,2,8,B|392:192,2,99.9999999999999
288,192,108868,5,2
192,192,109268,1,0
96,192,109668,2,0,B|84:261|156:265,1,99.9999999999999,2|2
240,264,110468,5,8
392,264,111068,1,8
392,168,111468,1,8
392,64,111868,1,8
392,64,112068,5,2
256,208,112868,1,2
120,64,113668,1,8
160,208,114268,1,8
256,208,114668,1,8
352,208,115068,1,8
352,208,115268,6,0,B|416:208|416:136,3,99.9999999999999,2|2|2|2
416,48,116868,1,8
264,48,117468,2,8,B|160:48,2,99.9999999999999
264,48,118468,5,2
264,248,119268,2,0,B|264:360|120:360,1,200,2|8
128,208,120668,1,8
128,112,121068,2,0,B|16:112,1,99.9999999999999,8|8
28,112,121668,5,2
216,32,122468,1,2
400,120,123268,2,0,B|496:120|496:216,1,150,8|8
496,312,124268,1,8
400,312,124668,1,8
400,312,124868,5,4
200,312,125668,1,4
40,192,126468,1,4
288,192,127468,2,8,B|344:192,2,50
288,192,128068,5,4
88,192,128868,1,4
256,80,129668,1,4
256,328,130668,2,8,B|312:328,2,50
256,328,131268,5,4
400,192,132068,1,4
256,48,132868,1,4
192,288,133868,1,8
256,368,134268,1,8
256,368,134468,6,0,B|464:368,2,200,4|4|4
432,192,137068,1,8
432,96,137468,1,8
88,152,150468,5,2
256,40,151268,1,2
424,152,152068,1,2
356,339,152868,1,4
156,339,153668,5,2
156,138,154468,1,2
356,138,155268,1,2
306,331,156068,2,4,B|202:331,2,99.9999999999999
448,192,157668,5,2
256,128,158468,1,2
64,192,159268,2,0,B|8:192,4,50,0|4|0|4|2
156,369,160868,5,2
356,369,161668,1,2
256,144,162668,1,4
256,240,163068,1,4
256,240,163268,5,2
168,64,164068,1,8
256,16,164468,1,8
344,64,164868,1,8
256,240,165668,1,4
156,66,166468,5,8
356,66,167268,1,8
328,264,168068,2,0,B|280:280|232:280|176:264,2,150,8|4|4
304,360,169668,5,8
376,288,170068,1,8
376,192,170468,1,8
304,120,170868,1,8
208,120,171268,1,8
144,192,171668,2,8,B|144:296,2,99.9999999999999
184,96,172868,6,0,B|232:80|280:80|336:96,2,150,8|4|4
184,200,174468,2,0,B|232:216|280:216|336:200,2,150,8|4|4
80,200,176068,5,0
112,296,176468,1,8
192,352,176868,1,0
256,272,177268,1,8
312,352,177668,5,0
400,296,178068,1,8
400,296,178268,1,8
400,296,178468,1,0
432,200,178868,1,8
356,134,179268,5,4
156,134,180068,1,4
156,134,180868,1,4
356,134,181668,1,4
256,192,182468,12,4,184868
