osu file format v5

[General]
AudioFilename: Shin Hae Chul & N.EX.T - Dementia.mp3
AudioLeadIn: 0
PreviewTime: -1
Countdown: 1
SampleSet: Normal
StackLeniency: 0
Mode: 0
LetterboxInBreaks: 1

[Editor]
Bookmarks: 77172,78972,79572,81372,81972,83772,84372,86172
DistanceSpacing: 1
BeatDivisor: 4
GridSize: 8

[Metadata]
Title:Dementia
Artist:Shin Hae Chul & N.EX.T
Creator:EiJi
Version:Snack
Source:
Tags:

[Difficulty]
HPDrainRate:4
CircleSize:5
OverallDifficulty:4
SliderMultiplier:0.799999999999999
SliderTickRate:2

[Events]
//Background and Video events
0,0,"gg.jpg"
//Break Periods
2,2672,3552
2,5072,5952
2,9872,10452
2,12272,12852
2,14672,15252
2,77072,85272
//Storyboard Layer 0 (Background)
//Storyboard Layer 1 (Fail)
//Storyboard Layer 2 (Pass)
//Storyboard Layer 3 (Foreground)
//Storyboard Sound Samples
//Background Colour Transformations
3,100,163,162,255

[TimingPoints]
8172,300,4,1,0,25,1,0

[HitObjects]
256,192,2472,1,4
408,56,4872,5,4
88,296,7272,5,4
256,88,8172,6,0,B|256:216,2,120
112,88,9672,1,4
400,160,11772,5,0
400,160,12072,1,4
72,96,14172,5,0
72,96,14472,1,4
272,328,16572,5,0
272,328,16872,1,4
272,112,17772,6,0,B|136:112,2,120
416,112,19272,6,4,B|416:368,1,240
200,344,21072,1,0
200,200,21672,6,4,B|56:200|56:112|104:72|176:56|136:72,1,240
360,64,23472,5,0
360,136,23772,1,0
360,208,24072,2,4,B|368:312|336:336|288:352|200:344,1,240
216,128,25872,5,0
360,128,26472,2,4,B|280:128|264:160|264:208|240:216|208:216|136:208,1,240
152,104,27822,5,4
256,104,28272,1,4
400,104,28872,6,4,B|400:224|400:224|264:224,1,240
64,216,30672,5,0
208,224,31272,2,4,B|288:224|288:224|288:144|288:144|376:144,1,240
152,144,33072,5,0
224,144,33372,1,0
296,144,33672,2,4,B|376:144|376:144|376:168|376:168|360:192|360:192|240:192,1,240
32,184,35472,5,0
176,192,36072,2,4,B|96:192|72:160|72:112|120:64|200:64,1,240
288,64,37422,1,0
392,64,37872,2,0,B|392:168|368:176|352:176|312:176,1,160
176,176,39072,5,0
464,184,40272,1,0
320,184,40872,1,0
320,184,41172,1,0
24,40,42672,2,4,B|24:-8,1,40
120,40,43272,5,0
264,40,43872,1,0
264,328,45072,1,0
264,184,45672,1,0
264,184,45972,1,0
16,184,47472,2,4,B|72:184,1,40
160,184,48072,5,4
160,184,48372,1,0
160,184,48672,1,4
448,184,49872,1,0
448,328,50472,1,4
448,328,50772,1,0
448,328,51072,1,4
160,328,52272,2,4,B|160:272,1,40
168,176,52872,5,4
168,176,53172,1,0
168,176,53472,1,4
240,176,53772,6,0,B|240:120,1,40
296,176,54222,6,0,B|296:224,1,40
360,176,54672,5,4
360,32,55272,6,0,B|264:32,2,79.9999999999999,4|0|4
432,32,56172,6,0,B|488:32,1,40
472,104,56622,6,0,B|424:104,1,40
432,176,57072,6,4,B|488:176,1,40
472,280,57672,5,0
328,280,58272,1,0
216,280,58722,2,0,B|96:280|64:256|64:200|64:184,1,200,0|4
72,48,60072,5,0
216,48,60672,1,0
320,48,61122,2,0,B|448:48|464:88|464:160,1,200,0|4
464,288,62472,5,0
320,288,63072,1,0
208,288,63522,2,0,B|144:288|144:248|168:216|192:208|256:168,1,200,0|4
400,168,64872,5,0
256,168,65472,1,0
112,168,66072,2,4,B|168:168,1,40
152,56,66672,2,4,B|96:56,1,40
0,56,67272,5,0
0,200,67872,1,0
0,304,68322,2,0,B|96:304,1,79.9999999999999,0|4
184,304,69072,1,4
328,304,69672,5,0
328,160,70272,1,0
328,48,70722,2,0,B|328:-8|328:-8|288:-8,1,79.9999999999999,0|4
216,56,71472,1,4
216,200,72072,5,0
96,120,72672,1,0
200,120,73122,2,0,B|296:120,1,79.9999999999999,0|4
384,120,73872,1,4
384,264,74472,6,0,B|208:264,1,160
224,120,75672,2,4,B|224:288,2,160
256,80,86472,6,0,B|256:168,2,79.9999999999999,4|0|4
400,80,87672,2,0,B|312:80,2,79.9999999999999,4|0|4
400,224,88872,2,0,B|400:128,2,79.9999999999999,4|0|4
288,224,89922,2,0,B|192:224,1,79.9999999999999,0|4
96,224,90672,1,4
96,80,91272,6,0,B|96:176,1,79.9999999999999,4|0
96,224,91872,1,4
240,224,92472,6,4,B|152:224,1,79.9999999999999
96,224,93072,1,4
200,128,93672,6,0,B|272:64,3,79.9999999999999,4|0|4|0
256,152,94872,6,4,B|256:200,8,40
256,8,96672,5,0
256,152,97272,1,0
256,296,97872,5,4
256,296,98172,1,4
256,296,98472,1,4
136,216,99072,5,0
216,96,99672,1,0
208,240,100272,1,4
312,336,100872,5,4
312,192,101472,1,0
456,192,102072,1,0
456,336,102672,5,4
384,336,102972,1,4
312,336,103272,1,4
240,336,103572,2,0,B|152:336,1,79.9999999999999
88,336,104172,1,0
16,336,104472,2,4,B|16:288,7,40
