osu file format v5

[General]
AudioFilename: Shin Hae Chul & N.EX.T - Dementia.mp3
AudioLeadIn: 0
PreviewTime: -1
Countdown: 1
SampleSet: Normal
StackLeniency: 0.2
Mode: 0
LetterboxInBreaks: 1

[Editor]
Bookmarks: 77172,78972,79572,81372,81972,83772,84372,86172
DistanceSpacing: 1
BeatDivisor: 4
GridSize: 8

[Metadata]
Title:Dementia
Artist:Shin Hae Chul & N.EX.T
Creator:EiJi
Version:Entree
Source:Guilty Gear XX #Reload Korean Version O.S.T
Tags:

[Difficulty]
HPDrainRate:6
CircleSize:6
OverallDifficulty:8
SliderMultiplier:2.6
SliderTickRate:2

[Events]
//Background and Video events
0,0,"gg.jpg"
//Break Periods
2,2672,3822
2,5072,6222
2,9872,11022
2,12272,13422
2,14672,15822
2,77072,78222
2,79622,80922
2,82172,83097
2,84422,85722
//Storyboard Layer 0 (Background)
//Storyboard Layer 1 (Fail)
//Storyboard Layer 2 (Pass)
//Storyboard Layer 3 (Foreground)
//Storyboard Sound Samples
//Background Colour Transformations
3,100,163,162,255

[TimingPoints]
8172,300,4,1,0,24,1,0

[Colours]
Combo1 : 77,77,77
Combo2 : 210,210,210
Combo3 : 6,100,34
Combo4 : 175,3,3

[HitObjects]
88,80,2172,1,4
88,80,2247,1,0
88,80,2322,1,0
88,80,2397,1,0
88,80,2472,1,4
416,288,4572,5,4
416,288,4647,1,0
416,288,4722,1,0
416,288,4797,1,0
416,288,4872,1,4
360,96,6972,5,4
360,96,7047,1,0
360,96,7122,1,0
360,96,7197,1,0
360,96,7272,1,4
128,56,8172,5,0
128,56,8322,1,0
128,184,8622,1,0
128,184,8772,1,0
128,312,9072,1,0
256,192,9222,12,4,9672
184,64,11772,5,4
184,64,11847,1,0
184,64,11922,1,0
184,64,11997,1,0
184,64,12072,1,4
392,88,14172,5,4
392,88,14247,1,0
392,88,14322,1,0
392,88,14397,1,0
392,88,14472,1,4
144,296,16572,5,4
144,296,16647,1,0
144,296,16722,1,0
144,296,16797,1,0
144,296,16872,1,4
424,24,17772,5,0
424,24,17922,1,0
424,152,18222,1,0
424,152,18372,1,0
424,280,18672,1,0
256,192,18822,12,4,19272
120,40,19572,5,0
200,136,19872,1,0
320,288,20322,1,0
320,160,20622,1,0
320,96,20772,1,0
448,96,21072,1,0
448,224,21372,5,4
448,224,21447,1,0
448,224,21522,1,0
448,224,21597,1,0
448,224,21672,1,4
320,224,21972,1,0
192,224,22272,1,0
192,32,22722,1,0
192,160,23022,1,0
192,224,23172,1,0
192,288,23322,1,0
192,352,23472,1,0
320,352,23772,5,4
320,352,23847,1,0
320,352,23922,1,0
320,352,23997,1,0
320,352,24072,1,4
320,224,24372,1,0
320,352,24672,1,0
320,160,25122,1,0
320,288,25422,1,0
256,288,25572,1,0
384,288,25872,1,0
320,160,26172,5,4
320,160,26247,1,0
320,160,26322,1,0
320,160,26397,1,0
320,160,26472,1,4
192,160,26772,1,0
64,160,27072,1,0
136,264,27372,1,0
136,200,27522,1,0
136,72,27822,1,0
136,136,27972,1,0
264,136,28272,1,0
264,200,28422,1,4
448,136,28872,5,4
320,136,29172,1,0
384,248,29472,1,0
384,120,29772,1,0
384,184,29922,1,0
384,248,30072,1,0
384,312,30222,1,0
320,312,30372,1,0
256,312,30522,1,0
256,248,30672,1,0
128,248,30972,5,4
128,248,31047,1,0
128,248,31122,1,0
128,248,31197,1,0
128,248,31272,1,4
256,248,31572,1,0
128,248,31872,1,0
192,136,32172,1,0
224,192,32322,1,0
224,256,32472,1,0
176,296,32622,1,0
88,200,32922,1,0
152,200,33072,1,0
280,200,33372,5,4
280,200,33447,1,0
280,200,33522,1,0
280,200,33597,1,0
280,200,33672,1,4
408,208,33972,1,0
408,80,34272,1,0
280,80,34572,1,0
216,80,34722,1,0
216,144,34872,1,0
280,144,35022,1,0
344,144,35172,1,0
344,80,35322,1,0
408,80,35472,1,0
408,208,35772,5,4
408,208,35847,1,0
408,208,35922,1,0
408,208,35997,1,0
408,208,36072,1,4
16,200,36972,5,0
80,200,37122,1,0
208,200,37422,1,0
272,200,37572,1,0
408,200,37872,1,0
472,200,38022,1,4
464,360,38472,5,4
336,360,38772,1,0
208,360,39072,1,0
80,360,39372,1,0
144,360,39522,1,0
16,360,39822,1,0
80,360,39972,1,0
208,360,40272,1,4
336,360,40572,5,4
336,360,40647,1,0
336,360,40722,1,0
336,360,40797,1,0
336,360,40872,1,4
208,360,41172,1,4
80,360,41472,1,0
208,360,41772,1,0
208,296,41922,1,0
336,296,42222,1,0
336,360,42372,1,0
336,224,42672,1,0
336,96,42822,5,4
144,96,43272,5,4
272,96,43572,1,0
272,224,43872,1,0
400,224,44172,1,0
336,224,44322,1,0
408,336,44622,1,0
344,336,44772,1,0
216,336,45072,1,4
216,208,45372,5,4
216,208,45447,1,0
216,208,45522,1,0
216,208,45597,1,0
216,208,45672,1,4
216,80,45972,1,4
344,80,46272,1,0
216,144,46572,1,0
216,208,46722,1,0
280,80,47022,1,0
280,144,47172,1,0
152,144,47472,1,0
280,144,47622,5,4
472,144,48072,5,4
472,272,48372,1,0
344,272,48672,1,0
216,272,48972,1,0
184,272,49047,1,0
216,272,49122,1,0
224,144,49422,1,0
192,144,49497,1,0
224,144,49572,1,0
352,144,49872,1,4
288,32,50172,5,4
288,64,50247,1,0
288,96,50322,1,0
288,128,50397,1,0
288,160,50472,1,0
288,288,50772,1,0
288,160,51072,1,4
288,288,51372,1,0
288,256,51447,1,0
288,224,51522,1,0
160,224,51822,1,0
192,224,51897,1,0
224,224,51972,1,0
352,224,52272,1,0
320,224,52347,1,4
256,224,52422,5,4
256,32,52872,5,0
288,32,52947,1,0
320,32,53022,1,0
352,32,53097,1,0
384,32,53172,1,0
384,160,53472,1,4
384,128,53547,1,0
384,96,53622,1,0
384,32,53772,1,0
448,32,53922,1,0
448,96,54072,1,4
416,96,54147,1,0
384,96,54222,1,0
384,160,54372,1,0
352,160,54447,1,0
320,160,54522,1,0
320,96,54672,1,4
320,32,54822,1,0
256,32,54972,5,0
256,64,55047,1,0
256,96,55122,1,0
256,128,55197,1,0
256,160,55272,1,4
256,224,55422,1,0
256,160,55572,1,0
128,160,55872,1,4
160,160,55947,1,0
192,160,56022,1,0
256,160,56172,1,4
256,224,56322,1,0
256,256,56397,1,0
256,288,56472,1,4
320,288,56622,1,0
448,288,56922,1,0
384,288,57072,1,0
256,288,57222,5,4
64,288,57672,5,4
128,288,57822,1,0
192,288,57972,1,0
128,264,58122,1,0
128,200,58272,1,4
128,136,58422,1,0
184,168,58572,1,0
184,104,58722,1,4
184,136,58797,1,0
184,168,58872,1,0
184,232,59022,2,4,B|424:232|424:232|432:216|432:216|440:184|440:184|440:72,1,390
440,84,59547,1,0
440,84,59622,1,0
376,80,59772,5,0
376,144,59922,1,0
312,144,60072,1,4
248,144,60222,1,0
248,208,60372,1,0
248,272,60522,1,0
312,272,60672,1,4
312,208,60822,1,0
376,208,60972,1,0
440,208,61122,1,4
440,240,61197,1,0
440,272,61272,1,0
440,336,61422,2,4,B|216:336|216:336|192:312|192:312|192:160,1,390
192,179,61947,1,0
192,179,62022,1,0
192,112,62172,5,0
256,112,62322,1,0
256,176,62472,1,4
256,240,62622,1,0
256,304,62772,1,0
192,304,62922,1,0
192,240,63072,1,4
192,176,63222,1,0
192,112,63372,1,0
192,48,63522,1,4
224,48,63597,1,0
256,48,63672,1,0
320,48,63822,2,4,B|320:328|320:328|296:360|296:360|208:360,1,390
225,360,64347,1,0
225,360,64422,1,0
224,296,64572,5,0
160,296,64722,1,0
160,360,64872,2,4,B|98:359|98:359|100:240|100:240|275:243|275:243|273:361|273:361|200:360,2,520
192,304,66222,2,4,B|192:192|192:192|328:192|328:192|328:344,1,390
264,336,66822,2,4,B|136:336|136:336|136:128|136:128|216:128,1,390
192,64,67422,5,0
248,96,67572,1,0
248,32,67722,1,0
312,32,67872,1,4
312,96,68022,1,0
376,96,68172,1,0
376,32,68322,1,4
408,32,68397,1,0
440,32,68472,1,0
440,96,68622,1,4
408,96,68697,1,0
376,96,68772,1,0
376,160,68922,1,0
376,224,69072,1,4
312,224,69222,1,0
344,280,69372,1,0
344,216,69522,1,0
344,152,69672,5,4
280,152,69822,1,0
216,152,69972,1,0
152,152,70122,1,0
88,152,70272,1,4
88,88,70422,1,0
152,88,70572,1,0
216,88,70722,1,4
216,120,70797,1,0
216,152,70872,1,0
280,152,71022,1,4
280,184,71097,1,0
280,216,71172,1,0
216,224,71322,1,0
216,288,71472,1,4
256,336,71622,1,0
320,336,71772,1,0
384,328,71922,1,0
424,272,72072,5,4
440,208,72222,1,0
416,144,72372,1,0
376,88,72522,1,0
320,56,72672,1,4
256,56,72822,1,0
192,56,72972,1,0
192,120,73122,1,4
224,120,73197,1,0
256,120,73272,1,0
320,120,73422,1,4
320,152,73497,1,0
320,184,73572,1,0
256,184,73722,1,0
256,248,73872,1,4
256,312,74022,1,0
320,312,74172,1,0
320,248,74322,1,0
256,248,74472,6,4,B|96:248,1,130
128,216,74697,1,0
128,184,74772,2,0,B|264:184,1,130
256,120,75072,6,4,B|104:120,1,130
96,120,75297,1,0
64,120,75372,2,0,B|64:264,1,130
64,312,75672,5,4
64,344,75747,1,4
96,344,75822,2,4,B|144:344|144:344|152:328|152:328|152:312|152:312|152:184|152:184|144:168|144:168|120:168|120:168|120:24,1,390
152,32,76347,1,4
184,32,76422,2,4,B|184:88|184:88|376:88|376:88|376:168|376:168|296:168,1,390
224,192,78972,5,0
224,192,79047,1,0
224,192,79122,1,0
224,192,79197,1,0
224,192,79272,1,4
288,192,79422,1,4
256,24,81672,5,0
256,56,81747,1,0
256,88,81822,1,4
256,152,81972,1,4
48,192,83772,5,0
80,192,83847,1,0
112,192,83922,1,0
136,208,83997,1,0
136,240,84072,1,4
104,296,84222,1,4
472,176,86472,6,4,B|192:176,1,260
208,304,87072,2,4,B|488:304,1,260
344,264,87672,2,4,B|344:0,1,260
424,104,88272,2,0,B|424:248,1,130
488,248,88572,2,0,B|328:248,1,130
312,296,88872,2,4,B|312:16,1,260
272,160,89472,2,4,B|16:304,1,260
64,224,89922,2,4,B|304:88,4,260
64,160,91272,6,0,B|360:160,1,260
440,208,91872,2,0,B|144:208,1,260
136,160,92322,2,0,B|408:160,1,260
400,224,92772,1,0
448,176,92922,1,0
488,128,93072,2,0,B|488:280,1,130
488,320,93372,2,0,B|336:320,1,130
360,256,93672,2,0,B|360:112,1,130
312,80,93972,2,4,B|312:392,2,260
184,80,94872,2,0,B|32:80,1,130
96,128,95172,2,0,B|248:128,1,130
184,176,95472,2,0,B|40:176,1,130
96,224,95772,2,4,B|256:224,1,130
272,272,96072,6,4,B|0:272,1,260
64,384,96672,2,0,B|64:120,1,260
0,240,97272,2,4,B|264:240,1,260
144,184,97872,2,0,B|280:304,1,130
288,224,98172,1,0
328,168,98322,2,4,B|224:80,2,130
368,216,98772,2,0,B|96:216,1,260
112,344,99372,1,0
112,280,99522,1,4
176,280,99672,2,4,B|328:280,1,130
304,216,99972,2,4,B|304:64,1,130
240,80,100272,2,4,B|240:224,1,130
272,264,100572,2,0,B|-40:264,2,260
152,208,101472,6,4,B|448:208,1,260
368,160,101922,2,4,B|80:160,1,260
144,216,102372,1,0
192,264,102522,1,0
232,312,102672,2,0,B|88:312,1,130
104,248,102972,1,0
104,184,103122,2,0,B|264:184,1,130
232,248,103422,1,0
280,288,103572,2,4,B|280:24,1,260
216,32,104172,5,4
152,32,104322,1,0
184,88,104472,1,0
216,144,104622,1,0
152,144,104772,1,0
184,200,104922,1,0
216,256,105072,1,0
152,256,105222,1,0
184,312,105372,1,0
184,312,105522,1,4
256,192,105522,12,4,108072
