osu file format v9

[General]
AudioFilename: Huo Shao De Ji Mo.mp3
AudioLeadIn: 0
PreviewTime: 73826
Countdown: 0
SampleSet: Soft
StackLeniency: 0.7
Mode: 0
LetterboxInBreaks: 0
EpilepsyWarning: 1

[Editor]
Bookmarks: 11737,73612,105487,120487,131737,193612,223612,255487
DistanceSpacing: 1
BeatDivisor: 4
GridSize: 4

[Metadata]
Title:Huo Shao De Ji Mo
Artist:Shin
Creator:bossandy
Version:Normal
Source:
Tags:Chen Wo Nymph Nymph_ Beren spboxer3 Breeze Rucker Shia S_h_i_a karenying palmolive

[Difficulty]
HPDrainRate:3
CircleSize:3
OverallDifficulty:3
ApproachRate:5
SliderMultiplier:1.2
SliderTickRate:1

[Events]
//Background and Video events
0,0,"BG.jpg"
//Break Periods
2,120686,130537
//Storyboard Layer 0 (Background)
//Storyboard Layer 1 (Fail)
//Storyboard Layer 2 (Pass)
//Storyboard Layer 3 (Foreground)
Sprite,Foreground,Centre,"SB\palmolive.png",320,240 M,0,11717,,438,342 F,0,11717,12654,0,1 F,0,72654,73592,0.9701174,0 F,0,193592,194529,0,1 F,0,222654,223592,0.9797225,0
Sprite,Foreground,Centre,"SB\bossandy.png",320,240 M,0,73592,,420,344 F,0,73592,74529,0,1 F,0,120487,121424,1,0 F,0,131717,132654,0.02193407,1 F,0,192654,193592,0.9895617,0 F,0,223592,224529,0,1 F,0,255467,256404,1,0
//Storyboard Sound Samples
//Background Colour Transformations
3,100,163,162,255

[TimingPoints]
487,468.75,4,2,1,40,1,0
14549,-100,4,2,1,20,0,0
15487,-100,4,2,1,40,0,0
73612,-100,4,2,2,60,0,0
75487,-100,4,2,2,80,0,1
105487,-100,4,2,2,60,0,0
112752,-100,4,2,2,40,0,0
112987,-100,4,2,2,60,0,0
135487,-100,4,2,1,60,0,0
158924,-100,4,1,1,60,0,0
159393,-100,4,2,1,60,0,0
180487,-100,4,2,2,40,0,0
181424,-100,4,2,1,60,0,0
195487,-100,4,2,2,80,0,1
206737,-100,4,2,2,60,0,1
207674,-100,4,2,2,70,0,1
208612,-100,4,2,2,80,0,1
223612,-100,4,2,2,80,0,0
225487,-100,4,2,2,80,0,1
247518,-100,4,2,2,90,0,1
247987,-100,4,2,2,80,0,1
249393,-100,4,2,2,80,0,0
255487,-100,4,2,2,20,0,0

[Colours]
Combo1 : 111,0,0
Combo2 : 201,201,201

[HitObjects]
256,192,11737,12,0,14549
152,116,15487,5,0
100,224,15955,2,0,B|148:248|200:228|200:228|252:232|292:260|300:308,1,240,0|0
408,252,17362,2,0,B|372:204|372:132|408:80,1,180
464,60,18299,2,0,B|400:88|332:76,1,120,2|0
232,48,19237,5,0
152,140,19705,2,0,B|168:224,1,80
148,316,20487,2,0,B|232:284|312:332,1,160
424,320,21580,1,0
332,244,22049,1,2
112,144,22987,5,0
24,224,23455,2,0,B|80:292|192:272|224:188,1,240
292,96,24862,2,0,B|360:108|404:60,1,120
460,40,25565,2,0,B|444:96,1,60,0|2
412,212,26268,1,0
328,296,26737,1,0
168,216,27440,6,0,B|148:272,2,60,0|0|0
156,156,28143,2,0,B|96:176,1,60
336,132,30487,5,0
432,204,30955,2,0,B|380:260|316:248|316:248|280:292|208:284,1,240,0|2
112,344,32362,2,0,B|80:296|88:216|152:184,1,180
208,180,33299,2,0,B|144:188|96:144,1,120,2|0
40,40,34237,5,0
156,64,34705,1,0
212,84,34940,2,0,B|340:64,2,120
204,144,36112,1,0
120,228,36580,1,2
188,324,37049,5,0
300,280,37518,2,0,B|336:228|412:216|468:252,1,180,0|0
500,292,38455,2,0,B|460:244|476:176,1,120,2|0
452,60,39393,1,0
376,152,39862,5,2
336,40,40330,2,0,B|268:52|216:20,1,120
112,72,41268,2,0,B|192:104|216:208|160:284,1,240
68,344,42674,5,2
88,224,43143,1,0
176,140,43612,1,2
292,116,44080,1,0
404,164,44549,1,2
212,308,45487,5,0
124,228,45955,2,0,B|104:160|156:120|156:120|220:100|272:152,1,240,0|2
316,256,47362,2,0,B|380:248|432:200|436:136,1,180
496,148,48299,2,0,B|428:136|396:80,1,120,2|0
284,52,49237,5,0
176,100,49705,2,0,B|200:180,1,80
300,244,50487,2,0,B|284:292|200:316|156:288,1,160
68,216,51580,5,0
160,136,52049,1,2
252,216,52518,1,0
160,292,52987,1,0
276,328,53455,6,0,B|344:364|460:324|476:240,1,240
356,220,54862,2,0,B|404:180|412:116,1,120
444,68,55565,2,0,B|376:80,1,60,0|2
268,108,56268,1,0
156,64,56737,1,0
32,196,57440,5,0
76,236,57674,2,0,B|196:256,1,120
96,328,58612,2,0,B|216:348,1,120
332,324,59549,1,2
452,116,60487,5,0
344,60,60955,2,0,B|304:140|356:232|448:240,1,240,0|2
376,340,62362,2,0,B|312:352|260:308,1,120
224,356,63065,2,0,B|156:344,1,60,0|2
84,256,63768,6,0,B|144:240,1,60
188,276,64237,2,0,B|140:232|168:164,1,120,0|2
140,112,64940,2,0,B|252:160,2,120,0|2|0
104,64,66112,1,0
224,52,66580,1,0
332,108,67049,5,2
336,228,67518,2,0,B|408:228|440:160|440:160|484:196|468:268,1,240,0|0
380,340,68924,1,2
264,312,69393,2,0,B|212:272|228:200,1,120,0|0
300,108,70330,2,0,B|352:148|336:220,2,120,0|2|0
226,205,71737,5,0
148,296,72205,2,0,B|96:256|112:184,2,120
268,304,73612,2,0,B|296:240|253:187,1,120,0|0
156,124,74549,2,0,B|96:124,2,60,8|8|0
256,56,75487,6,0,B|334:56|352:112|352:112|404:88|460:144,1,240,4|8
372,228,76893,1,2
480,280,77362,2,0,B|456:344|368:352,1,120,2|0
280,296,78299,2,0,B|232:336|232:336|168:336,1,120,8|0
56,336,79237,6,0,B|84:264|84:264|168:240|168:240|196:172,1,240,0|8
168,56,80643,2,0,B|104:72|76:128,2,120,2|2|0
288,64,82049,2,0,B|348:40,2,60,8|8|0
400,112,82987,6,0,B|432:184|384:272|276:264,1,240,4|8
280,144,84393,2,0,B|256:76|304:24,2,120,2|2|0
168,100,85799,2,0,B|136:165|66:167,2,120,8|0|4
256,324,87674,5,4
344,100,88612,1,4
436,176,89080,2,0,B|396:232|332:220,1,120,0|8
236,148,90018,1,2
176,44,90487,6,0,B|116:80|96:152|132:200|132:200|108:180|76:192,1,240,4|8
80,312,91893,1,2
200,292,92362,2,0,B|268:268|256:192,1,120,2|0
196,96,93299,2,0,B|272:23|340:152|420:95,1,240,8|4
256,272,95174,5,4
92,96,96112,1,4
256,272,97049,2,0,B|256:152,1,120,8|2
148,100,97987,6,0,B|177:94|200:72|200:72|228:84|256:60|256:60|284:84|312:72|312:72|328:96|364:100,1,240,4|8
424,204,99393,2,0,B|372:256|312:224,1,120,2|2
196,225,100330,2,0,B|140:256|88:204,2,120,0|8|2
168,112,101737,6,0,B|188:48|256:41|256:41|324:48|344:112,2,240,4|8|4
256,192,104080,1,8
200,296,104549,2,0,B|240:320|272:320|312:296,2,120,8|2|4
416,192,106424,5,8
360,88,106893,1,2
256,148,107362,2,0,B|188:192|84:156|84:48,2,240,2|8|0
72,300,110174,5,8
180,356,110643,2,0,B|248:352|268:288,1,120,2|2
384,324,111580,2,0,B|414:263|369:213,1,120,0|8
256,72,112752,6,0,B|180:72,1,60,8|4
104,148,113455,1,0
160,256,113924,2,0,B|119:280|87:280|47:256,2,120,8|2|2
256,328,115330,2,0,B|296:303|328:303|368:327,2,120,0|8|2
160,256,116737,5,4
256,36,117674,1,4
352,256,118612,1,4
256,184,119080,1,2
200,76,119549,2,2,B|240:51|272:51|312:75,2,120,8|2|4
256,192,131737,12,4,135487
296,264,136424,6,0,B|228:269|197:210,1,120,8|0
84,248,137362,2,0,B|40:192|80:104|152:96,1,180
100,48,138299,2,0,B|124:104|192:128,1,120,8|0
300,92,139237,5,0
392,168,139705,2,0,B|432:112|404:56,2,120,0|8|0
436,280,141112,2,0,B|372:308|324:256,1,120
224,324,142049,2,0,B|204:240|104:204|32:256,1,240,8|0
148,44,143924,5,8
192,156,144393,1,0
288,224,144862,2,0,B|392:204|392:88,1,180
344,60,145799,2,0,B|404:116|476:68,1,120,8|0
472,200,146737,1,0
256,308,147674,6,0,B|136:308,1,120,8|0
192,204,148612,2,0,B|72:204,1,120,0|0
132,100,149549,2,0,B|12:100,2,120,8|0|0
256,308,151424,5,8
368,268,151893,1,0
444,176,152362,2,0,B|464:84|352:24|288:92,1,240,0|8
48,104,154237,6,0,B|60:172|128:180,1,120
172,68,155174,1,8
292,76,155643,1,0
380,160,156112,2,0,B|329:226|357:323|458:340,1,240,0|8
496,224,157518,1,0
256,196,158455,6,0,B|257:94|166:49|91:88,2,240
160,268,160799,2,0,B|200:320|268:304,1,120,8|0
380,344,161737,5,0
448,248,162205,1,0
392,144,162674,1,8
280,184,163143,1,0
263,304,163612,2,0,B|168:296|128:192|160:124,1,240,0|8
256,56,165018,2,0,B|300:100|376:100,1,120,0|4
256,316,166424,6,0,B|200:344|140:312,2,120,8|0|0
344,236,167830,1,0
460,260,168299,2,0,B|480:184|400:92|312:128,1,240,8|0
224,204,169705,5,0
108,168,170174,2,0,B|120:100|200:88,2,120,8|0|0
308,300,172049,1,8
192,324,172518,1,0
228,208,172987,6,0,B|264:124|400:144|408:240,1,240,0|8
416,352,174393,1,0
308,300,174862,2,0,B|344:64,2,240,0|8|0
68,320,177674,5,8
164,248,178143,2,0,B|132:188|64:196,2,120
268,188,179549,2,0,B|246:106|162:58|80:80,1,240,8|4
176,300,181424,5,8
288,252,181893,1,0
388,316,182362,2,0,B|438:279|414:207|414:207|478:183|470:111,1,240,0|8
372,44,183768,1,0
288,128,184237,6,0,B|160:144|196:44|64:64,2,240,0|8|0
52,180,187049,1,8
136,268,187518,6,0,B|376:268,1,240
456,180,188924,1,8
344,132,189393,2,0,B|272:136|240:80,1,120
136,140,190330,2,0,B|90:84|116:25,2,120,0|8|0
56,232,191737,6,0,B|132:200|216:240|256:320|256:320|296:240|380:200|456:232,1,480,8|8
396,128,194080,2,0,B|448:92|464:32,2,120,0|8|0
288,76,195487,6,0,B|272:160|164:188|96:120,1,240,4|8
36,224,196893,1,2
120,312,197362,1,2
232,272,197830,2,0,B|292:272,1,60
312,328,198299,2,0,B|300:264|360:216,1,120,8|0
312,108,199237,6,0,B|392:68|492:152|472:228,1,240,2|8
384,308,200643,1,2
272,264,201112,1,2
364,188,201580,2,0,B|428:188,2,60,0|0|8
312,80,202518,1,0
200,36,202987,6,0,B|108:40|64:140|124:216,1,240,4|8
32,296,204393,2,0,B|72:344|144:336,1,120,2|2
196,228,205330,2,0,B|236:168|312:188,2,120,0|8|0
284,312,206737,5,4
108,148,207674,1,4
336,76,208612,1,4
428,156,209080,1,2
400,272,209549,2,0,B|464:312|464:308,2,60,8|8|0
308,352,210487,6,0,B|228:368|200:312|200:312|136:304|124:236,1,240,4|8
240,196,211893,1,2
316,104,212362,1,2
436,108,212830,1,0
420,228,213299,2,0,B|420:308|328:368|240:332,1,240,8|4
48,192,215174,5,4
256,72,216112,1,4
256,192,217049,12,0,219862
256,344,220799,5,8
152,128,221737,2,0,B|188:64|324:64|360:128,2,240,4|8|4
200,236,224080,2,0,B|240:211|272:211|312:235,2,120,2|8|2
256,344,225487,5,4
432,180,226424,1,8
332,116,226893,1,2
312,236,227362,2,0,B|244:255|200:207|200:207|136:223|100:163,1,240,2|8
184,80,228768,1,0
296,120,229237,6,0,B|360:56|472:104|460:200,1,240,2|8
384,292,230643,1,2
276,236,231112,2,0,B|208:244|188:308,1,120,2|0
72,280,232049,2,0,B|60:312|84:336,2,60,8|8|0
24,172,232987,6,0,B|56:140|104:140|132:168|132:168|236:92,1,240,4|8
264,212,234393,2,0,B|172:288,2,120,2|2|0
348,296,235799,2,0,B|416:256|388:168,2,120,8|0|4
256,76,237674,5,4
164,296,238612,1,4
256,216,239080,1,0
144,176,239549,2,0,B|88:192,2,60,8|8|0
156,56,240487,6,0,B|216:32|256:100|256:100|292:32|356:56,1,240,4|8
472,84,241893,2,0,B|468:160|380:168,1,120,2|2
288,208,242830,2,0,B|372:296,2,120,0|8|0
188,276,244237,6,0,B|124:212|172:96|256:96,2,240,4|4|4
288,208,246580,1,8
360,304,247049,2,0,B|432:304|456:232,1,120,2|2
384,140,247987,6,0,B|348:60|228:60|192:140,1,240,4|8
288,208,249393,1,4
256,192,252088,12,4,255487
