osu file format v9

[General]
AudioFilename: Huo Shao De Ji Mo.mp3
AudioLeadIn: 0
PreviewTime: 73826
Countdown: 0
SampleSet: Soft
StackLeniency: 0.7
Mode: 0
LetterboxInBreaks: 0
EpilepsyWarning: 1

[Editor]
Bookmarks: 11737,45487,73612,105487,135487,165487,193612,223612,255487
DistanceSpacing: 1
BeatDivisor: 3
GridSize: 4

[Metadata]
Title:Huo Shao De Ji Mo
Artist:Shin
Creator:bossandy
Version:Collab
Source:
Tags:Chen Wo Nymph Nymph_ Beren spboxer3 Breeze Rucker Shia S_h_i_a karenying palmolive

[Difficulty]
HPDrainRate:6
CircleSize:4
OverallDifficulty:6
ApproachRate:7
SliderMultiplier:1.6
SliderTickRate:1

[Events]
//Background and Video events
0,0,"BG.jpg"
//Break Periods
2,135687,142087
//Storyboard Layer 0 (Background)
//Storyboard Layer 1 (Fail)
//Storyboard Layer 2 (Pass)
//Storyboard Layer 3 (Foreground)
Sprite,Foreground,Centre,"SB\Nymph.png",320,240 M,0,11717,,465,351 F,0,11717,12654,0,1 F,0,44529,45467,1,0
Sprite,Foreground,Centre,"SB\Beren.png",320,240 M,0,45467,,453,343 F,0,45467,46404,0,1 F,0,72654,73592,1,0
Sprite,Foreground,Centre,"SB\spboxer3.png",320,240 M,0,73592,,433,342 F,0,73592,74529,0,1 F,0,104529,105467,0.9989328,0
Sprite,Foreground,Centre,"SB\Breeze.png",320,240 M,0,105467,,448,332 F,0,105467,106404,0,1 F,0,134529,135467,0.9957311,0
Sprite,Foreground,Centre,"SB\Rucker.png",320,240 M,0,142967,,433,330 F,0,142967,143904,0,1 F,0,164529,165467,0.9957311,0
Sprite,Foreground,Centre,"SB\S h i a.png",320,240 M,0,165467,,449,332 F,0,165467,166404,0,1 F,0,192654,193592,1,0
Sprite,Foreground,Centre,"SB\karenying.png",320,240 M,0,193592,,437,330 S,0,193592,,0.9488 F,0,193592,194529,0,1 F,0,222654,223592,0.9914621,0
Sprite,Foreground,Centre,"SB\bossandy.png",320,240 M,0,223592,,427,341 F,0,223592,224529,0,1 F,0,255467,256404,0.5456,0
//Storyboard Sound Samples
//Background Colour Transformations
3,100,163,162,255

[TimingPoints]
487,468.75,4,2,1,40,1,0
14549,-100,4,2,1,20,0,0
15955,-100,4,2,1,40,0,0
30487,-100,4,2,1,20,0,0
30955,-100,4,2,1,40,0,0
57205,-100,4,2,1,20,0,0
60487,-100,4,2,1,40,0,0
73612,-100,4,2,2,60,0,0
75487,-100,4,2,2,80,0,1
105487,-100,4,2,2,60,0,0
116737,-100,4,2,2,65,0,0
117674,-100,4,2,2,70,0,0
118612,-100,4,2,2,75,0,0
119549,-100,4,2,2,80,0,0
120487,-100,4,2,2,85,0,0
121424,-100,4,2,2,60,0,0
135487,-100,4,2,1,60,0,0
194080,-100,4,2,2,60,0,0
195487,-100,4,2,2,80,0,1
223612,-100,4,2,2,80,0,0
225487,-100,4,2,2,80,0,1
249393,-100,4,2,2,80,0,0
255487,-100,4,2,2,20,0,0

[Colours]
Combo1 : 111,0,0
Combo2 : 201,201,201

[HitObjects]
256,192,11737,12,0,14549
176,80,15955,5,0
80,184,16424,1,0
136,312,16893,1,2
280,304,17362,2,0,B|360:296|432:344,1,160
488,296,18065,2,0,B|501:257|490:216,1,80,0|2
424,88,18768,5,0
360,120,19002,1,0
419,160,19237,1,0
320,280,19705,2,0,B|273:354|185:362,1,160,0|2
136,312,20408,2,0,B|24:248|64:96,1,240,0|0
172,40,21580,1,0
300,44,22049,1,2
444,256,22987,5,0
444,256,23455,2,0,B|406:327|309:358,2,160,0|2|0
303,221,24862,2,0,B|241:277|156:284,1,160
88,280,25565,2,0,B|65:250|64:201,1,80,0|2
150,92,26268,6,0,B|212:36|297:29,1,160,0|0
479,199,27440,2,0,B|481:241|464:281,1,80
393,277,27908,2,0,B|377:313|379:355,2,80
72,200,30487,5,0
196,224,30955,2,0,B|269:259|295:343,2,160,0|2|0
198,78,32362,2,0,B|271:49|354:76,1,160
424,93,33065,1,0
377,147,33299,1,2
454,271,33768,5,0
438,341,34002,1,0
384,293,34237,1,0
256,109,34705,1,0
256,181,34940,2,0,B|256:340,2,160,2|2|2
256,109,36112,5,0
123,54,36580,1,0
35,168,37049,2,0,B|5:246|42:326,1,160,2|0
184,352,37987,6,0,B|264:329|338:372,1,160
464,231,38924,2,0,B|376:252|313:191,1,160,2|0
244,36,39862,1,0
176,315,40330,1,0
144,109,40799,1,2
49,218,41268,1,0
103,316,41737,5,0
220,367,42205,1,0
360,333,42674,1,2
455,204,43143,1,0
324,86,43612,2,0,B|261:26|166:39,1,160
0,35,44549,1,2
416,80,45955,5,0
272,88,46424,2,0,B|236:64|192:76,1,80
204,156,46893,2,0,B|164:177|128:161,1,80,2|0
48,148,47362,2,0,B|48:236|128:284,1,160
196,308,48065,1,0
276,332,48299,1,2
308,176,48768,5,0
344,112,49002,1,0
408,72,49237,1,0
416,216,49705,1,0
400,288,49940,2,0,B|344:352|256:344,1,160
256,272,50643,2,0,B|168:264|112:328,1,160,2|0
40,200,51580,1,0
120,80,52049,1,2
269,69,52518,2,0,B|353:53,1,80
416,40,52987,1,0
360,176,53455,6,0,B|348:260|400:336,1,160,0|2
256,304,54393,1,0
184,280,54627,1,0
112,256,54862,1,0
80,112,55330,2,0,B|101:146|143:169|143:169,1,80
209,193,55799,1,2
336,120,56268,2,0,B|392:52|480:52|480:52,2,160,0|0|0
381,205,57440,5,0
409,295,57674,1,0
327,345,57908,1,0
253,284,58143,1,0
289,196,58377,1,0
309,103,58612,1,0
120,140,59080,5,0
188,208,59315,1,0
253,284,59549,2,0,B|241:325|161:357|109:345,1,160,0|0
85,205,60487,1,0
160,80,60955,6,0,B|192:112|240:104|240:104,1,80
300,68,61424,2,0,B|329:101|373:105|373:105,1,80,2|0
425,153,61893,2,0,B|433:193|421:233|421:233,1,80,0|0
368,280,62362,2,0,B|312:360|224:312|224:312,1,160,0|0
176,256,63065,1,0
248,240,63299,1,2
104,240,63768,5,0
128,168,64002,1,0
184,120,64237,2,0,B|280:136|320:56|320:56,1,160
319,56,64940,1,0
440,136,65408,2,0,B|440:296,1,160,0|0
384,344,66112,1,0
328,216,66580,1,0
248,336,67049,6,0,B|212:372|176:336|176:336,1,80,2|0
152,264,67518,2,0,B|78:216|62:136,1,160,0|0
220,108,68455,2,0,B|268:34|348:18,1,160,0|0
408,168,69393,2,0,B|448:240|432:328|432:328,1,160,0|2
104,216,70330,2,0,B|64:144|80:56|80:56,1,160,0|2
256,192,71268,12,0,73612
256,32,74080,5,0
256,192,74549,2,0,B|256:280,2,80,8|8|0
156,316,75487,6,0,B|166:259|120:211|60:221,1,160,4|0
80,300,76190,2,0,B|192:148,1,160,8|0
212,100,76893,1,2
288,132,77127,1,0
360,96,77362,1,2
311,36,77596,1,0
360,96,77830,2,0,B|376:176,1,80,0|0
328,304,78299,2,0,B|312:200,1,80,8|0
256,168,78768,1,0
196,224,79002,1,0
184,304,79237,6,0,B|96:344|16:304,1,160,4|0
64,240,79940,2,0,B|144:96,1,160,8|0
184,32,80643,2,0,B|224:60|224:96,1,80,2|0
248,176,81112,1,2
304,112,81346,1,0
328,32,81580,1,0
352,112,81815,1,0
400,176,82049,2,0,B|400:208|400:240|400:240|400:256|400:304|304:312,1,160,8|8
184,296,82987,6,0,B|112:296|112:296|80:256|24:256,1,160,4|0
40,336,83690,2,0,B|120:192,1,160,8|0
96,120,84393,1,0
173,100,84627,2,0,B|256:80|256:80|312:96|312:96|424:72,1,240,0|0
448,144,85565,2,0,B|456:224|368:280,1,160,0|0
240,184,86502,1,0
196,252,86737,6,0,B|168:300|132:296|96:300|68:252,1,160,4|0
176,136,87674,2,0,B|204:88|240:92|276:88|304:136,1,160,4|0
384,132,88377,1,0
448,180,88612,1,4
448,180,88846,1,8
376,216,89080,2,0,B|272:216,1,80,8|0
376,72,89549,2,0,B|305:72|305:72|280:64|280:64|208:64,1,160,8|2
56,64,90487,6,0,B|111:69|122:103|141:134|110:180,1,160,4|0
37,150,91190,2,0,B|4:196|23:227|35:261|90:266,1,160,8|0
120,344,91893,2,0,B|224:312,1,80,2|0
272,352,92362,2,0,B|352:352|352:352|384:312|376:256,1,160,2|0
408,120,93299,2,0,B|320:160|320:160|256:160,1,160,8|0
120,80,94237,6,0,B|56:144|80:256,1,160,4|0
48,304,94940,2,0,B|224:304,1,160,4|0
280,344,95643,1,8
256,232,95877,1,0
328,272,96112,2,0,B|384:272|384:272|424:248|424:248|472:248|520:208|488:136,1,240,6|0
424,112,97049,2,0,B|328:96,1,80,8|0
176,120,97518,2,0,B|272:136,1,80,2|2
248,216,97987,6,0,B|208:296|104:304,1,160,4|0
40,320,98690,1,0
56,240,98924,2,0,B|16:136|16:136|16:80,1,160,8|0
168,40,99862,2,0,B|216:40|216:40|272:64|272:64|344:64,2,160,2|0|8
256,176,101268,1,2
256,192,101737,12,4,105487
336,192,105955,6,0,B|496:192,2,160,0|8|0
256,192,107127,1,2
176,192,107362,1,2
40,112,107830,1,0
40,272,108299,1,8
40,352,108533,6,0,B|124:352|124:272|124:272|232:272,1,240,2|2
312,272,109471,1,0
312,352,109705,2,0,B|392:352|392:272|392:272|464:272|504:180|464:132,1,320,0|2
336,36,111112,1,2
180,76,111580,6,0,B|120:88|80:164|112:228,1,160,2|8
176,168,112283,2,0,B|168:224|188:296|260:312,1,160,10|2
264,228,112987,6,0,B|292:276|384:288|448:240,1,160,4|0
468,204,113690,1,0
464,124,113924,1,8
332,36,114393,1,2
176,72,114862,2,0,B|16:136,1,160,2|0
27,131,115799,1,8
28,292,116268,2,0,B|176:232,1,160,2|4
220,164,116971,5,0
272,224,117205,1,8
292,128,117440,1,0
348,204,117674,1,4
364,92,117908,1,0
424,184,118143,1,8
432,56,118377,1,0
500,164,118612,1,4
468,288,118846,2,0,B|504:332,2,40,8|0|0
388,276,119315,5,2
312,304,119549,1,4
208,244,119901,1,2
236,128,120252,1,2
220,44,120487,2,0,B|152:36|116:116|148:172|148:172|100:204|100:268|140:300,1,320,4|8
292,292,121893,1,2
420,196,122362,6,0,B|464:224,2,53.3333333333333,0|0|0
416,144,122830,1,8
376,76,123065,1,8
308,36,123299,1,2
228,44,123533,2,0,B|188:44|164:80|164:80|124:76|96:136,1,160
52,192,124237,1,4
80,276,124471,6,0,B|112:324,2,40,0|0|0
184,136,125174,1,0
184,136,125408,1,2
236,196,125643,2,0,B|224:260,4,40,8|2|2|2|2
288,132,126346,2,0,B|368:144|400:72|344:32|280:72|316:140|408:144,1,240,2|8
397,143,127518,1,2
392,304,127987,5,4
360,232,128221,1,0
312,296,128455,2,0,B|256:316,3,40
236,324,128924,1,8
156,340,129158,2,0,B|136:280|72:272|72:272|140:260|168:196,1,240,0|2
208,44,130330,5,2
272,192,130799,2,0,B|292:216|320:216|348:216|368:192,3,106.666666666667,8|2|2|6
256,192,131854,12,4,135487
32,192,142987,5,0
256,32,143455,1,0
480,192,143924,1,8
256,352,144393,1,0
112,192,144862,5,0
256,112,145330,1,0
400,192,145799,1,8
256,272,146268,1,0
112,192,146737,6,0,B|112:32,2,160,0|0|8
48,240,147908,2,0,B|48:352|176:352,1,160,0|0
208,312,148612,2,0,B|368:312,3,160,0|0|8|0
368,312,150252,1,0
368,312,150487,5,0
320,160,150955,1,0
392,192,151190,1,0
464,216,151424,2,0,B|464:56,2,160,8|0|0
392,192,152596,2,0,B|392:64|248:64,1,160,0|0
232,104,153299,2,0,B|56:104,1,160,8|0
24,168,154002,1,0
24,168,154237,2,0,B|24:264|136:264,1,160,0|0
128,344,154940,1,0
128,344,155174,2,0,B|296:344,1,160,8|0
344,288,155877,5,0
344,288,156112,2,0,B|392:288|392:352,2,80,0|0|0
256,184,157049,1,8
344,64,157518,1,0
344,64,157752,1,0
344,64,157987,2,0,B|448:64|448:176,1,160,0|0
168,320,158924,2,0,B|64:320|64:208,1,160,8|0
256,112,159862,6,0,B|312:112|312:40,2,80,0|0|0
256,272,160799,2,0,B|200:272|200:344,2,80,8|0|0
416,192,161737,2,0,B|416:24,3,160,0|0|8|0
256,80,163612,1,0
200,136,163846,1,0
256,192,164080,1,0
256,304,164549,1,8
256,303,165018,5,8
312,248,165252,1,0
256,192,165487,1,0
256,192,165955,5,0
200,136,166190,1,0
256,80,166424,1,8
256,80,166893,6,0,B|336:40|416:80,1,160
424,160,167596,2,0,B|472:152|496:96,1,80,0|0
411,77,168065,2,0,B|320:112|352:216,1,160,0|0
384,280,168768,6,0,B|352:240|304:248,1,80,0|0
280,320,169237,2,0,B|208:264|264:168,1,160,0|0
296,104,169940,1,0
344,40,170174,1,8
296,104,170408,6,0,B|216:144|136:96,1,160
192,32,171112,2,0,B|256:104|176:184,2,160,0|0|8
192,32,172283,1,0
192,32,172752,5,0
248,96,172987,1,0
192,152,173221,1,0
192,152,173455,1,0
192,152,173924,5,8
136,208,174158,1,0
192,264,174393,1,0
192,264,174862,6,0,B|248:200|352:216,1,160,0|0
408,256,175565,2,0,B|392:208|424:168,1,80,0|8
480,224,176033,1,0
408,256,176268,6,0,B|320:208|336:112,2,160
480,224,177440,1,0
424,168,177674,1,8
424,168,178143,6,0,B|328:152|280:224,1,160
248,296,178846,2,0,B|232:248|176:248,1,80,0|0
32,232,179549,2,0,B|64:144|160:144,2,160,8|0|0
80,80,180955,6,0,B|184:40|248:112,1,160,0|8
144,232,181893,2,0,B|96:256|96:304,2,80,0|0|0
224,216,182596,1,0
304,224,182830,2,0,B|392:264|392:368,1,160,0|8
392,184,183768,6,0,B|336:112|216:136,1,160,0|0
168,152,184471,1,0
224,208,184705,2,0,B|280:112|176:64,1,160,0|8
112,64,185408,5,0
32,80,185643,2,0,B|64:168|168:136,1,160
224,88,186346,2,0,B|256:128|232:176,1,80,0|0
176,208,186815,2,0,B|208:248|256:240,1,80,0|8
312,192,187283,1,0
312,112,187518,6,0,B|416:136|376:248,1,160
424,80,188455,2,0,B|480:152|448:248,1,160,0|8
312,152,189393,2,0,B|352:184|320:240,2,80
200,40,190330,5,0
120,56,190565,1,0
176,112,190799,1,8
256,192,191268,12,0,193612
355,75,194080,5,8
456,264,194549,1,8
350,208,194783,1,0
350,208,194901,1,0
350,208,195018,2,0,B|294:236|277:259,1,80,8|0
224,334,195487,6,0,B|164:272|76:277,1,160,4|0
176,69,196190,2,0,B|256:26,1,80,0|8
197,146,196658,2,0,B|117:189,1,80,0|2
13,156,197127,2,0,B|93:113,1,80,0|0
322,193,197830,6,0,B|351:288|256:325,1,160,2|8
317,114,198533,2,0,B|355:82|424:90,2,80,0|0|0
252,162,199237,1,0
191,213,199471,1,0
171,208,199588,1,0
151,203,199705,2,0,B|74:178,1,80,2|0
223,56,200174,6,0,B|270:31|342:50|362:95,1,160,8|2
394,169,200877,1,0
422,243,201112,6,0,B|397:290|327:316|285:290,2,160,0|0|8
316,166,202283,1,0
316,166,202401,1,0
316,166,202518,2,0,B|302:115|274:92,1,80,2|0
111,64,202987,6,0,B|77:150|77:150|88:164|103:233,1,160,4|0
31,257,203690,1,0
99,297,203924,2,0,B|148:294|176:256,1,80,8|0
199,189,204393,1,2
98,297,204627,2,0,B|169:347|250:326,1,160,0|0
295,259,205330,1,0
295,259,205565,1,0
488,219,205799,2,0,B|417:168|337:190,1,160,8|2
232,107,206502,5,8
232,107,206619,1,8
232,107,206737,2,0,B|153:80,1,80,4|0
81,52,207205,1,0
190,188,207440,1,0
190,188,207557,1,0
190,188,207674,2,0,B|264:215|331:160|321:116|321:116,1,160,12|0
408,344,208377,5,0
408,344,208494,1,0
408,344,208612,2,0,B|369:331|340:292,1,80,4|0
415,258,209080,2,0,B|428:186|499:152,1,120,8|0
480,162,209549,1,4
424,106,209783,1,0
424,106,209901,1,0
424,106,210018,2,0,B|400:73|361:60,1,80,8|0
175,75,210487,6,0,B|134:114|152:169|152:169|205:192,1,160,4|0
205,192,211190,1,0
111,351,211424,2,0,B|152:312|134:257|134:257|81:234,1,160,8|0
43,163,212127,1,0
43,163,212244,1,0
43,163,212362,2,0,B|18:100|37:68,1,80,2|0
153,116,212830,5,0
217,68,213065,1,0
217,68,213182,1,0
217,68,213299,1,8
272,125,213533,1,0
336,77,213768,2,0,B|420:68|499:103,2,160,0|4|0
272,125,214940,1,0
233,273,215174,6,0,B|147:311|73:261,1,160,4|0
39,196,215877,1,8
39,196,215994,1,8
39,196,216112,1,4
390,191,217049,5,2
277,77,217518,2,0,B|200:50|120:64,2,160,2|4|0
235,307,218924,2,0,B|312:334|392:320,2,160,8|2|0
373,226,220330,5,0
339,69,220799,1,8
216,172,221268,1,2
341,190,221737,5,12
324,112,221971,1,0
262,163,222205,1,2
357,208,222440,1,2
331,90,222674,1,2
239,167,222908,1,0
380,234,223143,1,8
342,58,223377,1,8
204,174,223612,1,8
320,168,223846,6,0,B|352:128|424:160,1,80,0|8
244,259,224315,2,0,B|263:307|199:353,1,80,0|8
203,148,224783,2,0,B|152:140|144:62,1,80,0|8
150,94,225135,1,8
150,94,225252,1,0
176,224,225487,6,0,B|192:264|288:296|352:280,1,160,4|0
384,232,226190,1,0
376,152,226424,2,0,B|368:104|312:96,1,80,8|0
384,232,226893,1,2
400,312,227127,2,0,B|430:349|483:328,1,80,0|2
320,288,227830,6,0,B|280:272|240:288,1,80,2|0
96,352,228299,1,8
160,304,228533,1,0
184,224,228768,1,0
176,184,228885,1,0
152,152,229002,1,0
96,96,229237,6,0,B|48:128|56:208|112:232,1,160,4|0
256,240,229940,2,0,B|212:256|180:220,1,80,0|8
344,312,230408,2,0,B|379:342|364:387,1,80,0|0
368,208,230877,2,0,B|376:161|423:152,1,80,2|2
448,80,231346,1,0
448,72,231463,1,0
448,64,231580,1,8
368,208,231815,6,0,B|360:248|368:288,1,80,0|8
448,80,232283,1,0
328,192,232518,1,8
472,112,232752,1,8
312,144,232987,6,0,B|272:120|240:152|240:152|224:112|176:112,1,160,4|0
104,248,233690,2,0,B|144:224|160:168,1,80,0|8
104,76,234158,1,0
40,124,234393,1,0
20,200,234627,1,2
32,280,234862,6,0,B|72:368|184:336,1,160,2|0
216,232,235565,1,0
240,352,235799,2,0,B|192:368|160:336,1,80,8|0
216,232,236268,1,8
240,200,236385,1,0
264,168,236502,1,0
288,136,236619,1,0
312,104,236737,6,0,B|352:64|432:80|448:136,1,160,4|0
344,256,237440,2,0,B|368:176,1,80,0|4
408,344,237908,2,0,B|432:264,1,80,0|0
232,320,238377,2,0,B|256:240,1,80,0|4
192,192,238846,1,2
136,136,239080,1,8
216,112,239315,1,0
360,32,239549,5,0
352,72,239666,1,0
360,112,239783,1,0
384,144,239901,1,0
416,168,240018,1,8
456,184,240135,1,2
496,184,240252,1,2
496,184,240369,1,0
496,184,240487,5,4
408,320,240955,2,0,B|336:368|256:320,1,160,0|8
200,264,241658,1,0
184,184,241893,1,0
208,104,242127,1,2
280,64,242362,1,2
128,120,242830,6,0,B|80:112|72:72,1,80
184,184,243299,2,0,B|201:229|170:256,1,80,8|0
208,104,243768,2,0,B|238:66|277:79,1,80
432,128,244237,6,0,B|376:192|272:176,2,160,4|0|4
472,56,245408,1,0
432,128,245643,1,0
360,88,245877,2,0,B|320:88|280:104,1,80,2|4
144,64,246346,2,0,B|184:64|224:48,1,80,0|0
64,88,246815,2,0,B|29:107|2:141,1,80,2|8
104,264,247283,5,8
120,264,247401,1,0
136,264,247518,1,0
152,264,247635,1,0
168,264,247752,1,0
184,264,247869,1,0
200,264,247987,5,4
316,236,248221,2,0,B|360:224|392:248,1,80,2|8
200,264,248690,1,0
220,144,248924,2,0,B|252:111|291:116,1,80,6|2
316,236,249393,1,4
256,192,252088,12,4,255487
