osu file format v6

[General]
AudioFilename: Kidou.mp3
AudioLeadIn: 485
PreviewTime: 38230
Countdown: 1
SampleSet: Soft
StackLeniency: 0.7
Mode: 0
LetterboxInBreaks: 1

[Editor]
DistanceSpacing: 0.800000011920929
BeatDivisor: 8
GridSize: 8

[Metadata]
Title:Kidou
Artist:Shimotsuki Haruka and Shikata Akiko
Creator:merimeri
Version:Hard
Source:Ar tonelico II
Tags:Ar tonelico II

[Difficulty]
HPDrainRate:6
CircleSize:5
OverallDifficulty:7
SliderMultiplier:1.8
SliderTickRate:2

[Events]
//Background and Video events
0,0,"Ar tonelico1.jpg"
//Break Periods
//Storyboard Layer 0 (Background)
//Storyboard Layer 1 (Fail)
//Storyboard Layer 2 (Pass)
//Storyboard Layer 3 (Foreground)
//Storyboard Sound Samples
//Background Colour Transformations
3,100,163,162,255

[TimingPoints]
6480,500,4,2,1,80,1,0
10230,-100,4,2,1,70,0,0
12230,-100,4,2,1,50,0,0
14230,-100,4,2,1,70,0,0
18230,-100,4,2,1,80,0,0
20230,-100,4,2,1,50,0,0
21355,-100,4,2,1,70,0,0
21980,-200,4,2,1,60,0,0
22355,-100,4,2,1,60,0,0
24355,-100,4,2,1,90,0,0
26230,-100,4,2,1,39,0,0
26730,-100,4,2,1,53,0,0
27105,-100,4,2,1,68,0,0
27480,-100,4,2,1,83,0,0
30355,-100,4,2,1,50,0,0
32355,-100,4,2,1,80,0,0
34230,-100,4,2,1,39,0,0
34730,-100,4,2,1,54,0,0
35105,-100,4,2,1,68,0,0
35480,-100,4,2,1,80,0,0
38292,-100,4,1,1,70,0,0
38605,-100,4,2,1,100,0,0
38855,-100,4,1,1,70,0,0
39105,-100,4,2,1,100,0,0
39355,-100,4,1,1,70,0,0
39605,-100,4,2,1,100,0,0
39855,-100,4,1,1,70,0,0
40105,-100,4,2,1,70,0,0
40355,-100,4,2,1,88,0,0
46355,-100,4,1,1,70,0,0
46605,-100,4,2,1,100,0,0
46855,-100,4,1,1,70,0,0
47105,-100,4,2,1,100,0,0
47355,-100,4,1,1,70,0,0
47605,-100,4,2,1,100,0,0
47855,-100,4,1,1,70,0,0
48105,-100,4,2,1,100,0,0
48355,-100,4,2,1,80,0,0
50480,-100,4,2,1,50,0,0
54230,-100,4,2,1,90,0,0
60480,-100,4,2,1,50,0,0
62230,-100,4,2,1,90,0,0
69980,-100,4,2,1,30,0,0
70230,-100,4,1,1,60,0,0

[Colours]
Combo1 : 96,96,176
Combo2 : 212,212,212
Combo3 : 162,162,255
Combo4 : 0,155,155

[HitObjects]
184,120,6480,5,2
256,120,6730,1,2
328,120,6980,1,0
328,192,7230,1,0
328,264,7480,1,2
256,264,7730,1,2
184,264,7980,1,0
56,192,8480,5,2
120,152,8730,1,2
192,160,8980,1,0
256,192,9230,1,0
320,224,9480,1,2
352,232,9605,1,0
384,224,9730,1,2
448,192,9980,1,0
368,72,10480,6,0,B|328:48|280:48,1,90
208,48,10980,2,0,B|160:56|128:96,1,90
80,144,11480,1,0
80,144,11605,1,0
80,144,11730,1,0
40,208,11980,1,0
144,312,12480,5,0
216,328,12730,1,0
288,328,12980,1,0
360,312,13230,1,0
424,272,13480,1,0
424,272,13605,1,0
424,272,13730,1,0
448,200,13980,1,0
328,120,14480,5,2
296,120,14605,1,0
264,120,14730,1,2
192,120,14980,1,0
192,192,15230,1,0
192,264,15480,1,2
224,264,15605,1,0
256,264,15730,1,2
328,264,15980,1,0
456,192,16480,5,2
392,152,16730,1,2
320,160,16980,1,0
256,192,17230,1,0
192,224,17480,1,2
160,232,17605,1,0
128,224,17730,1,2
64,192,17980,1,0
56,48,18480,6,0,B|104:24|160:40,1,90
208,72,18980,2,0,B|256:80|296:48,1,90
360,32,19480,1,0
384,48,19605,1,0
408,72,19730,2,0,B|432:112|392:168,1,90
320,288,20480,5,0
248,296,20730,1,0
176,272,20980,1,0
120,224,21230,1,0
80,160,21480,2,2,B|216:112|352:160,1,270,0|0
408,192,22480,6,0,B|472:216,6,45,8|8|8|8|8|8|8
408,120,23480,2,0,B|464:104,6,45,8|8|8|8|8|8|8
344,160,24480,1,2
280,120,24730,1,2
216,160,24980,1,0
216,160,25230,1,0
152,200,25480,1,2
128,216,25605,1,0
104,232,25730,1,2
48,272,25980,1,0
480,352,26480,5,0
456,280,26730,1,0
408,224,26980,1,0
352,176,27230,1,0
288,144,27480,1,0
256,136,27605,1,0
224,128,27730,1,0
152,112,27980,1,0
152,112,28105,2,0,B|104:104|56:152,1,90,0|0
48,160,28480,6,2,B|48:208|104:248,1,90,0|0
160,248,28980,2,2,B|208:240|248:272,1,90,0|0
312,296,29480,2,2,B|360:288|392:240,1,90,0|0
432,192,29980,2,2,B|384:176|360:128,1,90,0|0
336,72,30480,6,0,B|376:40,6,45,8|8|8|8|8|8|8
264,72,31480,2,0,B|224:32,6,45,8|8|8|8|8|8|8
304,136,32480,1,2
288,208,32730,1,2
240,264,32980,1,0
240,264,33230,1,0
176,304,33480,1,2
176,304,33605,1,0
176,304,33730,1,2
112,336,33980,1,0
256,24,34480,5,0
328,40,34730,1,0
392,80,34980,1,0
440,136,35230,1,0
472,200,35480,1,0
480,232,35605,1,0
464,264,35730,1,0
416,320,35980,1,0
416,320,36105,2,0,B|384:360|312:352,1,90
312,336,36480,6,2,B|272:296|216:304,1,90,0|0
160,320,36980,2,2,B|104:312|80:272,1,90,0|0
56,208,37480,2,2,B|104:184|112:136,1,90,0|0
111,140,37980,1,4
200,32,38480,5,0
264,64,38730,1,8
328,96,38980,1,0
392,136,39230,1,8
328,168,39480,1,0
264,200,39730,1,8
200,232,39980,1,0
136,264,40230,1,8
72,232,40480,5,2
72,232,40605,1,0
72,232,40730,1,8
136,192,40980,1,2
136,192,41105,1,0
136,192,41230,1,8
200,232,41480,1,2
200,232,41605,1,0
200,232,41730,1,8
256,280,41980,1,2
256,280,42105,1,0
256,280,42230,1,8
328,280,42480,6,0,B|384:272|408:216,1,90,0|8
440,168,42980,1,0
448,136,43105,1,0
440,104,43230,1,8
392,48,43480,2,0,B|352:24|296:32,1,90,0|8
232,40,43980,1,0
200,56,44105,1,0
168,72,44230,1,8
104,112,44480,5,2
104,112,44730,1,8
200,216,44980,1,2
200,216,45230,1,8
320,136,45480,1,2
320,136,45730,1,8
424,240,45980,1,0
424,240,46230,1,8
304,312,46480,5,0
232,336,46730,1,8
160,336,46980,1,0
88,312,47230,1,8
40,256,47480,1,0
40,184,47730,1,8
80,120,47980,1,0
144,88,48230,1,8
216,64,48480,5,2
248,64,48605,1,0
280,64,48730,1,8
280,136,48980,1,2
312,136,49105,1,0
344,136,49230,1,8
344,208,49480,1,2
376,208,49605,1,0
408,208,49730,1,8
408,280,49980,1,2
440,280,50105,1,0
472,280,50230,1,8
256,192,50480,12,4,53980
256,32,54480,5,2
328,48,54730,1,0
384,96,54980,1,0
384,96,55105,1,0
384,96,55230,1,0
416,160,55480,5,2
416,232,55730,1,0
360,280,55980,1,0
360,280,56105,1,0
360,280,56230,1,0
288,296,56480,5,2
224,256,56730,1,0
232,184,56980,1,2
304,176,57230,1,0
336,240,57480,1,2
288,296,57730,1,0
216,320,57980,1,4
256,32,58480,6,2,B|256:128,1,90,2|0
256,352,58980,2,2,B|256:248,1,90,2|0
432,192,59480,6,2,B|328:192,1,90,2|0
80,192,59980,2,2,B|192:192,1,90,2|0
256,192,60480,12,4,61980
256,32,62480,5,2
168,64,62730,1,0
104,128,62980,1,0
104,128,63105,1,0
104,128,63230,1,0
72,216,63480,5,2
96,304,63730,1,0
184,344,63980,1,0
184,344,64105,1,0
184,344,64230,1,0
272,352,64480,5,2
352,312,64730,1,0
376,224,64980,1,2
320,152,65230,1,0
232,136,65480,1,2
232,136,65605,1,2
232,136,65730,1,0
160,192,65980,1,4
256,352,66480,6,2,B|256:248,1,90,2|0
256,32,66980,1,2
256,64,67105,1,2
256,96,67230,1,0
80,192,67480,6,2,B|176:192,1,90,2|0
424,192,67980,1,2
392,192,68105,1,2
360,192,68230,1,0
256,192,68480,5,2
256,192,68605,12,0,69980
256,192,70480,5,4
