osu file format v6

[General]
AudioFilename: Kidou.mp3
AudioLeadIn: 1456
PreviewTime: 38230
Countdown: 1
SampleSet: Soft
StackLeniency: 0.7
Mode: 0
LetterboxInBreaks: 1

[Editor]
DistanceSpacing: 1.39999997615814
BeatDivisor: 8
GridSize: 8

[Metadata]
Title:Kidou
Artist:Shimotsuki Haruka and Shikata Akiko
Creator:merimeri
Version:Easy
Source:Ar tonelico II
Tags:Ar tonelico II

[Difficulty]
HPDrainRate:3
CircleSize:3
OverallDifficulty:3
SliderMultiplier:1.2
SliderTickRate:2

[Events]
//Background and Video events
0,0,"Ar tonelico1.jpg"
//Break Periods
2,10180,13040
2,18179,21040
//Storyboard Layer 0 (Background)
//Storyboard Layer 1 (Fail)
//Storyboard Layer 2 (Pass)
//Storyboard Layer 3 (Foreground)
//Storyboard Sound Samples
//Background Colour Transformations
3,100,163,162,255

[TimingPoints]
6480,500,4,2,1,80,1,0
14230,-100,4,2,1,60,0,0
16230,-100,4,2,1,80,0,0
26230,-100,4,2,1,40,0,0
26730,-100,4,2,1,52,0,0
27230,-100,4,2,1,68,0,0
27730,-100,4,2,1,100,0,0
28230,-100,4,2,1,40,0,0
30230,-100,4,2,1,70,0,0
32230,-100,4,2,1,80,0,0
34230,-100,4,2,1,40,0,0
34730,-100,4,2,1,55,0,0
35230,-100,4,2,1,80,0,0
35730,-100,4,2,1,100,0,0
36230,-100,4,2,1,40,0,0
37230,-100,4,2,1,70,0,0
38230,-100,4,1,0,60,0,0
42230,-100,4,2,1,60,0,0
45480,-100,4,2,1,40,0,0
46230,-100,4,1,0,60,0,0
48230,-100,4,2,1,60,0,0
50480,-100,4,2,1,50,0,0
54230,-100,4,2,1,80,0,0
61980,-100,4,2,1,50,0,0
62230,-100,4,2,1,80,0,0
70480,-100,4,1,0,60,0,0

[Colours]
Combo1 : 96,96,176
Combo2 : 212,212,212
Combo3 : 162,162,255
Combo4 : 0,155,155

[HitObjects]
256,144,6480,6,2,B|392:144,1,120,2|2
472,168,7480,2,2,B|456:296,1,120,2|2
368,320,8480,2,0,B|240:304,3,120,2|0|2|0
256,144,14480,6,2,B|120:144,1,120,2|2
40,168,15480,2,2,B|56:304,1,120,2|2
144,328,16480,2,0,B|280:312,3,120,2|0|2|0
136,96,22480,6,0,B|256:40|384:104,1,240
376,288,24480,2,2,B|256:352|120:272,1,240,2|0
128,96,26480,6,0,B|256:80,3,120
344,72,28480,2,0,B|384:136|344:200,1,120
288,256,29480,2,0,B|240:304|176:280,1,120
96,224,30480,6,0,B|80:96,3,120
160,56,32480,2,0,B|288:72,3,120,2|0|2|0
376,88,34480,6,0,B|360:240|296:296|128:304,1,360,0|0
56,248,36480,2,0,B|40:176|112:144,1,120
176,208,37480,2,2,B|232:248|296:208,1,120,0|4
384,192,38480,5,0
456,128,38980,1,0
384,64,39480,1,0
312,128,39980,1,0
384,192,40480,5,0
320,264,40980,1,0
256,336,41480,1,0
184,264,41980,1,0
120,192,42480,6,0,B|176:160|240:192,3,120,0|8|0|8
320,224,44480,2,0,B|376:256|440:224,3,120,0|8|0|8
432,64,46480,5,0
336,96,46980,1,0
256,152,47480,1,0
208,240,47980,1,0
304,240,48480,5,2
256,152,48980,1,8
176,96,49480,1,2
80,64,49980,1,8
256,192,50480,12,0,53978
40,192,54480,6,2,B|176:176,1,120,2|0
256,168,55480,2,2,B|272:40,1,120,2|0
368,48,56480,2,0,B|432:32,2,60,2|0|2
384,144,57480,2,4,B|456:128,2,60,2|0|4
288,160,58480,5,2
240,168,58730,1,0
192,176,58980,1,2
192,272,59480,5,2
240,280,59730,1,0
288,288,59980,1,2
256,192,60480,12,4,61979
472,192,62480,6,2,B|344:176,1,120,2|0
256,168,63480,2,2,B|240:40,1,120,2|0
144,48,64480,2,0,B|80:32,2,60,2|0|2
128,144,65480,2,4,B|56:128,2,60,2|0|4
224,160,66480,5,2
272,168,66730,1,0
320,176,66980,1,2
320,272,67480,5,2
272,280,67730,1,0
224,288,67980,1,2
256,192,68480,12,4,70478
