osu file format v9

[General]
AudioFilename: Princess Evangile op.mp3
AudioLeadIn: 0
PreviewTime: 53014
Countdown: 0
SampleSet: Soft
StackLeniency: 0.7
Mode: 0
LetterboxInBreaks: 1

[Editor]
DistanceSpacing: 0.8
BeatDivisor: 4
GridSize: 8

[Metadata]
Title:Yuuki no Mahou (Short Ver.)
Artist:Shimotsuki Haruka
Creator:Hinacle
Version:Easy
Source:Princess Evangile
Tags:kusano Moon Stone

[Difficulty]
HPDrainRate:2
CircleSize:3
OverallDifficulty:2
ApproachRate:2
SliderMultiplier:0.8
SliderTickRate:1

[Events]
//Background and Video events
0,0,"BG.jpg"
Video,0,"OP.flv"
//Break Periods
//Storyboard Layer 0 (Background)
//Storyboard Layer 1 (Fail)
//Storyboard Layer 2 (Pass)
//Storyboard Layer 3 (Foreground)
//Storyboard Sound Samples
//Background Colour Transformations
3,100,163,162,255

[TimingPoints]
1539,363.636363636364,4,2,1,70,1,0
4357,-100,4,2,1,60,0,0
5812,-100,4,2,1,70,0,0
7266,-100,4,2,1,60,0,0
8721,-100,4,2,1,70,0,0
10175,-100,4,2,1,60,0,0
11630,-100,4,2,1,70,0,0
14357,-100,4,2,1,5,0,0
16903,-100,4,2,1,70,0,0
25994,-100,4,2,1,5,0,0
28539,-100,4,2,1,70,0,0
37630,-100,4,2,1,5,0,0
40175,-100,4,2,1,70,0,0
53721,-100,4,2,1,80,0,1
85539,-100,4,2,1,70,0,0
85629,-100,4,2,1,5,0,0
88357,-100,4,2,1,70,0,0
94630,-100,4,2,1,5,0,0

[Colours]
Combo1 : 139,250,177
Combo2 : 255,179,255
Combo3 : 51,189,249
Combo4 : 255,169,83

[HitObjects]
128,64,2994,1,4
384,64,4448,1,4
384,320,5903,5,4
128,320,7357,1,4
128,64,8812,5,4
256,288,10266,1,4
384,64,11721,6,0,B|264:64,1,120,4|2
136,64,12994,1,4
256,192,14448,12,0,16812
440,192,17539,6,0,B|464:256|440:312,1,120,4|2
312,312,18812,2,0,B|216:352|112:312,1,200,0|2
120,184,20448,6,0,B|120:64,1,120,4|2
248,56,21721,2,0,B|344:24|448:56,1,200,0|2
448,184,23357,6,0,B|448:304,1,120,4|2
288,304,24812,2,0,B|288:184,1,120,0|2
256,192,26084,12,0,28448
120,112,29175,5,4
120,240,29903,2,0,B|184:264|240:240,1,120,2|2
432,128,31721,6,0,B|432:216,1,80,0|4
432,336,32812,1,2
336,336,33357,2,0,B|248:336,1,80,2|2
64,216,34994,6,0,B|40:160|64:96,1,120,4|2
160,96,36084,1,0
288,96,36812,2,0,B|384:96,1,80,2|2
256,192,37721,12,0,40084
128,48,40630,6,0,B|48:120|88:232,1,200,4|0
176,320,42266,2,0,B|248:360|336:336,1,160,2|2
416,296,43539,6,0,B|496:224|456:112,1,200,4|0
336,72,45175,2,0,B|264:32|176:56,1,160,2|2
64,112,46630,6,0,B|16:192|64:272,2,160,4|2|4
160,112,48630,1,2
256,112,49175,2,0,B|368:112|368:248|256:248,1,240,4|2
160,248,50812,2,0,B|128:312|160:368,1,120,4|4
352,344,52448,6,0,B|368:272|336:256|352:176,1,160,4|0
352,88,53721,1,4
256,88,54266,2,0,B|176:88,1,80,2|0
80,88,55175,1,2
80,248,56084,5,2
152,312,56630,1,4
224,248,57175,2,0,B|304:248,1,80,2|0
400,248,58084,1,2
400,152,58630,6,0,B|400:64|312:40|256:112,1,200,0|4
208,256,60448,2,0,B|168:304|112:304|72:248,2,160,2|4|2
208,128,62630,5,4
304,128,63175,2,0,B|464:128,1,160,4|4
472,288,64812,5,2
384,248,65357,1,4
296,288,65903,2,0,B|208:288,1,80,2|0
120,288,66812,1,2
120,128,67721,6,0,B|184:104|240:128,1,120,2|4
336,128,68812,2,0,B|336:224,1,80,2|0
336,304,69721,1,2
240,304,70266,6,0,B|152:344|104:320|96:232,1,200,0|4
96,80,72084,2,0,B|176:48|256:80,2,160,2|4|2
96,208,74266,5,4
96,304,74812,2,0,B|176:336|256:304,1,160,2|4
376,120,76812,6,0,B|296:120,1,80,2|4
200,120,77721,2,0,B|128:104|112:136|40:120,1,160,2|4
136,328,79721,6,0,B|216:328,1,80,2|4
312,328,80630,2,0,B|384:344|400:312|472:328,1,160,2|4
344,144,82630,6,0,B|256:112,1,80,2|4
152,64,83721,1,2
64,160,84448,2,0,B|40:216|64:280,2,120,4|4|4
256,192,85720,12,0,88266
104,112,88630,6,0,B|40:208|96:304,1,200,4|2
224,304,90266,2,0,B|288:328|352:304,1,120,2|2
456,248,91539,6,0,B|512:160|456:56,1,200,4|0
360,64,92994,2,0,B|272:120|168:64,1,200,4|0
72,64,94448,1,4
256,192,94630,12,0,98994
