osu file format v14

[General]
AudioFilename: Tsubasa wo Motanai Shoujo.mp3
AudioLeadIn: 0
PreviewTime: 58987
Countdown: 1
SampleSet: Soft
StackLeniency: 0.7
Mode: 0
LetterboxInBreaks: 1
WidescreenStoryboard: 0

[Editor]
DistanceSpacing: 2
BeatDivisor: 4
GridSize: 4
TimelineZoom: 2.099999

[Metadata]
Title:Tsubasa wo Motanai Shoujo
TitleUnicode:翼を持たない少女
Artist:Shimotsuki Haruka
ArtistUnicode:霜月はるか
Creator:mayotyou
Version:Insane
Source:翠の海
Tags:
BeatmapID:624289
BeatmapSetID:275243

[Difficulty]
HPDrainRate:7
CircleSize:4
OverallDifficulty:7
ApproachRate:9
SliderMultiplier:2
SliderTickRate:1

[Events]
//Background and Video events
0,0,"BG.jpg",0,0
Video,0,"midorinoumiOP.avi"
//Break Periods
//Storyboard Layer 0 (Background)
//Storyboard Layer 1 (Fail)
//Storyboard Layer 2 (Pass)
//Storyboard Layer 3 (Foreground)
//Storyboard Sound Samples

[TimingPoints]
770,594.059405940594,4,2,0,40,1,0
770,-133.333333333333,4,2,0,40,0,0
9680,-100,4,2,0,40,0,0
34631,-133.333333333333,4,2,0,40,0,0
48888,-100,4,2,0,40,0,0
59581,-66.6666666666667,4,2,0,40,0,1
82750,-100,4,2,0,40,0,1
84532,-133.333333333333,4,2,0,40,0,0
92849,-100,4,2,0,40,0,0

[HitObjects]
80,144,770,6,0,P|132:72|208:68,2,150.000005722046
112,228,2255,1,0,0:0:0:0:
200,224,2552,2,0,P|248:196|260:104,2,150.000005722046
156,148,4037,1,0,0:0:0:0:
196,68,4334,2,0,P|252:32|336:72,2,150.000005722046
256,192,5819,1,0,0:0:0:0:
256,192,6116,12,0,9383,0:0:0:0:
80,104,9680,6,0,B|128:68|192:100,1,100
236,172,10126,2,0,L|200:216,1,50
104,224,10423,1,0,0:0:0:0:
68,132,10571,2,0,P|52:80|72:40,1,100
172,36,11017,1,0,0:0:0:0:
260,84,11166,2,0,P|288:96|324:96,1,50
420,84,11463,6,0,P|432:132|412:188,1,100
300,204,11908,2,0,P|256:220|196:188,1,100
296,128,12354,2,0,P|312:184|260:224,1,100
164,220,12799,1,0,0:0:0:0:
68,188,12948,2,0,L|124:208,1,50
220,180,13245,6,0,P|248:136|248:116,1,50
336,92,13542,1,0,0:0:0:0:
424,132,13690,2,0,P|384:103|336:92,1,100
236,116,14136,2,0,P|220:172|240:216,1,100
400,276,14730,2,0,L|324:272,1,50
248,276,15027,6,0,P|196:248|136:248,1,100
68,200,15472,2,0,P|80:140|76:92,1,100
168,60,15918,2,0,P|220:64|268:48,2,100,0|0|0,0:0|0:0|0:0,0:0:0:0:
112,144,16661,1,0,0:0:0:0:
172,224,16809,2,0,L|224:240,1,50
320,252,17106,2,0,L|368:208,1,50
400,128,17403,6,0,P|400:68|348:44,2,100,0|0|0,0:0|0:0|0:0,0:0:0:0:
324,196,18146,1,0,0:0:0:0:
232,160,18294,2,0,P|212:132|208:104,1,50
288,56,18591,2,0,P|344:72|376:120,1,100
344,200,19037,2,0,P|284:200|236:172,1,100
396,156,19482,2,0,P|412:200|384:256,1,100
288,240,19928,5,0,0:0:0:0:
188,252,20076,2,0,P|132:264|124:280,1,50
92,168,20373,2,0,P|80:112|56:76,2,100,0|0|0,0:0|0:0|0:0,0:0:0:0:
108,268,21116,1,0,0:0:0:0:
204,244,21265,2,0,L|248:192,1,50
200,112,21562,2,0,L|140:108,1,50
232,272,21859,2,0,L|296:304,1,50
376,308,22156,6,0,P|440:304|472:324,2,100,0|0|0,0:0|0:0|0:0,0:0:0:0:
276,300,22898,1,0,0:0:0:0:
180,276,23047,2,0,L|120:256,1,50
72,180,23344,2,0,P|80:124|120:104,1,100
312,80,23938,6,0,L|360:92,1,50
448,140,24235,1,0,0:0:0:0:
368,200,24383,1,0,0:0:0:0:
280,152,24532,2,0,P|264:96|280:48,2,100,0|0|0,0:0|0:0|0:0,0:0:0:0:
368,200,25274,1,0,0:0:0:0:
452,256,25423,2,0,P|472:280|464:308,1,50
372,312,25720,2,0,P|304:296|256:312,1,100
176,288,26166,6,0,P|176:256|188:216,1,50
232,324,26463,1,0,0:0:0:0:
132,324,26611,2,0,L|76:324,1,50
56,232,26908,2,0,P|52:196|64:160,1,50
144,136,27205,2,0,P|152:172|140:208,1,50
64,132,27502,6,0,P|64:80|84:28,2,100
100,228,28245,1,0,0:0:0:0:
200,236,28393,2,0,L|252:224,1,50
252,124,28690,2,0,P|200:96|156:108,1,100
84,168,29136,1,0,0:0:0:0:
164,228,29284,2,0,P|216:236|264:220,1,100
324,144,29730,1,0,0:0:0:0:
260,68,29878,1,0,0:0:0:0:
144,60,30027,6,0,L|92:56,1,50
36,136,30324,1,0,0:0:0:0:
116,196,30472,2,0,L|184:200,1,50
244,132,30770,2,0,L|268:80,1,50
364,68,31067,6,0,P|420:52|452:24,2,100,0|0|0,0:0|0:0|0:0,0:0:0:0:
284,128,31809,1,0,0:0:0:0:
212,196,31958,2,0,L|248:232,1,50
348,244,32255,1,0,0:0:0:0:
388,152,32403,1,0,0:0:0:0:
284,128,32552,2,0,L|240:156,1,50
168,224,32849,6,0,P|140:268|132:328,2,100
156,108,33591,1,0,0:0:0:0:
240,56,33740,2,0,L|288:76,1,50
252,172,34037,2,0,L|200:200,1,50
128,136,34334,2,0,L|140:72,1,50
268,64,34631,6,0,L|312:72|372:64,2,75.0000028610231,0|0|0,0:0|0:0|0:0,0:0:0:0:
200,96,35373,1,0,0:0:0:0:
132,160,35522,2,0,L|84:212,1,37.5000014305115
180,168,35819,2,0,L|180:216,1,37.5000014305115
228,164,36116,2,0,L|276:216,1,37.5000014305115
352,172,36413,6,0,P|408:124|416:104,2,75.0000028610231,0|0|0,0:0|0:0|0:0,0:0:0:0:
276,168,37156,1,0,0:0:0:0:
204,152,37304,2,0,P|191:138|188:120,1,37.5000014305115
228,56,37601,2,0,P|252:88|252:92,1,37.5000014305115
188,120,37898,2,0,P|164:128|136:120,1,37.5000014305115
64,100,38195,5,0,0:0:0:0:
300,80,38492,1,0,0:0:0:0:
196,268,38789,1,0,0:0:0:0:
196,120,39086,6,0,P|232:96|252:92,1,37.5000014305115
300,108,39383,1,0,0:0:0:0:
256,252,39680,1,0,0:0:0:0:
112,212,39977,2,0,P|76:172|72:140,2,75.0000028610231
337,283,40869,6,0,L|305:237,1,37.5000014305115
235,138,41166,2,0,L|214:207,1,37.5000014305115
155,286,41463,2,0,L|213:269,1,37.5000014305115
312,224,41760,6,0,P|352:192|376:164,1,75.0000028610231
428,56,42354,1,0,0:0:0:0:
304,112,42651,6,0,P|252:88|208:84,1,75.0000028610231
104,124,43245,1,0,0:0:0:0:
228,180,43542,6,0,P|232:240|248:276,1,75.0000028610231
308,348,44136,1,0,0:0:0:0:
392,224,44433,6,0,P|412:212|440:212,2,37.5000014305115,0|0|0,0:0|0:0|0:0,0:0:0:0:
264,300,45027,1,0,0:0:0:0:
120,264,45324,5,0,0:0:0:0:
220,152,45621,1,0,0:0:0:0:
280,288,45918,1,0,0:0:0:0:
144,228,46215,6,0,P|96:220|64:200,2,75.0000028610231,0|0|0,0:0|0:0|0:0,0:0:0:0:
292,208,47106,2,0,P|324:184|332:160,1,37.5000014305115
300,116,47403,2,0,P|260:108|248:112,1,37.5000014305115
212,160,47700,2,0,P|224:192|256:208,1,37.5000014305115
392,256,47997,6,0,P|432:204|436:172,1,75.0000028610231
424,152,48443,1,0,0:0:0:0:
388,124,48591,1,0,0:0:0:0:
196,64,48888,6,0,P|140:72|112:112,1,100
112,204,49334,2,0,P|128:260|156:292,1,100
216,212,49779,2,0,P|228:160|224:108,1,100
140,80,50225,1,0,0:0:0:0:
120,176,50373,2,0,P|188:212|220:212,2,100,0|0|0,0:0|0:0|0:0,0:0:0:0:
68,88,51116,5,0,0:0:0:0:
164,52,51265,2,0,L|216:72,1,50
284,136,51562,2,0,L|336:104,1,50
424,80,51859,2,0,L|472:116,1,50
376,160,52156,2,0,L|332:120,1,50
252,76,52453,6,0,P|200:108|176:148,1,100
276,164,52898,2,0,P|316:132|308:76,1,100
220,120,53344,2,0,P|216:192|244:224,2,100
380,60,54235,2,0,P|436:40|476:52,2,100,0|0|0,0:0|0:0|0:0,0:0:0:0:
300,120,54977,5,0,0:0:0:0:
260,200,55126,2,0,L|280:248,1,50
372,280,55423,2,0,L|392:224,1,50
252,264,55720,2,0,L|260:316,1,50
316,228,56017,6,0,P|272:200|208:208,1,100
128,216,56463,1,0,0:0:0:0:
52,152,56611,2,0,P|64:96|112:88,1,100
200,100,57057,1,0,0:0:0:0:
300,88,57205,2,0,P|352:108|412:112,2,100,0|0|0,0:0|0:0|0:0,0:0:0:0:
200,80,57948,6,0,P|168:108|156:136,1,50
180,212,58245,2,0,P|216:176|216:168,1,50
116,204,58542,1,0,0:0:0:0:
84,288,58690,6,0,P|84:320|92:332,3,25,0|0|0|0,0:0|0:0|0:0|0:0,0:0:0:0:
32,204,58987,2,0,P|24:232|24:248,3,25,0|0|0|0,0:0|0:0|0:0|0:0,0:0:0:0:
88,112,59284,2,0,L|88:144,3,25,0|0|0|0,0:0|0:0|0:0|0:0,0:0:0:0:
100,172,59581,6,0,P|176:152|256:80,1,150.000005722046,0|0,0:0|0:0,0:0:0:0:
368,44,60027,1,0,0:0:0:0:
352,192,60175,2,0,L|304:252,1,75.0000028610231
172,180,60472,6,0,L|96:128,1,75.0000028610231
248,80,60769,2,0,L|332:88,1,75.0000028610231
292,204,61067,2,0,L|256:272,1,75.0000028610231
108,260,61364,6,0,P|72:188|80:108,1,150.000005722046
196,32,61809,1,0,0:0:0:0:
288,152,61958,2,0,P|200:196|168:188,1,75.0000028610231
240,44,62255,6,0,P|284:36|328:40,1,75.0000028610231
448,104,62552,2,0,P|464:140|460:188,1,75.0000028610231
332,284,62849,2,0,P|312:236|324:192,1,75.0000028610231
440,132,63146,6,0,P|396:192|312:212,1,150.000005722046
176,208,63591,1,0,0:0:0:0:
56,116,63740,6,0,P|48:36|48:28,1,75.0000028610231
192,80,64037,2,0,P|200:136|192:176,1,75.0000028610231
152,40,64334,2,0,P|200:32|244:44,1,75.0000028610231
352,120,64631,2,0,P|336:172|308:208,1,75.0000028610231
176,216,64928,6,0,P|152:188|156:136,2,75.0000028610231
312,152,65373,2,0,P|284:120|240:120,1,75.0000028610231
264,268,65670,1,0,0:0:0:0:
368,160,65819,6,0,P|368:80|364:68,1,75.0000028610231
220,68,66116,2,0,P|148:56|92:64,1,75.0000028610231
60,180,66413,1,0,0:0:0:0:
168,288,66562,5,0,0:0:0:0:
184,304,66636,1,0,0:0:0:0:
204,316,66710,2,0,P|248:316|336:244,1,150.000005722046,0|0,0:0|0:0,0:0:0:0:
288,112,67156,2,0,P|320:40|400:16,1,150.000005722046
408,164,67601,2,0,P|340:204|236:188,1,150.000005722046
120,204,68047,2,0,L|204:176,1,75.0000028610231
316,92,68344,1,0,0:0:0:0:
464,100,68492,6,0,P|428:176|352:232,1,150.000005722046
288,340,68938,2,0,P|224:352|152:312,1,150.000005722046
60,196,69383,2,0,P|40:148|48:112,2,75.0000028610231,0|0|0,0:0|0:0|0:0,0:0:0:0:
204,244,69829,5,0,0:0:0:0:
352,220,69977,2,0,P|368:176|356:140,1,75.0000028610231
268,32,70274,2,0,P|196:72|160:140,1,150.000005722046
276,232,70720,2,0,P|324:240|356:232,1,75.0000028610231
436,112,71017,1,0,0:0:0:0:
288,80,71166,2,0,P|276:144|316:228,1,150.000005722046
456,248,71611,5,0,0:0:0:0:
312,208,71760,2,0,L|244:256,1,75.0000028610231
100,264,72057,2,0,P|64:192|72:116,1,150.000005722046
184,28,72502,5,0,0:0:0:0:
304,120,72651,2,0,L|240:172,1,75.0000028610231
100,208,72948,2,0,P|72:136|124:80,1,150.000005722046
256,48,73393,1,0,0:0:0:0:
236,196,73542,2,0,P|184:172|172:152,1,75.0000028610231
288,60,73839,6,0,P|360:32|440:48,1,150.000005722046
500,176,74284,1,0,0:0:0:0:
396,284,74433,2,0,P|356:312|320:320,1,75.0000028610231
184,284,74730,6,0,P|144:268|120:228,1,75.0000028610231
152,96,75027,2,0,P|180:80|224:80,1,75.0000028610231
336,176,75324,2,0,P|332:220|308:248,1,75.0000028610231
140,220,75621,2,0,B|96:256|96:256|68:324|68:324|108:324,2,150.000005722046
212,36,76364,1,0,0:0:0:0:
356,72,76512,1,0,0:0:0:0:
240,168,76661,1,0,0:0:0:0:
260,20,76809,1,0,0:0:0:0:
376,120,76958,1,0,0:0:0:0:
228,136,77106,1,0,0:0:0:0:
320,16,77255,5,0,0:0:0:0:
368,160,77403,2,0,P|296:176|264:112,1,150.000005722046
140,32,77849,2,0,P|124:92|140:124,1,75.0000028610231
252,184,78146,1,0,0:0:0:0:
168,60,78294,2,0,P|124:68|84:92,1,75.0000028610231
308,168,78591,2,0,P|356:164|384:144,1,75.0000028610231
212,128,78888,2,0,P|208:176|224:224,1,75.0000028610231
336,272,79185,6,0,P|416:288|480:248,2,150.000005722046,0|0|0,0:0|0:0|0:0,0:0:0:0:
248,152,79928,1,0,0:0:0:0:
396,128,80076,2,0,P|392:188|376:212,1,75.0000028610231
244,248,80373,2,0,L|192:280,1,37.5000014305115
160,236,80521,2,0,L|152:272,1,37.5000014305115
104,288,80670,2,0,P|52:264|48:236,1,75.0000028610231
88,104,80968,6,0,P|124:72|220:76,1,150.000005722046
356,140,81413,1,0,0:0:0:0:
216,192,81562,2,0,P|208:148|224:108,1,75.0000028610231
336,68,81859,2,0,P|368:64|416:84,1,75.0000028610231
312,200,82156,2,0,P|284:164|280:124,1,75.0000028610231
432,136,82453,2,0,P|424:176|388:208,1,75.0000028610231
280,288,82750,6,0,P|224:304|160:296,2,100
396,180,83641,2,0,P|412:136|404:80,2,100
104,228,84532,1,0,0:0:0:0:
156,88,84829,6,0,P|200:64|240:56,1,75.0000028610231
344,68,85423,1,0,0:0:0:0:
376,216,85720,2,0,P|296:256|232:244,2,150.000005722046,0|0|0,0:0|0:0|0:0,0:0:0:0:
344,68,87205,1,0,0:0:0:0:
196,92,87502,2,0,P|152:116|140:136,1,75.0000028610231
164,284,88096,5,0,0:0:0:0:
272,180,88393,2,0,P|296:144|296:108,1,75.0000028610231
152,156,88987,5,0,0:0:0:0:
336,200,89284,2,0,P|352:164|352:120,1,75.0000028610231
208,172,89878,5,0,0:0:0:0:
380,216,90175,2,0,P|392:136|348:80,2,150.000005722046
