osu file format v14

[General]
AudioFilename: URF-SZvO5Yg.mp3
AudioLeadIn: 0
PreviewTime: 46676
Countdown: 0
SampleSet: Normal
StackLeniency: 0.7
Mode: 1
LetterboxInBreaks: 0
WidescreenStoryboard: 0

[Editor]
DistanceSpacing: 0.5
BeatDivisor: 4
GridSize: 32
TimelineZoom: 1.379999

[Metadata]
Title:Star map
TitleUnicode:Star map
Artist:Shimotsuki Haruka
ArtistUnicode:霜月はるか
Creator:BlackHairEND
Version:Muzukashii
Source:見上げてごらん、夜空の星を
Tags:PULLTOP eroge visual novel opening miagete goran yozora no hoshi o JUDYDANNY
BeatmapID:768749
BeatmapSetID:347598

[Difficulty]
HPDrainRate:6
CircleSize:5
OverallDifficulty:5
ApproachRate:5
SliderMultiplier:1.4
SliderTickRate:1

[Events]
//Background and Video events
0,0,"Kusakabe Korona.jpg",0,45
//Break Periods
//Storyboard Layer 0 (Background)
//Storyboard Layer 1 (Fail)
//Storyboard Layer 2 (Pass)
//Storyboard Layer 3 (Foreground)
//Storyboard Sound Samples

[TimingPoints]
571,315.789473684211,4,1,0,80,1,0
15571,-100,4,1,0,50,0,0
25676,-100,4,1,0,80,0,0
47307,-100,4,1,0,90,0,1
87728,-100,4,1,0,80,0,0

[HitObjects]
256,192,571,5,2,0:0:0:0:
256,192,886,1,0,0:0:0:0:
256,192,1044,1,2,0:0:0:0:
256,192,1518,1,2,0:0:0:0:
64,160,2465,1,0,0:0:0:0:
256,192,2781,1,2,0:0:0:0:
256,192,3097,1,2,0:0:0:0:
256,192,3413,1,0,0:0:0:0:
256,192,3571,1,2,0:0:0:0:
256,192,4044,1,2,0:0:0:0:
224,192,4992,1,0,0:0:0:0:
256,224,5307,1,2,0:0:0:0:
256,192,5623,1,2,0:0:0:0:
256,192,6097,1,2,0:0:0:0:
160,192,6255,1,0,0:0:0:0:
256,192,6571,1,2,0:0:0:0:
192,160,6886,1,0,0:0:0:0:
64,160,7518,1,0,0:0:0:0:
256,192,7834,1,2,0:0:0:0:
256,192,8149,1,2,0:0:0:0:
256,192,8623,1,2,0:0:0:0:
64,192,8781,1,0,0:0:0:0:
256,192,9097,1,2,0:0:0:0:
96,192,9413,1,0,0:0:0:0:
224,224,10044,1,2,0:0:0:0:
32,128,10360,1,0,0:0:0:0:
256,192,10676,1,2,0:0:0:0:
256,192,11149,1,2,0:0:0:0:
256,192,11307,1,0,0:0:0:0:
256,192,11623,1,2,0:0:0:0:
256,192,11939,1,0,0:0:0:0:
224,224,12571,1,0,0:0:0:0:
320,256,12886,1,2,0:0:0:0:
192,192,13202,1,0,0:0:0:0:
288,224,13518,1,0,0:0:0:0:
192,96,13676,1,2,0:0:0:0:
288,224,13834,1,0,0:0:0:0:
288,224,14149,1,2,0:0:0:0:
128,160,14307,1,2,0:0:0:0:
160,192,14465,1,0,0:0:0:0:
416,256,14623,1,0,0:0:0:0:
384,256,14939,1,0,0:0:0:0:
384,288,15255,1,2,0:0:0:0:
160,192,15728,1,0,0:0:0:0:
352,224,16676,1,0,0:0:0:0:
288,224,16992,1,0,0:0:0:0:
416,256,17307,1,2,0:0:0:0:
224,160,17465,1,0,0:0:0:0:
448,256,17781,1,2,0:0:0:0:
64,192,18255,1,0,0:0:0:0:
288,224,18571,1,2,0:0:0:0:
128,192,18728,1,2,0:0:0:0:
256,192,19360,1,0,0:0:0:0:
160,192,19518,1,0,0:0:0:0:
96,192,19834,1,2,0:0:0:0:
288,224,19992,1,2,0:0:0:0:
288,256,20307,1,0,0:0:0:0:
288,224,20781,1,2,0:0:0:0:
96,160,21728,1,2,0:0:0:0:
288,224,21886,1,0,0:0:0:0:
416,256,22202,1,2,0:0:0:0:
416,256,22518,1,0,0:0:0:0:
448,256,22834,1,2,0:0:0:0:
64,192,23307,1,2,0:0:0:0:
352,224,23781,1,0,0:0:0:0:
288,224,23939,1,0,0:0:0:0:
96,192,24728,1,2,0:0:0:0:
384,256,24807,1,2,0:0:0:0:
384,256,24886,1,2,0:0:0:0:
160,128,25044,1,2,0:0:0:0:
320,256,25202,1,2,0:0:0:0:
160,192,25518,1,0,0:0:0:0:
320,96,25834,1,2,0:0:0:0:
256,256,26465,1,2,0:0:0:0:
96,192,26781,1,0,0:0:0:0:
256,224,26939,1,0,0:0:0:0:
256,256,27097,1,0,0:0:0:0:
256,192,27728,1,2,0:0:0:0:
416,256,28044,1,0,0:0:0:0:
448,288,28360,1,0,0:0:0:0:
416,256,28676,1,0,0:0:0:0:
416,288,28834,1,0,0:0:0:0:
352,288,28992,1,2,0:0:0:0:
384,288,29307,1,2,0:0:0:0:
384,256,29623,1,0,0:0:0:0:
416,288,29781,1,2,0:0:0:0:
416,288,30255,1,2,0:0:0:0:
288,224,30571,1,0,0:0:0:0:
32,160,30886,1,2,0:0:0:0:
96,192,31518,1,0,0:0:0:0:
256,128,31834,1,2,0:0:0:0:
128,224,32149,1,0,0:0:0:0:
128,160,32307,1,0,0:0:0:0:
384,288,32465,1,0,0:0:0:0:
256,160,32781,1,2,0:0:0:0:
128,192,33097,1,0,0:0:0:0:
416,256,33413,1,0,0:0:0:0:
96,128,33886,1,0,0:0:0:0:
288,224,34044,1,2,0:0:0:0:
256,224,34518,1,6,0:0:0:0:
384,224,34834,1,6,0:0:0:0:
384,224,35149,1,6,0:0:0:0:
128,160,35465,1,6,0:0:0:0:
384,256,35939,1,4,0:0:0:0:
320,288,36886,1,2,0:0:0:0:
64,192,37202,1,0,0:0:0:0:
416,256,37360,1,0,0:0:0:0:
320,288,37676,1,2,0:0:0:0:
320,288,37992,1,2,0:0:0:0:
64,192,38149,1,0,0:0:0:0:
128,160,38465,1,2,0:0:0:0:
288,224,38939,1,0,0:0:0:0:
96,160,39097,1,2,0:0:0:0:
128,192,39413,1,0,0:0:0:0:
128,160,39728,1,2,0:0:0:0:
352,224,40202,1,2,0:0:0:0:
320,224,40360,1,0,0:0:0:0:
64,160,40518,1,0,0:0:0:0:
256,224,40676,1,2,0:0:0:0:
96,160,40992,1,4,0:0:0:0:
128,192,41307,1,0,0:0:0:0:
416,256,41623,1,2,0:0:0:0:
416,256,41781,1,0,0:0:0:0:
192,192,42097,1,2,0:0:0:0:
256,192,42571,1,0,0:0:0:0:
64,192,42886,1,2,0:0:0:0:
352,288,43202,1,0,0:0:0:0:
320,224,43518,1,2,0:0:0:0:
160,192,43834,1,0,0:0:0:0:
288,224,43992,1,2,0:0:0:0:
288,224,44149,1,2,0:0:0:0:
288,224,44307,1,0,0:0:0:0:
96,192,44623,1,6,0:0:0:0:
128,192,44939,1,4,0:0:0:0:
320,224,45255,1,4,0:0:0:0:
320,256,45571,1,6,0:0:0:0:
192,192,46044,5,0,0:0:0:0:
320,224,46360,1,2,0:0:0:0:
128,192,46676,1,0,0:0:0:0:
384,288,46755,1,0,0:0:0:0:
96,160,46834,1,0,0:0:0:0:
352,256,46992,1,2,0:0:0:0:
160,128,47307,1,4,0:0:0:0:
256,224,47623,1,2,0:0:0:0:
96,160,47781,1,0,0:0:0:0:
320,192,48097,1,0,0:0:0:0:
320,224,48255,1,2,0:0:0:0:
320,224,48413,1,2,0:0:0:0:
256,192,48728,1,0,0:0:0:0:
224,160,48807,1,0,0:0:0:0:
192,160,48886,1,0,0:0:0:0:
384,256,49044,1,2,0:0:0:0:
192,192,49518,1,2,0:0:0:0:
192,160,49834,1,0,0:0:0:0:
288,192,50149,1,0,0:0:0:0:
96,160,50307,1,2,0:0:0:0:
288,256,50623,1,0,0:0:0:0:
352,128,50702,1,0,0:0:0:0:
288,96,50781,1,0,0:0:0:0:
416,256,50939,1,2,0:0:0:0:
256,224,51255,1,0,0:0:0:0:
288,256,51413,1,2,0:0:0:0:
416,288,51728,1,0,0:0:0:0:
448,320,51886,1,0,0:0:0:0:
96,192,52360,1,6,0:0:0:0:
352,288,52676,1,2,0:0:0:0:
352,288,52834,1,0,0:0:0:0:
160,128,53149,1,2,0:0:0:0:
160,160,53228,1,2,0:0:0:0:
256,192,53307,1,2,0:0:0:0:
192,160,53465,1,0,0:0:0:0:
256,224,53781,1,0,0:0:0:0:
288,256,53939,1,0,0:0:0:0:
192,192,54097,1,2,0:0:0:0:
288,192,54571,1,2,0:0:0:0:
96,160,54886,1,2,0:0:0:0:
416,160,55044,1,0,0:0:0:0:
288,256,55202,1,0,0:0:0:0:
416,320,55360,1,2,0:0:0:0:
96,192,55676,1,2,0:0:0:0:
256,224,55834,1,0,0:0:0:0:
288,256,55992,1,6,0:0:0:0:
448,352,56307,1,6,0:0:0:0:
288,256,56623,1,6,0:0:0:0:
448,352,56939,1,6,0:0:0:0:
128,160,57413,1,4,0:0:0:0:
128,192,57728,1,0,0:0:0:0:
288,224,57886,1,2,0:0:0:0:
192,160,58202,1,0,0:0:0:0:
288,192,58360,1,0,0:0:0:0:
288,192,58518,1,2,0:0:0:0:
224,256,58834,1,2,0:0:0:0:
288,256,58992,1,0,0:0:0:0:
416,320,59149,1,2,0:0:0:0:
256,224,59623,1,2,0:0:0:0:
416,288,59939,1,0,0:0:0:0:
448,352,60097,1,2,0:0:0:0:
448,320,60255,1,2,0:0:0:0:
128,192,60413,1,0,0:0:0:0:
128,192,60728,1,2,0:0:0:0:
352,256,61044,1,0,0:0:0:0:
352,256,61123,1,0,0:0:0:0:
352,256,61202,1,0,0:0:0:0:
352,256,61360,1,0,0:0:0:0:
352,256,61518,1,2,0:0:0:0:
256,192,61834,1,0,0:0:0:0:
256,192,61992,1,2,0:0:0:0:
256,192,62465,1,6,0:0:0:0:
96,128,62781,1,0,0:0:0:0:
96,192,62939,1,0,0:0:0:0:
320,256,63255,1,0,0:0:0:0:
288,224,63413,1,2,0:0:0:0:
288,224,63571,1,0,0:0:0:0:
384,288,64044,1,2,0:0:0:0:
384,288,64360,1,2,0:0:0:0:
384,288,64518,1,0,0:0:0:0:
384,288,64676,1,0,0:0:0:0:
352,256,64992,1,4,0:0:0:0:
160,160,65307,1,0,0:0:0:0:
128,160,65623,1,6,0:0:0:0:
256,128,65939,1,2,0:0:0:0:
352,256,66255,1,0,0:0:0:0:
288,192,66413,1,2,0:0:0:0:
288,192,66571,1,2,0:0:0:0:
288,192,66728,1,0,0:0:0:0:
160,160,67044,1,2,0:0:0:0:
256,224,67202,1,0,0:0:0:0:
256,224,67360,1,2,0:0:0:0:
224,160,67518,1,6,0:0:0:0:
448,288,67834,1,0,0:0:0:0:
192,160,67992,1,2,0:0:0:0:
320,192,68308,1,0,0:0:0:0:
416,352,68386,1,0,0:0:0:0:
320,224,68466,1,0,0:0:0:0:
320,224,68624,1,2,0:0:0:0:
256,192,68939,1,2,0:0:0:0:
192,160,69097,1,0,0:0:0:0:
384,256,69255,1,2,0:0:0:0:
192,192,69729,1,2,0:0:0:0:
192,160,70044,1,0,0:0:0:0:
448,128,70202,1,0,0:0:0:0:
288,192,70360,1,2,0:0:0:0:
96,160,70518,1,2,0:0:0:0:
288,256,70834,1,0,0:0:0:0:
416,320,70992,1,0,0:0:0:0:
416,256,71150,1,2,0:0:0:0:
256,224,71466,1,0,0:0:0:0:
416,288,71623,1,2,0:0:0:0:
448,320,72097,1,0,0:0:0:0:
96,192,72571,1,6,0:0:0:0:
352,288,72887,1,2,0:0:0:0:
352,288,73045,1,0,0:0:0:0:
256,192,73360,1,2,0:0:0:0:
224,128,73439,1,2,0:0:0:0:
192,160,73518,1,2,0:0:0:0:
384,256,73676,1,0,0:0:0:0:
288,256,73992,1,2,0:0:0:0:
192,192,74150,1,0,0:0:0:0:
256,224,74307,1,2,0:0:0:0:
288,192,74781,1,2,0:0:0:0:
96,160,75097,1,2,0:0:0:0:
288,128,75255,1,0,0:0:0:0:
288,256,75413,1,0,0:0:0:0:
416,320,75571,1,2,0:0:0:0:
96,192,75887,1,0,0:0:0:0:
256,224,76045,1,0,0:0:0:0:
288,256,76202,1,6,0:0:0:0:
448,352,76518,1,6,0:0:0:0:
288,256,76834,1,6,0:0:0:0:
448,352,77150,1,6,0:0:0:0:
224,256,77623,1,6,0:0:0:0:
256,192,77939,1,0,0:0:0:0:
288,224,78097,1,2,0:0:0:0:
192,160,78413,1,0,0:0:0:0:
288,192,78571,1,2,0:0:0:0:
288,192,78728,1,2,0:0:0:0:
224,256,79044,1,0,0:0:0:0:
416,320,79360,1,2,0:0:0:0:
288,192,79834,1,2,0:0:0:0:
96,192,80149,1,0,0:0:0:0:
448,320,80465,1,0,0:0:0:0:
128,192,80623,1,2,0:0:0:0:
384,288,80781,1,2,0:0:0:0:
128,192,80939,1,0,0:0:0:0:
352,256,81255,1,0,0:0:0:0:
352,256,81571,1,0,0:0:0:0:
352,256,81728,1,2,0:0:0:0:
256,192,82044,1,0,0:0:0:0:
256,192,82202,1,2,0:0:0:0:
160,160,82360,1,0,0:0:0:0:
256,192,82676,1,2,0:0:0:0:
416,224,82834,1,2,0:0:0:0:
160,192,82992,1,0,0:0:0:0:
64,192,83149,1,0,0:0:0:0:
96,192,83307,1,2,0:0:0:0:
288,224,83623,1,0,0:0:0:0:
288,160,83939,1,2,0:0:0:0:
384,288,84255,1,2,0:0:0:0:
384,288,84413,1,0,0:0:0:0:
384,288,84571,1,2,0:0:0:0:
384,288,84886,1,0,0:0:0:0:
128,160,85202,1,6,0:0:0:0:
224,192,85518,1,0,0:0:0:0:
352,256,85834,1,6,0:0:0:0:
320,256,85992,1,0,0:0:0:0:
192,160,86149,1,0,0:0:0:0:
416,288,86307,1,2,0:0:0:0:
416,288,86386,1,2,0:0:0:0:
416,288,86465,1,2,0:0:0:0:
128,192,86623,1,2,0:0:0:0:
416,224,86939,1,0,0:0:0:0:
416,224,87255,1,0,0:0:0:0:
416,256,87413,1,0,0:0:0:0:
96,160,87728,1,6,0:0:0:0:
