osu file format v14

[General]
AudioFilename: URF-SZvO5Yg.mp3
AudioLeadIn: 0
PreviewTime: 46676
Countdown: 0
SampleSet: Normal
StackLeniency: 0.7
Mode: 1
LetterboxInBreaks: 0
WidescreenStoryboard: 0

[Editor]
DistanceSpacing: 0.5
BeatDivisor: 2
GridSize: 32
TimelineZoom: 0.6799989

[Metadata]
Title:Star map
TitleUnicode:Star map
Artist:Shimotsuki Haruka
ArtistUnicode:霜月はるか
Creator:BlackHairEND
Version:Futsuu
Source:見上げてごらん、夜空の星を
Tags:PULLTOP eroge visual novel opening miagete goran yozora no hoshi o JUDYDANNY
BeatmapID:768827
BeatmapSetID:347598

[Difficulty]
HPDrainRate:7
CircleSize:5
OverallDifficulty:4
ApproachRate:4
SliderMultiplier:1.3
SliderTickRate:1

[Events]
//Background and Video events
0,0,"yozora_MV.jpg",0,105
//Break Periods
//Storyboard Layer 0 (Background)
//Storyboard Layer 1 (Fail)
//Storyboard Layer 2 (Pass)
//Storyboard Layer 3 (Foreground)
//Storyboard Sound Samples

[TimingPoints]
571,315.789473684211,4,1,0,80,1,0
15571,-100,4,1,0,50,0,0
25676,-100,4,1,0,80,0,0
47307,-100,4,1,0,90,0,1
87728,-100,4,1,0,80,0,0

[HitObjects]
256,128,571,5,2,0:0:0:0:
96,160,3097,5,2,0:0:0:0:
256,192,5623,5,0,0:0:0:0:
256,192,6255,1,2,0:0:0:0:
256,192,6571,1,0,0:0:0:0:
256,192,7518,1,2,0:0:0:0:
128,160,7834,1,0,0:0:0:0:
256,192,8149,1,0,0:0:0:0:
96,192,8781,1,2,0:0:0:0:
96,160,9097,1,0,0:0:0:0:
224,224,9413,1,0,0:0:0:0:
64,128,10044,1,2,0:0:0:0:
256,192,10676,5,0,0:0:0:0:
256,192,11307,1,2,0:0:0:0:
256,192,11623,1,0,0:0:0:0:
224,224,12571,1,2,0:0:0:0:
192,192,13202,1,0,0:0:0:0:
288,224,13518,1,0,0:0:0:0:
288,224,13834,1,0,0:0:0:0:
192,128,14149,1,0,0:0:0:0:
160,192,14465,1,2,0:0:0:0:
384,256,14939,1,0,0:0:0:0:
160,192,15255,1,2,0:0:0:0:
288,224,15728,5,0,0:0:0:0:
192,192,16676,1,2,0:0:0:0:
288,224,16992,1,0,0:0:0:0:
416,256,17465,1,2,0:0:0:0:
448,256,17781,1,2,0:0:0:0:
64,192,18255,1,0,0:0:0:0:
96,192,19518,1,0,0:0:0:0:
288,224,19992,1,0,0:0:0:0:
288,256,20307,1,2,0:0:0:0:
288,224,20781,5,0,0:0:0:0:
96,160,21886,1,2,0:0:0:0:
416,256,22202,1,2,0:0:0:0:
416,256,22518,1,0,0:0:0:0:
448,256,22834,1,2,0:0:0:0:
64,192,23307,1,2,0:0:0:0:
96,160,23939,1,0,0:0:0:0:
128,160,25202,1,2,0:0:0:0:
384,256,25518,1,0,0:0:0:0:
416,288,25834,5,0,0:0:0:0:
256,256,26465,1,2,0:0:0:0:
288,160,26781,1,0,0:0:0:0:
256,256,27097,1,0,0:0:0:0:
96,192,27413,1,0,0:0:0:0:
256,192,27728,1,2,0:0:0:0:
448,288,28360,1,0,0:0:0:0:
352,288,28992,1,2,0:0:0:0:
384,64,29307,1,2,0:0:0:0:
224,160,29623,1,0,0:0:0:0:
96,160,29939,1,0,0:0:0:0:
288,224,30255,1,0,0:0:0:0:
32,160,30886,5,6,0:0:0:0:
96,192,31518,1,2,0:0:0:0:
128,224,32149,1,0,0:0:0:0:
384,288,32781,1,2,0:0:0:0:
416,256,33413,1,2,0:0:0:0:
256,224,34518,1,6,0:0:0:0:
384,224,34834,1,6,0:0:0:0:
384,224,35149,1,6,0:0:0:0:
128,160,35465,1,6,0:0:0:0:
384,256,35939,5,4,0:0:0:0:
160,160,36886,1,0,0:0:0:0:
64,192,37202,1,2,0:0:0:0:
320,288,37834,1,2,0:0:0:0:
64,192,38149,1,0,0:0:0:0:
128,160,38465,1,2,0:0:0:0:
128,160,39097,1,0,0:0:0:0:
128,192,39728,1,2,0:0:0:0:
416,288,40202,1,0,0:0:0:0:
352,224,40360,1,0,0:0:0:0:
256,224,40676,1,2,0:0:0:0:
96,160,40992,5,0,0:0:0:0:
416,256,41623,1,2,0:0:0:0:
192,192,42097,1,2,0:0:0:0:
128,160,42571,1,2,0:0:0:0:
224,96,42886,1,2,0:0:0:0:
320,224,43518,1,0,0:0:0:0:
288,224,44149,1,2,0:0:0:0:
96,192,44623,1,4,0:0:0:0:
128,192,44939,1,4,0:0:0:0:
320,224,45255,1,4,0:0:0:0:
320,256,45571,1,4,0:0:0:0:
128,192,46676,1,0,0:0:0:0:
352,256,46992,1,2,0:0:0:0:
160,128,47307,5,4,0:0:0:0:
96,192,47623,1,0,0:0:0:0:
160,192,47781,1,0,0:0:0:0:
320,224,48097,1,2,0:0:0:0:
320,224,48413,1,2,0:0:0:0:
256,192,48728,1,0,0:0:0:0:
384,256,49044,1,2,0:0:0:0:
192,160,49834,1,0,0:0:0:0:
96,160,50149,1,0,0:0:0:0:
96,160,50307,1,0,0:0:0:0:
288,256,50623,1,0,0:0:0:0:
416,256,50939,1,2,0:0:0:0:
288,256,51413,1,2,0:0:0:0:
224,128,51728,1,2,0:0:0:0:
448,320,51886,1,2,0:0:0:0:
96,192,52360,5,6,0:0:0:0:
160,128,53149,1,2,0:0:0:0:
192,160,53465,1,2,0:0:0:0:
256,224,53781,1,0,0:0:0:0:
192,192,54097,1,2,0:0:0:0:
96,160,54886,1,2,0:0:0:0:
320,288,55202,1,0,0:0:0:0:
416,320,55360,1,0,0:0:0:0:
256,224,55676,1,0,0:0:0:0:
288,256,55992,1,6,0:0:0:0:
448,352,56307,1,6,0:0:0:0:
288,256,56623,1,6,0:0:0:0:
448,352,56939,1,6,0:0:0:0:
224,256,57413,5,6,0:0:0:0:
192,160,58202,1,2,0:0:0:0:
192,96,58360,1,2,0:0:0:0:
288,192,58518,1,2,0:0:0:0:
224,256,58834,1,0,0:0:0:0:
416,320,59149,1,2,0:0:0:0:
192,160,59939,1,0,0:0:0:0:
448,288,60255,1,0,0:0:0:0:
96,160,60413,1,0,0:0:0:0:
288,256,60728,1,0,0:0:0:0:
416,256,61044,1,2,0:0:0:0:
288,256,61518,1,2,0:0:0:0:
128,128,61834,1,2,0:0:0:0:
448,320,61992,1,2,0:0:0:0:
96,192,62465,5,6,0:0:0:0:
320,288,63097,1,0,0:0:0:0:
288,224,63413,1,2,0:0:0:0:
384,288,64044,1,2,0:0:0:0:
384,288,64360,1,0,0:0:0:0:
160,192,64518,1,0,0:0:0:0:
352,256,64992,1,4,0:0:0:0:
128,160,65623,1,6,0:0:0:0:
352,256,66255,1,4,0:0:0:0:
192,160,66728,1,2,0:0:0:0:
256,224,67202,1,2,0:0:0:0:
224,160,67518,5,4,0:0:0:0:
448,288,67834,1,0,0:0:0:0:
448,288,67992,1,0,0:0:0:0:
320,224,68307,1,2,0:0:0:0:
320,224,68623,1,2,0:0:0:0:
256,192,68939,1,0,0:0:0:0:
384,256,69255,1,2,0:0:0:0:
192,160,70044,1,0,0:0:0:0:
480,320,70360,1,0,0:0:0:0:
96,160,70518,1,0,0:0:0:0:
288,256,70834,1,0,0:0:0:0:
416,256,71149,1,2,0:0:0:0:
256,224,71623,1,2,0:0:0:0:
448,320,72097,1,2,0:0:0:0:
96,192,72571,5,6,0:0:0:0:
448,256,72886,1,0,0:0:0:0:
448,256,73044,1,0,0:0:0:0:
160,128,73360,1,2,0:0:0:0:
192,160,73676,1,2,0:0:0:0:
256,224,73992,1,0,0:0:0:0:
192,192,74307,1,2,0:0:0:0:
96,160,75097,1,0,0:0:0:0:
448,320,75413,1,0,0:0:0:0:
416,320,75571,1,0,0:0:0:0:
256,224,75886,1,0,0:0:0:0:
288,256,76202,1,6,0:0:0:0:
448,352,76518,1,6,0:0:0:0:
288,256,76834,1,6,0:0:0:0:
448,352,77149,1,6,0:0:0:0:
224,256,77623,5,6,0:0:0:0:
288,192,78571,1,2,0:0:0:0:
288,192,78728,1,2,0:0:0:0:
224,256,79044,1,0,0:0:0:0:
416,320,79360,1,2,0:0:0:0:
96,192,80149,1,0,0:0:0:0:
448,320,80465,1,0,0:0:0:0:
128,192,80781,1,2,0:0:0:0:
352,256,81255,1,0,0:0:0:0:
352,256,81728,1,2,0:0:0:0:
256,192,82044,1,0,0:0:0:0:
160,160,82360,1,0,0:0:0:0:
256,192,82676,5,2,0:0:0:0:
416,224,83307,1,0,0:0:0:0:
160,128,83623,1,0,0:0:0:0:
288,160,83939,1,2,0:0:0:0:
192,160,84571,1,0,0:0:0:0:
352,192,84886,1,0,0:0:0:0:
128,160,85202,1,6,0:0:0:0:
160,128,85834,1,6,0:0:0:0:
416,224,86307,1,2,0:0:0:0:
416,224,86623,1,2,0:0:0:0:
416,288,86939,1,0,0:0:0:0:
128,192,87255,1,0,0:0:0:0:
192,128,87728,5,6,0:0:0:0:
