osu file format v12

[General]
AudioFilename: 06 Snowdrop.mp3
AudioLeadIn: 3000
PreviewTime: 57196
Countdown: 0
SampleSet: Soft
StackLeniency: 0.4
Mode: 0
LetterboxInBreaks: 1

[Editor]
Bookmarks: 188025
DistanceSpacing: 1.1
BeatDivisor: 4
GridSize: 4

[Metadata]
Title:Snowdrop
TitleUnicode:Snowdrop
Artist:Shimotsuki Haruka
ArtistUnicode:霜月はるか
Creator:KaNeyome
Version:Hope
Source:クロウカシス 七凭キノ贽
Tags:Innocent Grey
BeatmapID:227139
BeatmapSetID:81963

[Difficulty]
HPDrainRate:6
CircleSize:5
OverallDifficulty:7
ApproachRate:8
SliderMultiplier:1.2
SliderTickRate:1

[Events]
//Background and Video events
0,0,"2ab6aa5494eef01fe6addb05e0fe9925bd317d6b.jpg",0,0
//Break Periods
2,87396,93014
2,165680,187275
//Storyboard Layer 0 (Background)
//Storyboard Layer 1 (Fail)
//Storyboard Layer 2 (Pass)
//Storyboard Layer 3 (Foreground)
//Storyboard Sound Samples
//Background Colour Transformations
3,100,163,162,255

[TimingPoints]
747,710.059171597633,4,2,0,35,1,0
56841,-57.1428571428571,4,2,0,35,0,0
57551,-57.1428571428571,4,2,0,35,0,1
83113,-100,4,2,0,35,0,0
94474,-76.9230769230769,4,2,0,35,0,0
134238,-100,4,2,0,35,0,0
137078,-57.1428571428571,4,2,0,35,0,0
139918,-57.1428571428571,4,2,0,35,0,1
165480,-100,4,2,0,35,0,0
211634,-76.9230769230769,4,2,0,35,0,0
212699,-57.1428571428571,4,2,0,35,0,0
213764,-57.1428571428571,4,2,0,35,0,1
218735,-57.1428571428571,4,2,0,35,0,0
219445,-57.1428571428571,4,2,0,35,0,1
239326,-100,4,2,0,5,0,0

[Colours]
Combo1 : 53,53,53
Combo2 : 10,235,111
Combo3 : 218,218,254
Combo4 : 251,40,40

[HitObjects]
136,152,747,2,0,P|152:128|176:128,1,30
176,112,1102,1,0,0:0:0:0:
208,104,1279,1,0,0:0:0:0:
328,112,1989,6,0,P|392:136|416:160,1,90
448,232,2877,1,0,0:0:0:0:
376,288,3232,1,0,0:0:0:0:
312,224,3587,2,0,P|272:200|208:200,1,90
148,232,4474,1,0,0:0:0:0:
220,284,4829,1,0,0:0:0:0:
220,284,5717,1,0,0:0:0:0:
220,284,6249,5,0,0:0:0:0:
220,284,6427,2,0,P|172:260|164:244,1,60
148,232,6960,1,0,0:0:0:0:
264,96,7670,6,0,P|296:136|360:144,1,90
416,176,8557,2,0,P|416:224|392:248,1,60
324,236,9267,2,0,B|256:252|288:188|316:156,1,120
336,136,10155,1,0,0:0:0:0:
336,136,10687,1,0,0:0:0:0:
336,136,12107,6,0,P|284:120|272:120,1,60
244,116,12640,1,0,0:0:0:0:
144,152,13173,5,0,0:0:0:0:
176,168,13350,1,0,0:0:0:0:
200,196,13528,2,0,B|212:228|204:256|204:256|240:256|264:276,1,120
316,316,14948,2,0,P|388:336|416:316,1,90
368,252,16013,5,0,0:0:0:0:
372,216,16190,1,0,0:0:0:0:
392,188,16368,2,0,P|420:160|440:148,1,60
388,72,17078,2,0,P|348:56|320:56,1,60
256,68,17788,6,0,P|216:92|188:96,1,60
168,108,18320,2,0,P|132:148|128:180,1,60
124,188,18853,5,0,0:0:0:0:
128,224,19031,1,0,0:0:0:0:
144,256,19208,2,0,B|160:288|196:296|196:296|220:268|248:260,1,120
352,180,20628,6,0,P|376:148|380:128,1,60
372,92,21161,1,0,0:0:0:0:
232,64,21871,5,0,0:0:0:0:
208,92,22048,1,0,0:0:0:0:
136,108,22404,1,0,0:0:0:0:
100,100,22581,1,0,0:0:0:0:
72,80,22758,2,0,P|44:60|16:52,1,60
16,124,23468,6,0,P|44:160|76:172,1,60
84,192,24001,2,0,P|108:224|112:264,1,60
116,280,24533,2,0,P|120:316|116:332,1,30
120,348,24889,1,0,0:0:0:0:
0,288,25599,1,0,0:0:0:0:
0,288,26309,6,0,B|28:252|24:208|24:208|68:184|112:196,1,150
120,192,27374,1,0,0:0:0:0:
156,204,27551,2,0,P|196:228|240:232,1,90
308,216,28439,2,0,P|344:200|364:164,1,60,0|0,0:0|0:0,0:0:0:0:
372,152,28971,1,0,0:0:0:0:
380,116,29149,1,0,0:0:0:0:
168,72,30214,6,0,L|140:144,1,60
216,144,30924,2,0,L|240:220,1,60
234,201,31634,1,0,0:0:0:0:
234,201,31989,2,0,P|288:200|344:232,1,120
344,232,33054,1,0,0:0:0:0:
272,288,33409,1,0,0:0:0:0:
292,200,33764,1,0,0:0:0:0:
352,132,34119,1,0,0:0:0:0:
276,84,34474,1,0,0:0:0:0:
188,68,34829,6,0,P|140:60|104:64,1,60
84,68,35362,1,0,0:0:0:0:
40,72,35539,1,0,0:0:0:0:
4,100,35717,1,0,0:0:0:0:
32,136,35894,2,0,P|68:172|80:196,1,60
112,260,36604,1,0,0:0:0:0:
112,352,36960,1,0,0:0:0:0:
32,312,37315,1,0,0:0:0:0:
32,312,37670,6,0,P|64:284|104:268,1,60
112,260,38202,2,0,P|160:244|192:244,1,60
212,248,38735,1,0,0:0:0:0:
276,312,39090,6,0,P|308:332|348:316,1,60
360,244,39800,2,0,P|339:246|307:226,1,60
372,164,40510,5,0,0:0:0:0:
416,84,40865,1,0,0:0:0:0:
460,164,41220,1,0,0:0:0:0:
372,164,41575,1,0,0:0:0:0:
372,164,41930,2,0,P|356:140|384:108,1,60
416,84,42640,2,0,P|388:108|344:112,1,60
368,112,43350,6,0,B|368:80|348:56|348:56|304:72|284:104,1,120
240,220,44770,2,0,B|240:252|220:276|220:276|176:260|156:228,1,120
196,116,46190,5,0,0:0:0:0:
164,60,46545,1,0,0:0:0:0:
136,40,46722,1,0,0:0:0:0:
104,32,46900,2,0,B|64:68|64:140|64:140|120:152|168:208,1,240
276,276,49031,6,0,P|316:292|360:288,1,60
328,228,49741,1,0,0:0:0:0:
388,252,50096,1,0,0:0:0:0:
424,188,50451,2,0,P|444:128|440:104,1,60
416,64,51161,2,0,P|360:80|332:72,1,60
324,68,51693,1,0,0:0:0:0:
288,60,51871,6,0,B|236:52|212:32|156:56,1,120
112,92,52936,1,0,0:0:0:0:
96,124,53113,1,0,0:0:0:0:
72,152,53291,2,0,P|36:188|12:192,1,60
16,260,54001,2,0,P|64:284|92:276,1,60
136,264,54711,5,0,0:0:0:0:
256,280,56664,5,0,0:0:0:0:
256,240,56841,2,0,L|256:128,1,105.000001001358
256,92,57374,1,0,0:0:0:0:
248,68,57551,6,0,P|232:52|164:32,1,52.500000500679
168,32,57906,1,0,0:0:0:0:
132,36,58084,1,0,0:0:0:0:
48,116,58439,2,0,P|93:145|117:189,1,105.000001001358
32,212,59326,2,0,P|56:256|112:288,1,105.000001001358
168,248,60036,1,0,0:0:0:0:
196,220,60214,1,0,0:0:0:0:
228,196,60391,2,0,B|256:172|296:160|296:160|304:216|348:232,1,157.500001502037
364,248,61102,6,0,P|424:256|484:184,1,157.500001502037
480,152,61812,2,0,P|452:88|372:56,1,157.500001502037
340,72,62522,2,0,P|264:88|196:36,1,157.500001502037
180,16,63232,1,0,0:0:0:0:
148,36,63409,6,0,P|132:56|96:60,1,52.500000500679
68,60,63764,1,0,0:0:0:0:
60,220,64119,1,0,0:0:0:0:
204,144,64474,1,0,0:0:0:0:
204,144,65007,6,0,P|236:160|272:224,1,105.000001001358
276,256,65539,1,0,0:0:0:0:
264,292,65717,1,0,0:0:0:0:
236,316,65894,1,0,0:0:0:0:
204,336,66072,2,0,P|148:356|44:336,1,157.500001502037
52,304,66782,6,0,P|72:228|24:148,1,157.500001502037
20,128,67492,2,0,P|32:56|140:32,1,157.500001502037
132,40,68202,2,0,P|136:116|240:168,1,157.500001502037
232,168,68912,1,0,0:0:0:0:
280,268,69267,5,0,0:0:0:0:
304,296,69445,1,0,0:0:0:0:
336,316,69622,1,0,0:0:0:0:
400,248,70155,2,0,P|376:228|360:208,1,52.500000500679
312,152,70687,1,0,0:0:0:0:
292,120,70865,1,0,0:0:0:0:
268,92,71042,2,0,P|216:52|168:36,1,105.000001001358
144,36,71575,1,0,0:0:0:0:
132,72,71752,6,0,P|140:125|124:173,1,105.000001001358
68,128,72462,2,0,P|56:160|100:252,1,105.000001001358
124,280,73173,1,0,0:0:0:0:
188,312,73528,2,0,P|220:324|276:316,1,52.500000500679
312,324,74060,1,0,0:0:0:0:
416,92,74593,6,0,P|368:128|344:180,1,105.000001001358
304,228,75303,1,0,0:0:0:0:
280,252,75480,1,0,0:0:0:0:
240,272,75658,1,0,0:0:0:0:
200,276,75835,1,0,0:0:0:0:
160,268,76013,2,0,P|132:224|84:212,1,105.000001001358
52,192,76545,1,0,0:0:0:0:
36,160,76723,6,0,B|40:72|140:36|140:36|176:120|232:152,1,315.000003004074
416,84,78143,6,0,P|396:120|400:140,1,52.500000500679
396,160,78498,1,0,0:0:0:0:
408,188,78675,1,0,0:0:0:0:
420,216,78853,2,0,P|436:284|428:320,1,105.000001001358
408,348,79386,1,0,0:0:0:0:
372,344,79563,6,0,B|300:304|228:312|228:312|216:220|296:148,1,315.000003004074
340,252,80983,6,0,P|392:280|424:284,1,52.500000500679
420,284,81338,1,0,0:0:0:0:
456,280,81516,1,0,0:0:0:0:
484,260,81693,2,0,P|448:200|448:112,1,157.500001502037
412,112,82403,2,0,P|328:188|272:204,1,157.500001502037,0|0,0:0|0:0,0:0:0:0:
264,200,83113,5,0,0:0:0:0:
244,196,83291,1,0,0:0:0:0:
224,184,83468,1,0,0:0:0:0:
212,168,83646,1,0,0:0:0:0:
184,88,84356,6,0,B|188:52|204:28|204:28|160:12,1,90
108,36,85244,1,0,0:0:0:0:
76,100,85599,1,0,0:0:0:0:
68,172,85954,2,0,P|68:200|88:236,1,60
104,256,86486,1,0,0:0:0:0:
172,276,86841,1,0,0:0:0:0:
228,232,87196,1,0,0:0:0:0:
252,224,93764,6,0,P|236:200|232:176,1,30
196,100,94474,2,0,P|224:80|268:72,1,77.9999964294435
312,76,95007,1,0,0:0:0:0:
380,152,95539,5,0,0:0:0:0:
344,164,95717,1,0,0:0:0:0:
312,188,95894,2,0,P|284:232|256:344,1,155.999992858887
440,296,97315,6,0,P|408:240|380:144,1,155.999992858887
304,164,98380,1,0,0:0:0:0:
344,164,98557,1,0,0:0:0:0:
380,152,98735,2,0,P|416:112|416:68,1,77.9999964294435
332,60,99445,2,0,P|276:80|224:68,1,77.9999964294435
164,80,100155,6,0,B|136:104|92:108|92:108|100:136|84:196,1,155.999992858887
64,276,101220,5,0,0:0:0:0:
52,312,101397,1,0,0:0:0:0:
56,352,101575,2,0,B|96:372|128:364|128:364|216:320,1,155.999992858887
272,292,102640,1,0,0:0:0:0:
324,232,102995,1,0,0:0:0:0:
332,156,103350,1,0,0:0:0:0:
364,84,103705,1,0,0:0:0:0:
440,68,104060,5,0,0:0:0:0:
472,88,104238,1,0,0:0:0:0:
480,124,104415,2,0,P|484:176|476:204,1,77.9999964294435
456,240,104948,1,0,0:0:0:0:
432,268,105125,1,0,0:0:0:0:
316,112,105480,5,0,0:0:0:0:
312,148,105658,1,0,0:0:0:0:
300,184,105835,2,0,P|236:224|212:220,1,77.9999964294435,0|0,0:0|0:0,0:0:0:0:
184,220,106368,2,0,P|132:188|116:164,1,77.9999964294435
92,140,106900,1,0,0:0:0:0:
76,104,107078,1,0,0:0:0:0:
64,68,107255,2,0,B|56:32|76:4|76:4|112:4|168:32,1,155.999992858887
240,76,108320,1,0,0:0:0:0:
240,76,108675,2,0,P|248:148|184:196,1,155.999992858887
100,224,109741,6,0,P|68:232|52:252,1,38.9999982147218,0|0,0:0|0:0,0:0:0:0:
28,264,110096,1,0,0:0:0:0:
108,312,110451,1,0,0:0:0:0:
100,220,110806,1,0,0:0:0:0:
192,196,111161,1,0,0:0:0:0:
272,148,111516,6,0,P|300:124|316:92,2,38.9999982147218
232,172,112048,1,0,0:0:0:0:
192,196,112226,1,0,0:0:0:0:
152,112,112581,1,0,0:0:0:0:
240,84,112936,2,0,P|252:136|300:156,1,77.9999964294435
228,232,113646,2,0,P|264:204|272:152,1,77.9999964294435
264,128,114178,1,0,0:0:0:0:
240,84,114356,2,0,P|252:136|300:156,1,77.9999964294435
360,168,115066,5,0,0:0:0:0:
360,168,115421,6,0,L|412:184,1,38.9999982147218
376,220,115776,2,0,L|424:256,1,38.9999982147218
368,268,116131,2,0,L|392:312,1,38.9999982147218
340,312,116486,1,0,0:0:0:0:
248,328,116664,1,0,0:0:0:0:
272,240,116841,1,0,0:0:0:0:
140,304,117196,6,0,B|132:264|104:240|104:240|156:224|164:168,1,155.999992858887
163,187,118261,1,0,0:0:0:0:
163,187,118616,2,0,P|180:116|176:92,1,77.9999964294435
128,36,119326,1,0,0:0:0:0:
76,112,119681,1,0,0:0:0:0:
76,112,120036,6,0,B|80:160|112:184|112:184|164:160|208:168,1,155.999992858887
182,166,121102,1,0,0:0:0:0:
182,166,121457,2,0,P|260:168|284:176,1,77.9999964294435
348,192,122167,2,0,P|400:232|408:248,1,77.9999964294435
416,288,122699,1,0,0:0:0:0:
400,332,122877,6,0,B|392:360|316:320|304:336,1,77.9999964294435,0|0,0:0|0:0,0:0:0:0:
236,324,123587,1,0,0:0:0:0:
180,248,123942,1,0,0:0:0:0:
180,248,124297,2,0,P|156:172|164:144,1,77.9999964294435
232,124,125007,2,0,P|256:200|248:228,1,77.9999964294435,0|0,0:0|0:0,0:0:0:0:
256,195,125539,1,0,0:0:0:0:
256,195,125717,5,0,0:0:0:0:
256,220,126427,1,0,0:0:0:0:
256,244,127137,1,0,0:0:0:0:
256,268,127847,2,0,P|288:312|320:324,1,77.9999964294435
356,328,128380,1,0,0:0:0:0:
400,308,128557,6,0,P|452:264|464:228,1,77.9999964294435
484,168,129267,2,0,B|500:120|484:84|484:84|436:108|392:92,1,155.999992858887
324,92,130332,1,0,0:0:0:0:
288,180,130687,1,0,0:0:0:0:
220,116,131042,1,0,0:0:0:0:
288,180,131397,6,0,P|312:240|312:264,1,77.9999964294435
248,320,132107,2,0,P|220:252|220:228,1,77.9999964294435
220,248,132818,1,0,0:0:0:0:
312,252,133173,1,0,0:0:0:0:
248,320,133528,1,0,0:0:0:0:
212,232,133883,1,0,0:0:0:0:
212,232,134238,6,0,L|212:88,1,120
212,40,135303,1,0,0:0:0:0:
212,40,135480,1,0,0:0:0:0:
212,40,135658,2,0,P|248:72|280:76,1,60
256,148,136368,1,0,0:0:0:0:
256,148,136545,1,0,0:0:0:0:
256,148,137078,1,0,0:0:0:0:
304,288,138143,5,0,0:0:0:0:
392,188,138675,1,0,0:0:0:0:
352,108,139031,1,0,0:0:0:0:
352,108,139208,2,0,P|276:56|248:48,1,105.000001001358
228,52,139741,1,0,0:0:0:0:
192,64,139918,6,0,L|124:100,1,52.500000500679
200,148,140273,2,0,L|156:204,1,52.500000500679
244,216,140806,2,0,L|208:320,1,105.000001001358
209,315,141693,1,0,0:0:0:0:
244,216,142048,1,0,0:0:0:0:
284,120,142403,1,0,0:0:0:0:
324,84,142581,1,0,0:0:0:0:
372,64,142758,2,0,P|432:64|476:80,1,105.000001001358
440,180,143468,6,0,P|376:240|364:280,1,105.000001001358
348,152,144178,2,0,P|272:196|248:232,1,105.000001001358
272,104,144889,2,0,P|180:128|148:160,1,105.000001001358
136,168,145421,1,0,0:0:0:0:
112,216,145599,6,0,P|96:272|96:284,1,52.500000500679
88,316,145954,1,0,0:0:0:0:
84,368,146131,1,0,0:0:0:0:
256,268,146486,5,0,0:0:0:0:
388,116,146841,1,0,0:0:0:0:
136,168,147374,1,0,0:0:0:0:
256,268,147729,5,0,0:0:0:0:
280,220,147906,1,0,0:0:0:0:
320,184,148084,1,0,0:0:0:0:
424,176,148439,2,0,B|360:272|288:168|260:248,1,157.500001502037
232,232,149149,6,0,P|128:284|72:348,1,157.500001502037
60,276,149859,2,0,P|72:164|48:116,1,157.500001502037
88,84,150569,2,0,P|208:120|276:96,1,157.500001502037
236,116,151279,1,0,0:0:0:0:
340,276,151634,5,0,0:0:0:0:
392,264,151812,1,0,0:0:0:0:
424,224,151989,1,0,0:0:0:0:
336,92,152521,1,0,0:0:0:0:
336,92,152699,1,0,0:0:0:0:
160,188,153054,1,0,0:0:0:0:
160,188,153232,1,0,0:0:0:0:
260,80,153942,5,0,0:0:0:0:
260,80,154120,2,0,P|348:144|384:136,1,105.000001001358
260,80,154829,2,0,P|256:184|280:208,1,105.000001001358
260,80,155539,2,0,P|172:140|160:172,1,105.000001001358
174,135,156072,1,0,0:0:0:0:
336,144,156427,1,0,0:0:0:0:
372,180,156604,5,0,0:0:0:0:
384,232,156782,1,0,0:0:0:0:
380,284,156960,2,0,P|320:256|256:260,1,105.000001001358
96,256,157670,6,0,P|104:200|120:172,1,52.500000500679
120,156,158025,2,0,P|140:112|176:88,1,52.500000500679
184,76,158380,1,0,0:0:0:0:
184,76,158735,1,0,0:0:0:0:
344,172,159090,6,0,B|280:208|232:292|232:292|152:264|128:192,1,315.000003004074
124,100,160510,1,0,0:0:0:0:
168,68,160687,1,0,0:0:0:0:
220,56,160865,1,0,0:0:0:0:
272,64,161042,1,0,0:0:0:0:
316,96,161220,2,0,P|368:128|420:112,1,105.000001001358
444,80,161752,1,0,0:0:0:0:
400,52,161930,6,0,B|296:76|280:172|280:172|392:184|408:268,1,315.000003004074
332,320,163350,5,0,0:0:0:0:
300,280,163528,1,0,0:0:0:0:
252,264,163705,1,0,0:0:0:0:
200,252,163883,1,0,0:0:0:0:
160,220,164060,5,0,0:0:0:0:
316,80,164770,1,0,0:0:0:0:
392,276,165480,1,0,0:0:0:0:
256,80,188025,5,0,0:0:0:0:
252,108,188202,2,0,P|248:128|220:152,1,30
228,164,188557,2,0,P|208:188|188:196,1,30
152,200,189090,1,0,0:0:0:0:
152,200,189445,1,0,0:0:0:0:
152,112,189977,1,0,0:0:0:0:
152,112,190332,1,0,0:0:0:0:
256,56,190687,1,0,0:0:0:0:
256,56,191042,2,0,P|272:96|324:136,1,90
336,136,191752,5,0,0:0:0:0:
256,224,192462,1,0,0:0:0:0:
360,284,193173,2,0,P|408:240|412:220,1,60
412,220,193705,5,0,0:0:0:0:
412,188,193883,2,0,L|384:112,1,60
360,136,194415,2,0,L|308:88,1,60
315,95,195125,1,0,0:0:0:0:
228,80,195658,1,0,0:0:0:0:
228,80,196013,2,0,L|176:80,2,30
288,88,196723,2,0,P|340:108|360:140,1,90
368,164,197433,5,0,0:0:0:0:
296,260,198143,1,0,0:0:0:0:
408,308,198853,1,0,0:0:0:0:
296,260,199563,5,0,0:0:0:0:
296,260,199918,1,0,0:0:0:0:
276,240,200096,1,0,0:0:0:0:
248,228,200273,1,0,0:0:0:0:
160,212,200806,2,0,L|108:208,1,30
152,264,201338,2,0,L|120:276,1,30
176,304,202226,1,0,0:0:0:0:
176,304,202403,5,0,0:0:0:0:
336,240,202758,1,0,0:0:0:0:
192,144,203113,1,0,0:0:0:0:
316,24,203468,1,0,0:0:0:0:
316,24,203823,2,0,L|364:68,1,60
304,80,204356,2,0,L|344:144,1,60,0|0,0:0|0:0,0:0:0:0:
380,208,205244,6,0,P|336:240|308:244,1,60
272,244,205954,5,0,0:0:0:0:
244,240,206131,1,0,0:0:0:0:
216,228,206309,1,0,0:0:0:0:
196,208,206486,1,0,0:0:0:0:
176,184,206664,2,0,P|160:152|156:120,1,60
152,100,207196,1,0,0:0:0:0:
200,48,208084,6,0,P|232:76|276:76,1,60
312,132,208794,5,0,0:0:0:0:
296,156,208971,1,0,0:0:0:0:
272,172,209149,2,0,P|224:200|192:208,1,60
164,220,209859,1,0,0:0:0:0:
136,232,210036,1,0,0:0:0:0:
92,272,210391,1,0,0:0:0:0:
168,316,210924,6,0,P|224:292|240:292,1,60
304,308,211634,2,0,L|352:320,1,38.9999982147218
340,264,211989,2,0,L|400:264,1,38.9999982147218
352,200,212344,1,0,0:0:0:0:
340,128,212522,1,0,0:0:0:0:
340,128,212877,5,0,0:0:0:0:
268,192,213054,1,0,0:0:0:0:
188,136,213232,1,0,0:0:0:0:
188,40,213409,1,0,0:0:0:0:
268,40,213764,6,0,P|288:88|284:128,1,52.500000500679
288,144,214119,2,0,P|280:176|240:216,1,52.500000500679
184,320,214652,5,0,0:0:0:0:
92,192,215007,1,0,0:0:0:0:
160,60,215539,2,0,B|188:84|240:40|284:80,1,105.000001001358
348,128,216249,1,0,0:0:0:0:
376,172,216427,1,0,0:0:0:0:
388,224,216604,2,0,B|392:284|360:296|360:296|316:248|268:240,1,157.500001502037
252,232,217315,6,0,P|168:220|96:288,1,157.500001502037
160,280,218025,2,0,P|132:176|68:128,1,157.500001502037
52,120,218735,1,0,0:0:0:0:
216,80,219267,5,0,0:0:0:0:
268,96,219445,2,0,L|324:112,1,52.500000500679
296,156,219800,2,0,L|344:184,1,52.500000500679
212,272,220332,5,0,0:0:0:0:
148,128,220687,1,0,0:0:0:0:
384,100,221220,1,0,0:0:0:0:
384,100,221575,5,0,0:0:0:0:
356,144,221752,1,0,0:0:0:0:
348,196,221930,1,0,0:0:0:0:
372,244,222107,1,0,0:0:0:0:
408,284,222285,2,0,P|280:288|232:256,1,157.500001502037
220,240,222995,6,0,L|392:208,1,157.500001502037
336,172,223705,2,0,L|176:160,1,157.500001502037
204,112,224415,2,0,L|304:96,1,52.500000500679
308,96,224770,1,0,0:0:0:0:
359,88,224948,1,0,0:0:0:0:
412,80,225125,1,0,0:0:0:0:
412,180,225480,5,0,0:0:0:0:
412,180,225658,1,0,0:0:0:0:
412,180,225835,1,0,0:0:0:0:
288,260,226368,1,0,0:0:0:0:
288,260,226545,1,0,0:0:0:0:
180,128,226900,1,0,0:0:0:0:
180,128,227078,1,0,0:0:0:0:
96,220,227788,1,0,0:0:0:0:
96,220,227965,6,0,L|228:248,1,105.000001001358
180,188,228675,2,0,L|312:172,1,105.000001001358
248,220,229386,2,0,L|380:232,1,105.000001001358
404,236,229918,1,0,0:0:0:0:
392,52,230273,2,0,L|448:56,2,52.500000500679
332,96,230806,6,0,P|244:120|200:96,1,105.000001001358
136,84,231516,1,0,0:0:0:0:
88,104,231693,1,0,0:0:0:0:
60,148,231871,2,0,P|56:200|80:264,1,105.000001001358
172,216,232581,2,0,P|188:160|200:148,1,52.500000500679
216,124,232936,6,0,P|264:84|360:64,1,157.500001502037
352,116,233646,2,0,P|368:192|404:232,1,105.000001001358
428,236,234178,1,0,0:0:0:0:
384,216,234356,5,0,0:0:0:0:
332,216,234533,1,0,0:0:0:0:
284,236,234711,1,0,0:0:0:0:
252,276,234889,1,0,0:0:0:0:
304,284,235066,2,0,P|256:200|220:168,1,105.000001001358
204,168,235599,1,0,0:0:0:0:
156,148,235776,6,0,B|68:132|16:228|16:228|100:220|152:288,1,315.000003004074
180,316,237019,1,0,0:0:0:0:
224,344,237196,6,0,P|256:360|308:344,1,52.500000500679
324,356,237551,2,0,P|364:336|376:288,1,52.500000500679
392,284,237906,1,0,0:0:0:0:
256,124,238616,1,0,0:0:0:0:
256,192,239326,12,0,243587,0:0:0:0:
244,332,244297,5,0,0:0:0:0:
244,332,245007,2,0,B|172:264|148:156|148:156|260:232|416:244|416:244|284:124|288:32,1,720
288,56,250687,1,0,0:0:0:0:
