osu file format v14

[General]
AudioFilename: SnowConnect.mp3
AudioLeadIn: 1500
PreviewTime: 47811
Countdown: 0
SampleSet: Soft
StackLeniency: 0.4
Mode: 0
LetterboxInBreaks: 0
WidescreenStoryboard: 0

[Editor]
DistanceSpacing: 0.9
BeatDivisor: 4
GridSize: 16
TimelineZoom: 2

[Metadata]
Title:Snow x Connect
TitleUnicode:Snow×Connect
Artist:Shimotsuki Haruka
ArtistUnicode:霜月はるか
Creator:-Nanaka-
Version:Winter Love
Source:ピュア×コネクト
Tags:Pure Connect SMEE Opening Visual Novel Eroge
BeatmapID:747177
BeatmapSetID:337742

[Difficulty]
HPDrainRate:6
CircleSize:4
OverallDifficulty:7.5
ApproachRate:8
SliderMultiplier:1.7
SliderTickRate:1

[Events]
//Background and Video events
Video,0,"SnowConnect.avi"
0,0,"BG.jpg",0,0
//Break Periods
//Storyboard Layer 0 (Background)
//Storyboard Layer 1 (Fail)
//Storyboard Layer 2 (Pass)
//Storyboard Layer 3 (Foreground)
//Storyboard Sound Samples

[TimingPoints]
-908,495.867768595041,4,2,1,50,1,0
2315,-100,4,2,1,5,0,0
2811,-100,4,2,1,50,0,0
4298,-100,4,2,1,5,0,0
4794,-100,4,2,1,50,0,0
9009,-100,4,2,1,70,0,0
11984,-100,4,2,1,50,0,0
12232,-100,4,2,1,70,0,0
16943,-100,4,2,1,50,0,0
17439,-100,4,2,1,60,0,0
40744,-100,4,2,1,50,0,0
40992,-100,4,2,1,70,0,0
44711,-100,4,2,1,60,0,0
45207,-100,4,2,1,70,0,0
46199,-100,4,2,1,50,0,0
46323,-100,4,2,1,70,0,0
46695,-100,4,2,1,60,0,0
47439,-100,4,2,1,70,0,0
47934,-100,4,2,1,50,0,0
48678,-83.3333333333333,4,2,1,80,0,1
55001,-83.3333333333333,4,2,1,30,0,1
55125,-83.3333333333333,4,2,1,80,0,1
55496,-83.3333333333333,4,2,1,30,0,1
55620,-83.3333333333333,4,2,1,80,0,1
63554,-83.3333333333333,4,2,1,80,0,1
63802,-100,4,2,1,80,0,0
63926,-100,4,2,1,60,0,0
64050,-100,4,2,1,80,0,0
64298,-100,4,2,1,60,0,0
64546,-83.3333333333333,4,2,1,80,0,1
70868,-83.3333333333333,4,2,1,30,0,1
70992,-83.3333333333333,4,2,1,80,0,1
71364,-83.3333333333333,4,2,1,30,0,1
71488,-83.3333333333333,4,2,1,80,0,1
77439,-100,4,2,1,80,0,0
77563,-100,4,2,1,50,0,0
77687,-100,4,2,1,70,0,0
77934,-100,4,2,1,40,0,0
78058,-100,4,2,1,60,0,0
78182,-100,4,2,1,50,0,0
78306,-100,4,2,1,30,0,0
78430,-100,4,2,1,40,0,1
82397,-100,4,2,1,70,0,0
85372,-100,4,2,1,50,0,0
85620,-100,4,2,1,70,0,0
88472,-100,4,2,1,50,0,0
89091,-100,4,2,1,40,0,0
89463,495.867768595041,4,2,1,30,1,0
90021,495.867768595041,4,2,1,20,1,0
90733,495.867768595041,4,2,1,10,1,0
91724,495.867768595041,4,2,1,80,1,0

[Colours]
Combo1 : 218,153,105
Combo2 : 51,40,36
Combo3 : 255,21,138
Combo4 : 211,208,199
Combo5 : 255,255,36

[HitObjects]
425,63,827,5,2,0:0:0:0:
441,78,951,1,0,0:0:0:0:
457,93,1075,1,2,0:0:0:0:
376,208,1323,1,0,0:0:0:0:
360,192,1447,1,0,0:0:0:0:
492,240,1695,1,0,0:0:0:0:
484,260,1819,2,0,P|436:324|328:300,1,170,2|0,0:0|0:0,0:0:0:0:
87,321,2811,5,2,0:0:0:0:
71,306,2935,1,0,0:0:0:0:
55,291,3059,1,2,0:0:0:0:
136,176,3307,1,0,0:0:0:0:
152,192,3431,1,0,0:0:0:0:
20,144,3679,1,0,0:0:0:0:
28,124,3803,2,0,P|76:60|184:84,1,170,2|0,0:0|0:0,0:0:0:0:
344,284,4794,5,2,0:0:0:0:
344,284,4918,1,0,0:0:0:0:
344,284,5042,1,2,0:0:0:0:
152,176,5290,1,2,0:0:0:0:
132,180,5414,1,0,0:0:0:0:
112,184,5538,1,0,0:0:0:0:
92,188,5662,1,0,0:0:0:0:
71,193,5786,1,2,0:0:0:0:
71,193,6282,1,2,0:0:0:0:
132,48,6530,1,0,0:0:0:0:
120,272,6777,5,2,0:0:0:0:
120,272,6901,1,0,0:0:0:0:
120,272,7025,1,2,0:0:0:0:
236,152,7273,1,2,0:0:0:0:
248,136,7397,1,0,0:0:0:0:
268,128,7521,1,0,0:0:0:0:
288,128,7645,1,0,0:0:0:0:
308,132,7769,6,0,B|368:88|424:124|424:124|460:88,1,170,2|0,0:0|0:0,0:0:0:0:
372,188,8513,2,0,L|348:288,1,85,2|0,0:0|0:0,0:0:0:0:
272,344,8885,1,0,0:0:0:0:
272,344,9009,6,0,L|244:244,1,85,4|0,0:1|0:0,0:0:0:0:
242,224,9381,1,8,0:0:0:0:
119,311,9629,1,0,0:0:0:0:
119,311,9753,2,0,P|43:271|67:171,1,170,4|0,0:1|0:0,0:0:0:0:
124,72,10496,1,2,0:0:0:0:
144,216,10744,1,0,0:0:0:0:
144,216,10868,1,0,0:0:0:0:
144,216,10992,6,0,P|189:197|224:164,1,85,4|0,0:1|0:0,0:0:0:0:
243,146,11364,1,8,0:1:0:0:
319,242,11612,1,0,0:0:0:0:
319,242,11736,1,4,0:1:0:0:
395,98,11984,1,8,0:3:0:0:
424,114,12108,1,4,0:3:0:0:
445,140,12232,1,8,0:0:0:0:
416,308,12480,2,0,P|381:330|317:325,1,85,10|0,0:0|0:0,0:0:0:0:
257,289,12852,1,0,0:0:0:0:
257,289,12976,6,0,P|221:290|163:331,1,85,4|0,0:1|0:0,0:0:0:0:
149,340,13348,1,8,0:0:0:0:
95,171,13596,1,0,0:0:0:0:
95,171,13720,1,4,0:1:0:0:
16,280,13968,1,0,0:0:0:0:
12,144,14215,2,0,P|36:108|76:88,1,85,2|0,0:0|0:0,0:0:0:0:
176,140,14711,1,8,0:0:0:0:
280,56,14959,6,0,B|320:116|320:116|304:172|356:216,1,170,4|0,0:1|0:0,0:0:0:0:
472,136,15703,1,0,0:0:0:0:
422,274,15951,2,0,P|350:306|262:270,1,170,2|0,0:0|0:0,0:0:0:0:
124,128,16943,6,0,P|141:48|221:28,1,170,4|8,0:1|0:1,0:0:0:0:
312,148,17687,1,8,0:0:0:0:
312,148,17811,1,0,0:0:0:0:
312,148,17934,2,0,B|360:152|400:132|400:132|440:152|488:148,1,170,2|8,0:0|0:1,0:0:0:0:
342,57,18678,1,0,0:0:0:0:
396,216,18926,6,0,L|360:332,1,85,10|0,0:0|0:0,0:0:0:0:
270,367,19422,1,8,0:1:0:0:
270,367,19546,1,0,0:0:0:0:
270,367,19670,2,0,P|234:347|206:311,2,85,10|0|0,0:0|0:0|0:0,0:0:0:0:
308,248,20414,1,8,0:1:0:0:
400,332,20662,1,8,0:0:0:0:
428,208,20910,6,0,P|396:172|348:132,1,85,2|0,0:0|0:0,0:0:0:0:
256,148,21406,1,8,0:1:0:0:
256,148,21530,1,0,0:0:0:0:
256,148,21653,2,0,P|204:216|104:232,1,170,10|0,0:0|0:0,0:0:0:0:
32,136,22397,1,8,0:1:0:0:
32,136,22893,6,0,P|84:68|184:52,1,170,10|8,0:0|0:1,0:0:0:0:
344,188,23637,1,2,0:0:0:0:
344,188,23761,1,0,0:0:0:0:
344,188,23885,1,0,0:1:0:0:
268,56,24133,1,2,0:0:0:0:
400,108,24381,1,8,0:1:0:0:
256,148,24629,1,8,0:0:0:0:
356,32,24877,6,0,P|440:28|488:120,1,170,10|8,0:0|0:1,0:0:0:0:
444,216,25620,1,8,0:0:0:0:
444,216,25744,1,2,0:0:0:0:
400,108,25992,1,0,0:0:0:0:
400,108,26116,1,2,0:0:0:0:
368,272,26364,1,8,0:1:0:0:
488,136,26612,1,0,0:0:0:0:
324,180,26860,6,0,L|216:168,1,85,10|0,0:0|0:0,0:0:0:0:
64,112,27356,1,8,0:1:0:0:
64,112,27480,1,0,0:0:0:0:
64,112,27604,2,0,L|177:93,1,85,2|0,0:0|0:0,0:0:0:0:
148,98,27976,1,0,0:0:0:0:
148,98,28100,1,2,0:0:0:0:
240,207,28348,1,8,0:1:0:0:
288,44,28596,1,8,0:0:0:0:
344,244,28844,6,0,P|416:232|440:124,1,170,2|8,0:0|0:1,0:0:0:0:
460,96,29463,1,0,0:0:0:0:
460,96,29587,2,0,L|500:208,1,85,10|0,0:0|0:0,0:0:0:0:
504,216,29959,1,0,0:0:0:0:
504,216,30083,1,2,0:0:0:0:
432,347,30331,2,0,P|398:330|338:319,1,85
164,276,30827,5,10,0:0:0:0:
312,160,31075,1,0,0:0:0:0:
124,96,31323,2,0,P|44:128|-8:228,2,170,2|2|2,0:0|0:0|0:0,0:0:0:0:
124,96,32439,1,0,0:0:0:0:
124,96,32563,1,8,0:0:0:0:
240,204,32811,6,0,P|284:180|339:133,1,85,4|0,0:1|0:0,0:0:0:0:
415,78,33306,2,0,P|419:98|415:180,2,85,8|0|2,0:1|0:0|0:0,0:0:0:0:
311,159,34050,1,0,0:0:0:0:
360,284,34298,1,8,0:1:0:0:
459,203,34546,1,8,0:0:0:0:
293,368,34794,6,0,P|234:307|145:280,1,170,2|8,0:0|0:1,0:0:0:0:
4,208,35538,1,0,0:0:0:0:
4,208,35662,1,0,0:0:0:0:
4,208,35786,2,0,P|62:147|152:120,1,170,2|8,0:0|0:1,0:0:0:0:
456,244,36777,6,0,L|372:276,1,85,10|0,0:0|0:0,0:0:0:0:
264,212,37273,1,8,0:1:0:0:
244,364,37521,1,0,0:0:0:0:
244,364,37645,1,0,0:0:0:0:
244,364,37769,1,2,0:0:0:0:
368,304,38017,1,0,0:0:0:0:
144,264,38265,1,8,0:1:0:0:
276,128,38513,1,8,0:0:0:0:
448,320,38761,6,0,B|392:296|392:296|344:308|344:308|278:279,1,170,2|8,0:0|0:1,0:0:0:0:
120,168,39505,1,0,0:0:0:0:
120,168,39629,1,0,0:0:0:0:
120,168,39753,2,0,P|64:213|66:314,1,170,2|8,0:0|0:1,0:0:0:0:
252,380,40496,2,0,L|284:312,1,42.5,8|0,0:0|0:0,0:0:0:0:
336,196,40744,5,4,0:1:0:0:
384,320,40992,1,0,0:0:0:0:
396,348,41116,1,8,0:1:0:0:
236,164,41488,2,0,P|304:100|376:104,1,170,10|0,0:0|0:0,0:0:0:0:
488,192,42232,1,8,0:1:0:0:
372,288,42480,2,0,L|348:236,1,42.5,8|0,0:0|0:0,0:0:0:0:
296,104,42728,5,2,0:0:0:0:
220,220,42976,1,0,0:0:0:0:
204,244,43100,1,8,0:1:0:0:
384,56,43472,2,0,P|332:12|216:40,1,170,10|0,0:0|0:0,0:0:0:0:
128,116,44215,1,8,0:1:0:0:
254,175,44463,1,8,0:0:0:0:
254,175,44587,1,0,0:0:0:0:
254,175,44711,6,0,P|285:137|297:86,1,85,4|0,0:1|0:0,0:0:0:0:
111,197,45207,2,0,P|85:226|71:288,1,85,4|0,0:1|0:0,0:0:0:0:
256,316,45703,1,8,0:0:0:0:
392,216,45951,1,8,0:0:0:0:
412,188,46075,1,8,0:0:0:0:
420,156,46199,1,0,1:0:0:0:
420,120,46323,1,8,0:1:0:0:
404,92,46447,1,8,0:1:0:0:
380,68,46571,1,8,0:1:0:0:
348,56,46695,5,4,0:1:0:0:
256,328,47067,1,4,0:1:0:0:
148,56,47439,1,10,0:0:0:0:
256,340,47934,5,2,0:0:0:0:
316,232,48182,1,2,0:0:0:0:
144,304,48430,1,2,0:0:0:0:
144,304,48554,1,0,0:0:0:0:
144,304,48678,6,0,B|104:248|104:248|128:200|128:200|92:164|92:108,1,203.999993774414,6|8,0:1|0:1,0:0:0:0:
193,14,49422,1,0,0:0:0:0:
193,14,49546,1,0,0:0:0:0:
193,14,49670,1,2,0:1:0:0:
236,164,49918,1,0,0:0:0:0:
236,164,50042,1,0,0:0:0:0:
236,164,50166,1,8,0:1:0:0:
79,98,50414,1,2,0:0:0:0:
184,220,50662,6,0,P|228:168|340:160,1,152.999995330811,2|0,0:1|0:0,0:0:0:0:
340,156,51158,1,8,0:1:0:0:
211,44,51406,1,2,0:0:0:0:
184,220,51653,1,2,0:1:0:0:
340,156,51901,1,0,0:0:0:0:
340,156,52025,1,0,0:0:0:0:
340,156,52149,2,0,P|400:124|452:72,1,101.999996887207,8|0,0:1|0:0,0:0:0:0:
484,224,52645,6,0,L|456:348,1,101.999996887207,2|0,0:1|0:0,0:0:0:0:
344,252,53141,1,8,0:1:0:0:
284,368,53389,1,0,0:0:0:0:
284,368,53513,1,0,0:0:0:0:
284,368,53637,2,0,P|220:360|168:332,1,101.999996887207,2|0,0:1|0:0,0:0:0:0:
152,320,54009,1,0,0:0:0:0:
152,320,54133,1,8,0:1:0:0:
40,368,54381,1,0,0:0:0:0:
0,216,54629,6,0,P|60:160|148:200,1,152.999995330811,2|0,0:1|0:0,0:0:0:0:
191,275,55125,2,0,P|264:285|315:231,1,152.999995330811,10|0,0:1|0:0,0:0:0:0:
331,188,55620,1,2,0:1:0:0:
389,319,55868,1,0,0:0:0:0:
240,208,56116,2,0,P|207:175|205:110,1,101.999996887207,10|0,0:1|0:0,0:0:0:0:
454,153,56612,6,0,L|416:344,1,152.999995330811,6|0,0:1|0:0,0:0:0:0:
416,336,57108,1,8,0:1:0:0:
512,256,57356,1,0,0:0:0:0:
304,308,57604,2,0,P|247:298|199:257,1,101.999996887207,2|0,0:1|0:0,0:0:0:0:
212,274,57976,1,0,0:1:0:0:
212,274,58100,1,8,0:1:0:0:
260,148,58348,1,0,0:0:0:0:
104,136,58596,6,0,L|136:244,1,101.999996887207,2|0,0:1|0:0,0:0:0:0:
260,148,59091,1,8,0:1:0:0:
143,265,59339,1,0,0:0:0:0:
184,120,59587,2,0,L|148:8,1,101.999996887207,2|0,0:1|0:0,0:0:0:0:
153,23,59959,1,0,0:0:0:0:
153,23,60083,1,8,0:1:0:0:
44,192,60331,1,0,0:0:0:0:
40,24,60579,6,0,L|4:148,1,101.999996887207,2|0,0:1|0:0,0:0:0:0:
156,208,61075,2,0,L|184:316,1,101.999996887207,8|0,0:1|0:0,0:0:0:0:
12,380,61571,1,2,0:1:0:0:
12,380,61695,1,0,0:0:0:0:
12,380,61819,1,0,0:0:0:0:
80,168,62067,1,8,0:1:0:0:
228,312,62315,1,2,0:0:0:0:
0,224,62563,5,6,0:1:0:0:
92,44,62811,1,0,0:0:0:0:
112,24,62934,2,0,B|164:12|204:32|204:32|268:-8,1,152.999995330811,2|8,0:0|0:0,0:0:0:0:
308,248,63554,1,6,0:1:0:0:
408,148,63802,1,2,0:0:0:0:
416,168,63926,1,4,0:3:0:0:
424,188,64050,1,8,0:0:0:0:
368,24,64298,1,4,0:3:0:0:
308,248,64546,6,0,B|254:209|254:209|206:233|206:233|170:197|133:199,1,203.999993774414,6|8,0:1|0:1,0:0:0:0:
100,368,65290,1,0,0:0:0:0:
100,368,65414,1,0,0:0:0:0:
100,368,65538,1,2,0:1:0:0:
204,232,65786,1,0,0:0:0:0:
204,232,65910,1,0,0:0:0:0:
204,232,66034,1,8,0:1:0:0:
32,288,66282,1,2,0:0:0:0:
100,152,66530,6,0,L|112:28,1,101.999996887207,2|0,0:1|0:0,0:0:0:0:
112,16,66901,1,0,0:0:0:0:
112,16,67025,1,8,0:1:0:0:
22,175,67273,1,0,0:0:0:0:
200,72,67521,1,2,0:1:0:0:
96,236,67769,1,0,0:0:0:0:
96,236,67893,1,0,0:0:0:0:
96,236,68017,2,0,P|37:206|19:154,1,101.999996887207,8|0,0:1|0:0,0:0:0:0:
226,237,68513,6,0,P|272:220|300:178,1,101.999996887207,2|0,0:1|0:0,0:0:0:0:
372,8,69009,1,8,0:1:0:0:
302,117,69257,1,0,0:0:0:0:
492,36,69505,1,2,0:1:0:0:
457,246,69753,1,0,0:0:0:0:
457,246,69877,1,0,0:0:0:0:
457,246,70001,1,8,0:1:0:0:
392,80,70249,1,0,0:0:0:0:
328,292,70496,6,0,B|276:268|276:268|230:296|176:268,1,152.999995330811,2|0,0:1|0:0,0:0:0:0:
87,252,70992,2,0,P|133:189|227:186,1,152.999995330811,10|0,0:1|0:0,0:0:0:0:
250,181,71488,1,2,0:1:0:0:
276,362,71736,1,0,0:0:0:0:
333,143,71984,2,0,P|319:124|321:27,1,101.999996887207,10|0,0:1|0:0,0:0:0:0:
492,196,72480,6,0,L|436:360,1,152.999995330811,6|0,0:1|0:0,0:0:0:0:
432,372,72976,1,8,0:1:0:0:
380,224,73224,1,0,0:0:0:0:
276,312,73472,2,0,P|240:272|168:260,1,101.999996887207,2|0,0:1|0:0,0:0:0:0:
160,264,73844,1,0,0:0:0:0:
160,264,73968,1,8,0:1:0:0:
256,136,74215,1,0,0:0:0:0:
380,224,74463,6,0,P|416:184|488:172,1,101.999996887207,2|0,0:1|0:0,0:0:0:0:
512,327,74959,1,8,0:1:0:0:
460,169,75207,1,0,0:0:0:0:
392,316,75455,2,0,P|332:302|300:270,1,101.999996887207,2|0,0:1|0:0,0:0:0:0:
288,244,75827,1,0,0:0:0:0:
288,244,75951,1,8,0:1:0:0:
372,104,76199,1,0,0:0:0:0:
232,24,76447,6,0,L|176:116,1,101.999996887207,2|0,0:1|0:0,0:0:0:0:
332,184,76943,2,0,L|392:296,1,101.999996887207,8|0,0:1|0:0,0:0:0:0:
208,372,77439,1,2,0:1:0:0:
192,356,77563,1,4,0:3:0:0:
176,340,77687,1,8,0:0:0:0:
332,184,77934,1,4,0:3:0:0:
316,172,78058,1,8,0:0:0:0:
296,164,78182,1,8,0:0:0:0:
276,164,78306,1,4,0:3:0:0:
256,168,78430,5,2,0:0:0:0:
160,324,78678,1,0,0:0:0:0:
160,324,79174,1,0,0:0:0:0:
148,204,79422,1,2,0:0:0:0:
140,84,79670,1,0,0:0:0:0:
140,84,80166,1,0,0:0:0:0:
96,172,80414,6,0,L|80:264,1,85,2|2,0:0|0:0,0:0:0:0:
81,255,80786,1,0,0:0:0:0:
81,255,80910,1,0,0:0:0:0:
212,216,81158,1,0,0:0:0:0:
272,328,81406,2,0,P|320:320|380:280,1,85,2|0,0:0|0:0,0:0:0:0:
440,232,81901,2,0,L|464:144,1,85,2|0,0:0|0:0,0:0:0:0:
384,56,82273,1,0,0:0:0:0:
384,56,82397,6,0,P|344:60|292:104,1,85,4|0,0:1|0:0,0:0:0:0:
288,120,82769,1,8,0:0:0:0:
373,336,83017,1,0,0:0:0:0:
373,336,83141,2,0,L|419:173,1,170,4|0,0:1|0:0,0:0:0:0:
284,192,83885,1,2,0:0:0:0:
204,360,84133,1,0,0:0:0:0:
204,360,84257,1,0,0:0:0:0:
204,360,84381,6,0,L|168:240,1,85,4|0,0:1|0:0,0:0:0:0:
168,240,84753,1,8,0:1:0:0:
296,344,85001,1,0,0:0:0:0:
296,344,85125,1,4,0:1:0:0:
428,268,85372,1,8,0:3:0:0:
451,243,85496,1,4,0:3:0:0:
462,211,85620,1,8,0:0:0:0:
396,92,85868,2,0,P|365:71|294:73,1,85,10|0,0:0|0:0,0:0:0:0:
245,129,86240,1,0,0:0:0:0:
245,129,86364,6,0,P|197:155|129:149,1,85,4|0,0:1|0:0,0:0:0:0:
130,147,86736,1,8,0:0:0:0:
63,314,86984,1,0,0:0:0:0:
63,314,87108,1,4,0:1:0:0:
193,198,87356,1,0,0:0:0:0:
27,136,87604,2,0,P|35:113|47:99,1,42.5,2|0,0:0|0:0,0:0:0:0:
165,37,87852,2,0,P|146:46|122:50,1,42.5
154,181,88100,2,0,L|130:147,1,42.5,8|0,0:0|0:0,0:0:0:0:
275,108,88348,5,6,0:1:0:0:
256,192,88472,12,4,91724,0:1:0:0:
